This file was generated by Ched 2.7.0.0.
#TITLE ""
#ARTIST ""
#DESIGNER ""
#DIFFICULTY 0
#PLAYLEVEL
#SONGID ""
#WAVE ""
#WAVEOFFSET 0
#JACKET ""
#REQUEST "ticks_per_beat 480"
#00002: 4
#BPM01: 178
#00008: 01
#TIL00: ""
#HISPEED 00
#MEASUREHS 00
#00019:14
#00113:14
#00219:14
#00313:1414
#0081a:14
#00914:14
#01018:14
#01112:14
#0121a:14
#0131a:14
#01414:14
#01514:14
#01618:14
#01610:41
#01718:14
#01812:14
#01912:14
#0241a:14
#02512:14
#02914:14
#0311a:14
#03312:14
#03518:14
#03812:0016
#03818:26
#03918:16
#03912:0016
#04018:16
#04012:0016
#04412:16
#04418:0016
#04512:1616
#04118:1616
#05012:0016
#05018:26
#05118:16
#05112:0016
#05218:1616
#05312:16
#05318:0016
#05412:16
#05418:0016
#05912:14
#0601a:14
#06112:14
#0621a:14
#06618:14
#07312:16
#07318:0016
#07718:16
#07712:0016
#07818:1616
#07412:1616
#08512:1616
#08618:16
#08612:0016
#08718:1616
#06712:14
#0681a:14
#06912:14
#08812:16
#08818:0016
#09312:14
#09418:14
#09514:14
#0631f:11
#02814:24
#02810:41
#0301a:24
#03212:24
#03418:24
#07112:26
#07118:0026
#0711f:21
#08312:26
#08318:0026
#08310:41
#07212:26
#07218:0026
#07210:41
#0701a:24
#08412:26
#08418:0026
#05710:41
#04210:41
#004390:14
#005390:24
#006330:14
#007330:24
#020390:1434
#021390:24
#022330:1434
#023330:24
#026380:14
#027380:24
#036340:14
#037340:3424
#042320:1626
#043380:1626
#046380:16
#047380:26
#048320:16
#049320:26
#055320:1434
#056320:24
#0573a0:1434
#0583a0:24
#063340:14
#065320:24
#075380:1626
#076320:1626
#079320:16
#080320:26
#081380:16
#082380:26
#089330:14
#090330:24
#091390:14
#092390:24
#0963a0:1434
#0973a0:00240000
