This file was generated by Ched 2.7.0.0.
#TITLE ""
#ARTIST ""
#DESIGNER ""
#DIFFICULTY 0
#PLAYLEVEL
#SONGID ""
#WAVE ""
#WAVEOFFSET 0
#JACKET ""
#REQUEST "ticks_per_beat 480"
#00002: 4
#BPM01: 178
#00008: 01
#TIL00: ""
#HISPEED 00
#MEASUREHS 00
#00018:13130000
#00114:14140000
#00218:16160000
#00312:1525152515002500
#00319:2515251525001500
#00412:00130000
#00416:23001313
#00516:00130000
#00512:13001313
#00816:00130013
#00812:2313
#0061b:00130000
#00617:23001313
#00717:00130000
#0071b:13001313
#0111a:00001414
#01116:0000130000140014
#01117:13
#01112:23
#01215:00130013
#01218:0000001300000013
#01212:2413
#0121b:0000000000130000
#0121a:24
#01418:00130013
#0141b:1313
#01412:1300001300000013
#01415:0000000000130000
#01315:0000000000000013
#0131b:13
#01316:13
#01317:00130000
#01312:0013
#01514:0018
#01516:14
#01515:00160000
#01718:0000000000000013
#01712:13
#01717:13
#01716:00130000
#0171b:0013
#01714:0000003300000000
#01719:0033000000000000
#0181b:1323
#01815:0013000023000000
#01818:00130000
#01812:0000001300000013
#01918:1300002300001300
#01915:0013000000000013
#0191b:0000130000130000
#01912:0000002300000000
#02012:23130000
#0201b:0013
#02016:0023
#0211b:23130000
#02112:0000000013000013
#02117:0023
#0221b:23130000
#02212:0000002300130000
#02215:00000013
#02218:0000000000000013
#02216:23
#02217:0000002300000000
#0251b:1313
#02517:0013000000001300
#02512:00130013
#02516:0000001300000000
#02519:0000000000130000
#0261b:13
#02617:0000001300000000
#02616:13
#02612:0000001300000000
#02712:0013000000002300
#02715:00131300
#02718:0000001300001300
#0271b:0013
#02814:00000014000000000000001400000000
#02812:1424
#02816:0000001400000014
#0281a:2414
#02810:41
#02914:00000014000000000000000000000000
#02912:1424
#02916:0000001400002400
#0291a:2414
#03018:00000014000000000000001400000000
#0301a:1424
#03016:0000001400000014
#03012:2414
#03118:00000014000000000000000000000000
#0311a:1424
#03116:0000001400002400
#03112:2414
#03214:00000014000000000000000000000000
#03216:0000001400000014
#03212:14002313
#0321b:23130000
#03218:00000000000000000000001400000000
#0321a:0014
#03315:0000000000000013
#03314:00000014000000000000000000000000
#03316:0000001400002400
#03312:1423
#0331b:23130000
#0331a:0014
#0351a:00000014
#03512:1300001300001400
#0351b:1300001300000000
#03518:00130000
#03515:00130000
#03616:14140000
#03613:00001414
#03619:00001414
#03712:15152600
#03719:15150000
#03718:0026
#03915:0015000000000013
#03912:15
#0391b:23131300
#04015:0013001300130013
#0401b:00130013
#04012:2323
#04018:2323
#04418:0013001300130013
#04412:00130013
#0441b:2323
#04415:2323
#04615:00131300
#04618:0000000000130000
#04612:00000013
#0461b:2300000000000013
#04616:23
#04718:1300130000130000
#04712:0000001300001300
#04715:0000000013000013
#0471b:00000013
#04512:00131300
#04517:00131300
#04516:0000001300000000
#0451b:2300001300000000
#04515:23
#04917:00000013
#0491b:0013
#04915:13
#04918:13
#05212:13231323
#05215:0013000000130000
#0521b:23132313
#05218:0000001300000013
#09716:00140000
#05318:0000000026000016
#05312:2600000023000026
#0531b:23
#05315:0000002300000000
#05418:0016001616000000
#05412:0026002626000000
#05516:13131313
#05612:13131313
#05716:13
#0571a:00130000
#05714:0013
#05718:00000013
#05719:0013
#05710:41
#05812:1300000000000013
#05815:0013000000001300
#05818:0000130000130000
#0581b:0000001313000000
#05817:13
#0591a:0000001300140000
#05913:0013
#05916:0014140000001400
#05912:0000000000000014
#06016:0014140000001400
#06013:0000001300000000
#0601a:0000000013000014
#06012:0000000000140000
#0611b:2313
#06112:00130023
#06117:00230013
#06116:1323
#07216:0015000014000013
#07219:25
#07212:24240000
#07210:41
#07317:0013001300000000
#07315:00130000
#07318:2400000000130013
#07316:00000013
#07312:24
#07313:0024
#07319:0024
#07812:24131300
#07815:0000001300001300
#0781b:00131300
#07818:2400001300001300
#08515:0013000000130000
#08518:0000001300000013
#08512:24242424
#0851a:24242424
#07716:0013001300000000
#07718:00130000
#07715:0000000000130013
#07717:00000013
#07713:0024
#07714:24
#0771a:24
#07719:0024
#0871a:0000001414000000
#08718:0014000000000000
#08716:0000002424000014
#08714:0024000000000000
#08712:0000000000000024
#08616:0000002400000014
#0861a:2424
#08612:2400000024000024
#0881a:0000001414000000
#08818:0014000000000000
#08816:0000002424000000
#08814:0024000000000000
#00917:00130013
#0091b:2313
#01016:00130000
#01017:00000013
#01012:23
#0101b:0023
#01618:00130013
#01615:0000001300000013
#0161b:0013
#01612:2400000000130000
#0161a:24
#01610:41
#03418:00000014000000000000000000000000
#03416:0000001400000014
#03414:00000000000000000000001400000000
#03412:23231400
#0341a:14
#0341b:00002323
#09317:00130013
#0931b:2323
#09612:00001414
#09616:1300000000140014
#09617:00130000
#0961b:23
#09416:00130013
#09412:2323
#0951b:00130000
#09512:00000013
#09517:23
#09516:0023
#0891b:00130013
#08917:2323
#09017:23130000
#0901b:00002313
#09112:00130013
#09116:2323
#09216:23130000
#09212:00002313
#04812:0000000013000013
#0481b:0013000000000013
#04816:0000001300000000
#04817:13
#07918:00131300
#07915:0000000000130000
#0791b:23000013
#07912:2300000000000013
#08015:1300130000130000
#0801b:0000001300000000
#08018:0013
#08012:00000013
#08017:00000013
#08019:0000000000000013
#08216:0000000000131300
#08212:0013
#08218:13
#08215:13
#0811b:0000001300000013
#08112:1300000000000013
#08117:0013
#08116:0013000000000000
#0241b:0000001300000013
#02412:0013000000130000
#02418:0013000000000000
#04216:14
#04212:0014
#04210:41
#04316:1413
#0431b:0013
#07118:0013000000000000
#07117:0000000000140000
#07116:24240000
#07114:00002424
#0711a:0024
#0711b:23
#0711f:21
#07612:0014
#07616:2424
#02315:0013000000000000
#02318:0000001300000000
#02312:00231300
#0231b:2323
#03815:0013000000140000
#03812:1314
#03819:00002313
#03817:00130000
#05116:0015000000000000
#05119:15
#05112:23131300
#05017:0000000000140000
#0501a:0014
#05018:0013000000000000
#0501b:13
#05014:00002313
#05016:23130000
#08315:0013000000140000
#08316:24240000
#08318:00002424
#08312:2324
#08310:41
#08415:0015000000000000
#08416:0014
#08412:25
#0841a:24240000
#06312:13130000
#06316:00001313
#0631f:11
#06518:13130000
#0651b:00001313
#06412:13130000
#06415:00001313
#06617:13130000
#0661b:00001313
#0681b:00000013
#06819:0013
#06817:00130000
#06716:00000013
#06714:0013
#06712:14130000
#06918:0013000000130000
#06915:00130013
#0691b:2300001323000000
#06912:0000001313000013
#07414:24
#07413:00250000
#0741a:24
#07419:00250000
#07412:0026
#07418:0026
#04118:23252600
#04112:23252600
#07516:24
#0751a:0024
#07016:24
#00456:13
#0125a:14
#01554:0018
#01357:00530000
#01356:53
#01352:0013
#0205b:0053
#02052:13
#02056:0053
#02152:0063
#0215b:13
#02157:0063
#0255b:53
#02552:00530000
#02556:0000002300000000
#02557:0023000000005300
#02657:0000002300000000
#0265b:53
#02656:53
#02652:0000002300000000
#04552:00535300
#04557:00535300
#04556:0000005300000000
#0455b:0000005300000000
#0975a:00140000
#09756:00140000
#05352:16
#05358:0016
#05452:0016
#05458:0016
#06258:0013
#06255:0013
#07852:00535300
#07855:0000005300002300
#0785b:00636300
#07858:0000006300002300
#0865a:14
#08652:0014
#0795b:43
#07952:33
#0885a:0014
#08856:0014
#01652:14
#01757:63
#01756:00630000
#0175b:0013
#03552:5300002300003400
#0355b:6300002300000000
#03555:00530000
#03558:00630000
#0355a:00000044
#0275b:0013
#02752:00000013
#04852:0023
#0485b:0023000000000000
#04856:0000006300000000
#04857:53
#0815b:0000006300000000
#08157:0023
#08152:53
#08156:0023000000000000
#04955:23
#04958:23
#04952:00000013
#04957:00000013
#0425a:00140000
#04256:64000014
#04252:0064
#0435a:00140000
#04356:6463
#0435b:0063
#07158:0023000000000000
#07157:0000000000240000
#0715a:0064
#0715b:63
#07156:00140000
#07154:00000014
#07256:0025000064000000
#07259:65
#07252:00140000
#08255:63
#08258:53
#08256:00000013
#0825b:00000013
#0335a:0054
#03356:00000014
#0295a:0054
#02956:00000014
#03152:0064
#03156:00000014
#07656:6454
#07652:00145400
#0755a:0064
#07556:64000014
#07552:00140000
#0235b:1313
#02352:00135300
#04152:0016
#04158:0016
#07452:0016
#07458:0016
#08756:0064
#0875a:0064
#09152:00130013
#09357:00130013
#09456:00130013
#0955b:00130000
#09552:00000013
#0895b:00130013
#09256:00130000
#09252:00000013
#09057:00130000
#0905b:00000013
#03955:0025000000000000
#03952:55
#0395b:00136300
#03855:0023000000240000
#03852:5354
#03859:00000013
#03857:00130000
#05156:0025000000000000
#05159:65
#05152:00135300
#05057:0000000000240000
#0505a:0064
#05058:0023000000000000
#0505b:63
#05054:00000013
#05056:00130000
#08355:0023000000240000
#08352:5354
#08356:00140000
#08358:00000014
#08455:0025000000000000
#08452:55
#0845a:00140000
#08456:0054
#01156:00230000
#01157:23
#09657:00230000
#09656:23
#00852:13
#0685a:14
#06752:14
#04656:13
#0465b:13
#07056:14
#00657:13
#01052:13
#000350:13230000
#001380:14240000
#002320:16260000
#0043b0:13003333
#004370:00330000
#005370:33003323
#0053b0:00330000
#006320:13003333
#006360:00330000
#007360:33003323
#007320:00330000
#008370:13
#0083b0:00230000
#008370:0013
#0083b0:00000023
#009360:13
#009320:00230000
#009360:0013
#009320:00000023
#010370:13
#0103b0:00230000
#010360:0013
#010320:00000023
#011370:13
#0113b0:00230000
#011361:00130000
#011321:0023
#013361:13
#013321:00230000
#013370:00130000
#0133b0:0023
#017370:13
#017390:0033000000000000
#0173b0:00230000
#017361:00130000
#017341:0000003300000000
#017321:0023
#0203b1:1333
#020391:0033003300000000
#020371:00330023
#020360:0013
#020320:00000023
#021320:1333
#021340:0033003300000000
#021360:00330023
#021371:0013
#0213b1:00000023
#023321:0013
#023361:00000023
#024351:00132300
#024380:00001323
#024351:00000013
#025351:23
#0253b0:13230000
#025370:0053000000000000
#025321:00132300
#025361:0000005300000000
#025371:00000013
#0263b1:33000023
#026371:0000005300000000
#026360:13000023
#026320:0000005300000000
#0293a0:0014
#029360:00000024
#031320:0014
#031360:00000024
#0333a0:0014
#033360:00000024
#0353b0:1300005300000000
#035380:00332300
#035321:1300005300000000
#035351:00332300
#037381:000000000000000000000000165656565656565656565656
#037391:000000000000000000000000000000000000000000000000005400540054005400540054005400540054005400540054
#038381:26
#038320:13230000
#038350:0053000000000000
#038320:00001424
#038350:0000000000540000
#039320:15250000
#039350:0055000000000000
#0393b0:0013
#039370:00000023
#039321:00001323
#042361:14
#0423a1:00240000
#042320:13230000
#042320:0014
#042360:00000024
#0423b1:00001323
#043361:14
#0433a1:00240000
#043320:13230000
#0433b0:0013
#043370:00000023
#043361:0013
#043321:00000023
#045321:00133300
#045361:0000003300000000
#046361:23
#045370:00133300
#0453b0:0000003300000000
#0463b0:23
#046380:00132300
#047350:13230000
#048370:13230000
#0483b0:0053000000000000
#048321:13230000
#048361:0000001300230000
#048321:0053
#0483b0:0000001300230000
#049350:13
#049320:00230000
#049381:13
#0493b1:00230000
#049361:0013
#049321:0000000000332300
#0503b1:13230000
#050381:0053000000000000
#0503a1:00001424
#050371:0000000000540000
#051391:15250000
#051361:0055000000000000
#051321:0013
#051361:00000023
#0513b0:00001323
#0553b0:13000053
#056370:53000033
#056380:00000000000000000000000000330000
#056390:0000000000000033
#0563a0:00000000000000000000000000000033
#0573b0:23
#062380:13332300
#0623b0:0033003300000000
#062351:13332300
#062321:0033003300000000
#063371:13530000
#0633b1:00005353
#064371:53530000
#0643b1:00005323
#065321:13530000
#065361:00005353
#066321:53530000
#066361:00005323
#0673a1:14343434
#067381:0034003400340034
#0683a1:24
#068320:14343434
#068340:0034003400340034
#069320:24
#0713b0:13230000
#071380:0053000000000000
#0713a0:00001424
#071370:0000000000540000
#072390:15250000
#072360:0055000000000000
#072360:0014
#072320:00000024
#0723a1:00001424
#075361:14
#075321:00240000
#0753b0:13230000
#0753a0:0014
#075360:00000024
#075321:00001323
#076361:14
#076321:00240000
#0763b0:13230000
#076360:0014
#0763a0:00000024
#076321:0014
#076361:00000024
#078321:00133300
#078351:0000003300005300
#079321:23
#0783b0:00133300
#078380:0000003300005300
#0793b0:23
#079350:00132300
#080380:13230000
#081320:13230000
#081360:0053000000000000
#0813b1:13230000
#0813b1:0000001300230000
#081371:0053
#081320:0000001300230000
#082380:13
#0823b0:00230000
#082351:13
#082321:00230000
#082371:0013
#0823b1:0000000000332300
#083321:13230000
#083351:0053000000000000
#083321:00001424
#083351:0000000000540000
#084321:15250000
#084351:0055000000000000
#084361:0014
#0843a1:00000024
#084320:00001424
#087360:0014
#087320:00000024
#0873a1:0014
#087361:00000024
#089321:1333
#089361:00330033
#090321:33330000
#090361:00003323
#0913b1:1333
#091371:00330033
#0923b1:33330000
#092371:00003323
#093361:13
#093321:0053230000000000
#093361:0013
#093321:0000000000532300
#094371:13
#0943b1:0053230000000000
#094371:0013
#0943b1:0000000000532300
#095321:13
#095361:0053230000000000
#0953b1:0013
#095371:0000000000532300
#096361:13
#096321:00230000
#096370:00130000
#0963b0:0023
#0963a0:0000000000000014
#0973a0:00240000
