This file was generated by Ched 2.7.0.0.
#TITLE ""
#ARTIST ""
#DESIGNER ""
#DIFFICULTY 0
#PLAYLEVEL
#SONGID ""
#WAVE ""
#WAVEOFFSET 0
#JACKET ""
#REQUEST "ticks_per_beat 480"
#00002: 4
#BPM01: 178
#00008: 01
#TIL00: ""
#HISPEED 00
#MEASUREHS 00
#00019:13130000
#00014:13130000
#00113:14140000
#00119:14140000
#00219:15150000
#00212:15150000
#01118:00131414
#01114:0000000000140014
#01112:00130000
#0111b:13
#01115:23
#01212:00130000
#01219:0000001300000000
#01213:0013
#0121a:0000000000130000
#01214:00000013
#0121b:0000000000000013
#01218:24
#01418:00130013
#01415:1300000000130000
#01412:0000001300000013
#0141b:0013
#0131b:0000000000000013
#01315:13
#01312:00130000
#01518:1414
#01514:00140000
#01713:0000000000000013
#01718:13
#0171b:00130000
#0171a:0033000000000000
#01719:0000003300000000
#01819:13
#01814:0013000000000013
#0181a:00130000
#01815:0000001300000000
#0181b:0023
#01919:13
#01913:0013000000000000
#01918:0000130000130000
#01915:00000013
#01912:0000002300000013
#0201b:2313
#02015:00132300
#02112:2300000013000013
#02118:00132300
#02215:0000130000000013
#02212:0000000000130000
#02218:23000013
#0221b:0000002300000000
#02515:1300000000130000
#02512:0013000000000000
#02518:0013
#0251b:00000013
#02612:13
#02616:0000001300000000
#02712:0013000000002300
#02718:00130000
#02715:0000001300000000
#0271b:0013
#0351b:00130013
#03512:00000013
#03518:13
#03616:14140000
#03615:00001616
#03912:1400000000000013
#03915:0014000000000000
#0391a:0014
#04618:0000000000130000
#0461b:0000000000000013
#04615:00000013
#04617:23
#0451b:00131300
#04518:0000001300000000
#04512:23
#04717:0000001300000000
#04714:0013
#04719:0000000000130000
#0471b:0000000000000013
#04716:00000013
#05212:0013000000130000
#05215:0000001300000013
#0521b:2323
#05218:00230023
#0571b:00130000
#05714:0013
#05719:00000013
#05710:41
#05812:1300000000000013
#05818:0013000000001300
#05815:0000130000130000
#0581b:0000001313000000
#05912:0000001300000013
#0591b:0013130013000000
#05915:0000000000130000
#05918:00000013
#06119:0013
#0611a:00130000
#06118:00000013
#0611b:13
#06115:23
#06114:00230000
#06113:0023
#06112:00000023
#0161b:00130000
#01614:2400001300000000
#0161a:0013
#01613:0000000000130000
#01619:00000013
#01612:0000000000000013
#01610:41
#0241b:0000001300000013
#02412:0013
#02415:00130013
#02418:0013000000130000
#04212:13
#0421b:0013
#04210:41
#04312:13
#0431b:0013
#07117:0014000000000000
#07112:0000000000140000
#0711a:24
#07115:0024
#0711f:21
#0381a:0000000000140000
#03817:0014
#03815:0014000000000000
#03812:14
#03714:18180000
#03713:0024
#03719:0024
#06312:13130000
#06315:00001313
#0631f:11
#06418:13130000
#06718:00000014
#06716:0014
#06714:00140000
#06712:14
#06918:0013000000000013
#0691b:0000001300130000
#06914:00140014
#06915:0024
#06912:24
#00618:00130013
#00615:0013
#0061b:13
#00612:23
#00712:13
#00715:00130013
#00718:0013
#0071b:13
#00912:1313
#0091b:00130013
#00915:00130013
#00918:2313
#04015:0013000000000013
#04018:00130013
#04012:0000001300130000
#0401b:2323
#04418:0013000000000013
#04415:00130013
#0441b:0000001300130000
#04412:2323
#0601b:0000001300000013
#06012:0013130013000000
#06018:0000000000130000
#06015:00000013
#0681a:14
#06818:00140000
#06816:0014
#06814:00000014
#06812:14
#0721b:0000000000000013
#07217:0014000000000000
#07212:0024
#0721a:24
#07210:41
#07915:0000000000130000
#07912:0000000000000013
#07918:00000013
#07916:23
#07812:00131300
#07815:0000001300000000
#0781b:23
#08016:0000001300000000
#08019:0013
#08014:0000000000130000
#08012:0000000000000013
#08017:00000013
#07318:0013000000000013
#07315:00130013
#0731b:0000001300130000
#07312:2323
#00518:0013
#00515:00130013
#00512:13
#0051b:13
#06512:13130000
#06515:00001313
#06618:13130000
#00418:00130013
#00415:0013
#00412:13
#0041b:23
#0231b:2313
#02317:00130000
#02319:0033003300000000
#0531b:2300000000000013
#05318:0000002300000000
#05312:0023
#05315:0000000000000023
#05412:0013000000000000
#05418:0023000023000000
#05415:0000002300000000
#07715:0013000000000013
#07718:00130013
#07712:0000001300130000
#0771b:2323
#0851b:0013000000130000
#08518:0000001300000013
#08512:2323
#08515:00230023
#08612:2300000000000013
#08615:0000002300000000
#0861b:0023
#08618:0000000000000023
#0871b:0013000000000013
#08715:0023000023000023
#08718:0000002300000000
#08812:0013000000000000
#08818:0023000023000000
#08815:0000002300000000
#09614:00001414
#09618:2300000000140000
#09612:13
#0961b:00130000
#09615:00130000
#09115:00130013
#0911b:13
#09112:23
#09118:0023
#09218:00130013
#09212:13
#0921b:23
#09215:0023
#0941b:1313
#09412:00130013
#09418:00130013
#09415:2323
#09018:00130013
#09012:13
#0901b:23
#09015:0023
#08915:00130013
#08912:13
#0891b:23
#08918:0023
#09714:00140000
#03212:00000014000000000000000000000000
#03218:2400001400000000
#0321a:00000000000000000000001400000000
#03214:0000000024000014
#03312:00000014000000000000000000000000
#03318:2400001400000000
#03412:00000014000000000000000000000000
#03418:2400001400000000
#0341a:00000000000000000000001400000000
#03414:0000000024000014
#02818:13
#0281b:0013
#02819:00000033000000000000003300000000
#02810:41
#02915:13000023
#02912:0013
#02914:00000033000000000000000000000000
#0301b:13
#03018:0013
#0301a:00000033000000000000003300000000
#03112:13000023
#03115:0013
#03113:00000033000000000000000000000000
#05117:0014000000000000
#0511a:14
#05112:0014
#05012:0000000000140000
#05015:0014
#05017:0014000000000000
#0501a:14
#06218:14141400
#06214:0014001400000000
#08315:0014000000000000
#0831a:0000000000140000
#08312:24
#08317:0024
#08310:41
#08415:0014000000000000
#0841a:0024
#08412:24
#00318:25252500
#00313:0025002500002500
#04118:00230000
#04115:0023
#0411b:23
#07415:00230000
#07418:0023
#07412:23
#07012:24
#07015:00240000
#07018:0024
#0751b:23
#07512:0023
#0761b:23
#07612:0023
#0931b:2323
#09512:2323
#05613:00000000000000000000000000330000
#05614:0000000000000033
#05615:00000000000000000000000000000033
#01258:14
#01558:0014
#01352:00530000
#01355:5313
#0205b:1353
#02055:0053
#02555:53
#02552:0023000000000000
#02652:63
#02656:0000002300000000
#0455b:00636300
#04558:0000006300000000
#09758:00140000
#09754:00140000
#05352:0013
#0535b:13
#05458:0013
#08858:0013
#01758:6313
#0175b:00530000
#03558:53
#0355b:00230000
#04255:00130000
#04258:00000013
#0425b:0053
#04252:63
#04355:00130000
#04352:63
#0435b:0063
#07157:0024000000000000
#0715a:64440000
#07152:0000000000240000
#07155:00006444
#04155:0013
#03955:0024000000000000
#03952:54340000
#0395a:0064
#0385a:0000000000240000
#03857:00005434
#03855:0024000000000000
#03852:54340000
#02752:00000013
#0275b:0013
#04657:13
#02152:1363
#02158:0063
#07252:0064
#07257:0024000000000000
#0725a:64440000
#07852:00535300
#07855:0000005300000000
#07458:0013
#07956:13
#07558:00130000
#07555:00000013
#07552:0053
#0755b:63
#07658:00130000
#0765b:63
#07652:0053
#07058:0014
#0235b:5353
#02357:00530000
#08652:13
#0865b:0013
#02858:53
#0285b:0053
#02955:63000013
#02952:0063
#0305b:63
#03058:0063
#03152:53000013
#03155:0053
#05157:0024000000000000
#0515a:64440000
#05152:0054
#05052:0000000000240000
#05055:00006444
#05057:0024000000000000
#0505a:64440000
#06258:0014
#08355:0024000000000000
#0835a:0000000000240000
#08352:54340000
#08357:00005434
#08455:0024000000000000
#08452:54340000
#0845a:0064
#008380:13
#0083b0:00230000
#008321:13
#008351:00230000
#008381:0013
#0083b1:00000023
#008320:0013
#008350:00000023
#010350:13
#010320:00230000
#0103b1:13
#010381:00230000
#010351:0013
#010321:00000023
#0103b0:0013
#010380:00000023
#013350:1323
#013320:00330000
#017380:1323
#0173a0:0033000000000000
#0173b0:00330000
#017390:0000003300000000
#020350:0013
#020320:00000023
#0203b1:0013
#020381:00000023
#021381:0013
#0213b1:00000023
#021320:0013
#021350:00000023
#0233b0:1333
#023390:0033003300000000
#023370:00330023
#025350:13230000
#025320:0053000000000000
#026320:13000023
#026360:0000005300000000
#028380:1300000000000023
#028390:00000033000000000000003300000000
#0283b0:0000003333000000
#029350:13000023
#029340:00000033000000000000000000000000
#029320:0000003333000000
#0303b0:1300000000000023
#0303a0:00000033000000000000003300000000
#030380:0000003333000000
#031320:13000023
#031330:00000033000000000000000000000000
#031350:0000003333000000
#033340:00001424
#035380:1323
#0353b0:00330000
#038320:14240000
#038350:0054000000000000
#038370:00001424
#0383a0:0000000000540000
#039320:14240000
#039350:0054000000000000
#0393a0:0014
#039370:00000024
#042320:13
#042350:00000053230000000000000000000000
#0423b0:0013
#042380:00000000000000000000005323000000
#043320:13
#043350:00000053230000000000000000000000
#0433b0:0013
#043380:00000000000000000000005323000000
#0453b0:00133300
#045380:0000003300000000
#046370:23
#046320:00132300
#047320:13230000
#048320:1300000000330000
#048360:0000333300000033
#049360:33
#049320:00230000
#049360:0013
#049340:0000000000330000
#049320:00000023
#0493b1:0013
#049391:0000000000330000
#049371:00000023
#0503a1:14240000
#050371:0054000000000000
#050351:00001424
#050321:0000000000540000
#0513a1:14240000
#051371:0054000000000000
#051321:0014
#051351:00000024
#055381:1333
#0553b1:00330023
#056351:13000000000000003300000000000033
#056321:00330033
#056331:00000000000000000000000000330000
#056341:0000000000000033
#057351:23
#0643b1:00001323
#0663b1:00001323
#0713a1:14240000
#071371:0054000000000000
#071351:00001424
#071321:0000000000540000
#0723a1:14240000
#072371:0054000000000000
#072321:0014
#072351:00000024
#0753b1:13
#075381:00000053230000000000000000000000
#075321:0013
#075351:00000000000000000000005323000000
#0763b1:13
#076381:00000053230000000000000000000000
#076321:0013
#076351:00000000000000000000005323000000
#078321:00133300
#078351:0000003300000000
#079361:23
#0793b1:00132300
#0803b1:13230000
#0813b1:1300000000330000
#081371:0000333300000033
#082371:33
#0823b1:00230000
#082321:0013
#082341:0000000000330000
#082361:00000023
#082370:0013
#082390:0000000000330000
#0823b0:00000023
#083320:14240000
#083350:0054000000000000
#083370:00001424
#0833a0:0000000000540000
#084320:14240000
#084350:0054000000000000
#0843a0:0014
#084370:00000024
#087350:0013
#087320:00000023
#093350:13
#093320:00230000
#0933b1:13
#093381:00230000
#093351:0013
#093321:00000023
#0933b0:0013
#093380:00000023
#095380:13
#0953b0:00230000
#095321:13
#095351:00230000
#095381:0013
#0953b1:00000023
#095320:0013
#095350:00000023
#096380:0000000000000014
#097380:00240000
