This file was generated by Ched 2.7.0.0.
#TITLE ""
#ARTIST ""
#DESIGNER ""
#DIFFICULTY 0
#PLAYLEVEL
#SONGID ""
#WAVE ""
#WAVEOFFSET 0
#JACKET ""
#REQUEST "ticks_per_beat 480"
#00002: 4
#BPM01: 178
#00008: 01
#TIL00: ""
#HISPEED 00
#MEASUREHS 00
#0631f:11
#0631c:00120012
#06318:1212
#02117:0000000013000013
#02112:1300130013000013
#02116:0013001300000000
#0211b:23130000
#02016:0000000013000013
#0201b:1300130013000013
#02017:0013001300000000
#02012:23130000
#08217:13001313
#08216:0013000000000000
#08212:13
#04115:0000000000131600
#04117:2300001413000000
#0411a:0014000000000000
#04112:23240000
#0811b:2300000000130013
#08112:0013000013000016
#08117:00000013
#08116:1300001300230000
#08119:0000132300000000
#04812:1300000000130013
#04818:0000000000000016
#04816:00000013
#04817:1300001300000000
#0481b:0013000013000000
#04814:0000131300000000
#04916:13001313
#04917:0013000000000000
#0491b:13
#0961a:0014000000001414
#09612:1300001400140014
#09616:2413000014141400
#0961b:00130000
#09617:0000001300000000
#09619:00000000003300330000000000000000
#09614:00330033000000000000000000000000
#08015:16130000
#08017:0000000000130013
#08012:1300001313130013
#0801b:0000001300001300
#08016:00000013
#08019:0013
#07912:00160013
#07915:2600000000160016
#0791b:00001313
#07918:00130000
#0781b:00130000
#07815:0000001600000000
#07812:2300130024340000
#0781a:0000000024340000
#07816:24
#07412:0014000000000000
#07415:0000001400002600
#07418:0000000000230000
#07416:2423
#0741a:00240000
#0741b:23
#0771b:0013001300130013
#07716:2414001424140014
#07712:23132313
#07312:0013001300130013
#07316:2414001424140014
#0731b:23132313
#04715:16
#04716:0000000000130013
#04717:00000013
#0471b:1300001313130013
#04712:0000001300001300
#04714:0013
#04718:00130000
#04618:00160000
#0461b:00000013
#04615:2600130000160016
#04612:00001313
#04512:0000130014340000
#0451a:0000000014340000
#04515:0000001600000000
#0451b:23130000
#04516:23
#02717:13
#02718:00000000000000000014001400000000
#02714:0000130000140000
#02712:0013000014002400
#02716:0000001300000000
#02616:00130013
#02614:0013000000130000
#02612:13
#02617:1313
#02619:0013001300130000
#0261b:00130000
#02519:0013001300130013
#0251b:00130013
#02512:1313
#02514:0013001300130000
#02516:00130000
#02417:1300000000130000
#0241b:0013000000000000
#02412:0000000000000013
#02416:0000001300000000
#03316:0000000000130014
#03312:0013
#03317:0013000000000000
#0331b:13
#0331a:00000014
#03319:00330033001300130000000000000000
#03314:00000000130013000033003300000000
#03212:2400131313000000
#0321b:1300000000001313
#03216:00000000000000000000000000130013
#03217:00000000001300130000000000000000
#03215:00000000000000000000003300000000
#03214:0000000000330000
#03213:00000000000000000033000000000000
#03218:00000033000000000000000000000000
#03219:0033000000000000
#0321a:00330000000000000000000000000000
#06719:0012000000120000
#0671b:0000001200000012
#06718:1212
#0671a:00120012
#06813:0012000000120000
#06815:0000001200000012
#06814:00120012
#06812:0012
#01316:0012000000000000
#01314:0000001200000000
#0131a:0012000000000000
#01312:1212
#01318:00120000
#0131c:12
#01317:0000000000000012
#01717:0013000000000000
#0171b:1300000013000013
#01719:0000001300000000
#01714:0013000000000000
#01716:00130000
#01712:13
#09216:2313000023130014
#09212:00130013
#09219:0000001300000000
#0921b:00130013
#0841a:00000014
#08416:0015000000140014
#08415:0000001500000000
#08412:2524
#08419:00250000
#08315:0000000000000015
#0831a:24242414
#08316:0013001400140000
#08312:23130024
#08310:41
#07616:0000001424140000
#0761a:00141400
#07612:2400000000140000
#07617:0014000000000000
#07516:1400001400000014
#0751a:00140014
#07517:0014000000140000
#07512:2424
#0431b:0000000000130000
#04317:0013
#04316:0000001300130000
#04312:00131300
#0431a:14
#04315:0014000000000000
#04216:1300001300000013
#04212:00130013
#0421a:1414
#04215:0014000000140000
#04210:41
#02915:00000000000000000000000000000013
#02912:14001424
#02916:0000140000141400
#02918:0000000000000014
#0291b:23000013000000002300000000000000
#02914:00000000000014000034003400000000
#03118:00000000000014000034003400000013
#0311a:14001424
#03116:0000140000141400
#03114:0000000000000014
#03112:23000013000000002300000000000000
#0071b:0000130000001313
#00714:0000000000000013
#00712:00000013
#00717:1313
#07216:0000001500140014
#07212:00250014
#07215:0015000000000000
#0721a:0024
#07219:25
#07210:41
#08516:0000001400000014
#08514:0018000000180000
#0851a:24242424
#08512:24242424
#08612:2400000024001414
#0861a:24142400
#08616:0000002400000024
#05216:0014001400140014
#0521a:24142414
#05212:14241424
#04416:2300130000130000
#04417:0013000000001300
#04412:0013000023001300
#04418:0000000000000013
#0441b:2300130023130000
#04415:0000001300000000
#04017:2300130000130000
#04016:0013000000001300
#0401b:0013000023001300
#04015:0000000000000013
#04012:2300130023130000
#04018:0000001300000000
#01012:00140000
#01016:2414
#0101a:00000014
#0111a:0000001400141414
#01112:0014130000141414
#01116:2400001314000000
#0111b:13
#01117:0013000000000000
#01114:00000000003300330000000000000000
#01119:00330033000000000000000000000000
#09516:00140014
#09512:0000000024000014
#0951a:2400001400000000
#08716:0024002424140024
#08712:0000001400140014
#0871a:0014000014000000
#0651c:00120000
#06518:00000012
#06516:00120012
#06512:1212
#06616:00001212
#06612:12120000
#06618:00120000
#0661c:12000022
#0301a:1414
#03016:00140014
#03018:0000001400000014
#03012:23000013000000002300001300000000
#02812:1414
#02816:00140014
#02814:0000001400000014
#0281b:23000013000000002300001300000000
#02810:41
#09112:00130013
#09119:0013001300130013
#09116:1313
#09117:00130013
#0911b:2323
#0901b:00130013
#09017:2313000023130000
#09014:0000001300000013
#09012:00130013
#07116:0000001400140015
#07112:24242414
#0711b:23130000
#07117:0013000000000000
#0711f:21
#0711a:00000024
#01818:0000000000000013
#01812:0000001300000000
#01817:0023
#0181b:0023
#0191b:0000130000130000
#01912:0000002300171513
#01917:0000000000000013
#01919:00000013
#01916:0000002300000000
#0511b:0000000000130000
#05117:0013
#05112:25152513
#05116:0000001500000000
#05119:15
#05115:0015000000000000
#0501a:00002414
#05016:0000001400140015
#05012:24141414
#0501b:13130000
#05017:0013000000000000
#03914:0000000000000013
#03912:1500000000130000
#03916:0015000013000000
#0391b:00000013
#03919:25152500
#03915:0000001500000000
#03812:13132414
#03815:0000000000000015
#0381a:00141414
#03816:0013001400140000
#0891b:00130013
#08914:0013001300130013
#08917:1313
#08916:00130013
#08912:2323
#09416:00140014
#09412:0024
#0941a:24
#09316:00140014
#09312:0024
#0931a:24
#0881a:0014000014000000
#08812:0000001400000000
#08816:0024002424000000
#0691b:00132300
#06915:00000000000000000013001300130013
#06918:0000000000131313
#06916:0014001400000000
#06912:23130000
#06016:0000000012000013
#0601a:00000012
#06018:0000000000120000
#06014:00001515150012000000000013000000
#0601c:0000000000000012
#06012:0000000000130000
#0601b:0013
#05917:00001515150000000000000000001300
#05914:00000012
#05916:0000000000120000
#05918:0012
#05912:0000000013000012
#05919:00000013
#0591b:0000000000130000
#0591a:0000001200000000
#05815:00001200000000000000001200001200
#05812:0013
#05817:13120012
#05819:0000001200120000
#0581b:0013
#05813:12
#06215:00000000000000000000001300000000
#06218:0000000000130000
#0621b:00000023
#06212:00000023
#06118:0000220000130013
#06115:0013001300000000
#06112:13130000
#0611b:00001313
#06114:00000022
#06116:0022
#0611a:22
#0551b:13131313
#05518:0013001300130000
#05516:12121212
#05616:13131313
#05619:0013001300130033
#05612:12121212
#05618:00000000000000000000000000330000
#0561a:00000000000000000000000000000033
#03612:14171417
#03617:1717
#0361a:00140014
#0351b:0013001300000000
#03518:13130000
#03512:0013001300001500
#03515:13130000
#03519:00000015
#0231b:00130000
#02317:0000001300000000
#02316:0013000000000000
#0231a:2424
#02312:00240000
#02217:0000002300130013
#0221b:23130013
#02216:23130000
#02212:0000002300000000
#01619:0013
#01618:0000000000000013
#0161b:00000013
#01616:0000000000130000
#0161a:2413000000000000
#01614:0000001300000000
#01617:00130000
#01612:24
#01610:41
#01417:0012001200000000
#01416:0000000000140014
#0141b:00000013
#01412:00000013
#01413:0013
#0141a:00121300
#01415:12
#01419:12
#01414:00120000
#01518:0016
#01519:00150000
#0151a:14
#01512:14151600
#01214:0012
#01213:0012000000000000
#01215:0000000000000012
#01212:24000012
#01217:0000000000120000
#01219:0000001200000000
#01216:00120000
#0121a:24
#00917:2313
#0091b:00130013
#00816:2313
#00812:00130013
#0641c:00001212
#06418:12120000
#0371a:00140000
#03716:1828
#03712:14182400
#05719:0013
#05712:001c001c
#05715:0012
#05717:12
#05710:41
#00516:1313
#00512:00130013
#03416:00000014240014000000001424001400
#0341a:2424
#03412:2424
#05418:0016000000000000
#05415:00000026
#05412:0026002600000000
#05318:0000000000000016
#05312:2400000028000026
#0531a:0024
#05316:2800002400000000
#09716:00120000
#00318:00000016
#00312:1527152715002600
#00319:0015001500000000
#00317:27272700
#00218:16160000
#00114:14140000
#00018:13130000
#07018:23
#00615:26
#00415:26
#04952:00000013
#0495b:53430000
#04956:53000013
#04957:0023000000000000
#08252:63330000
#0825b:00000013
#08257:63000013
#08256:0023000000000000
#07852:00006414
#0785a:00005414
#07459:0045
#07456:6463
#07455:0000002400001600
#0745a:00640000
#07452:0024000000000000
#0695b:13
#06952:00130000
#0455a:00005414
#04552:00006414
#08459:45654500
#08452:55355400
#08456:0025000000240000
#08455:0000002500000000
#08352:53533434
#0835a:44446464
#08355:0000000000000025
#08356:0023002400240000
#05452:0036
#05458:0046
#05455:00000016
#07652:2400140000240000
#07656:0000002454240000
#0765a:00545400
#07657:0054000000000000
#07552:24142414
#07556:0000002400000024
#0755a:00540054
#07557:0054000000540000
#07252:35553500
#07259:65450000
#0725a:0064
#07256:0000002500240000
#07255:0025000000000000
#0715a:00004444
#07152:34345454
#0715b:63630000
#07156:0000002400240025
#07157:0023000000000000
#05159:65450000
#05152:35553500
#0515b:0000000000230000
#05157:0053
#05156:0000002500000000
#05155:0025000000000000
#02358:00000013
#02355:0000000000130000
#0235a:4444
#02352:00340000
#04152:00543500
#04157:5300002453000000
#04155:00000016
#0415a:0024000000000000
#0215b:13000013
#02156:0023002300130000
#02157:0053
#02152:53535300
#01752:0013
#01757:0023000000000000
#0175b:6313
#01756:00630000
#06852:12
#03856:4823002400240000
#03852:53533434
#03855:0000000000000025
#0385a:00446464
#03952:5500350000230000
#03959:45654500
#03956:0025000063000000
#03955:0000002500000000
#00252:00160000
#00258:16
#00158:00140000
#00154:14
#00055:00130000
#00058:13
#06256:0012
#06258:0012
#0625b:00000013
#06252:00000013
#09758:00120000
#09756:00120000
#04857:5300005300330000
#04852:3300000000530053
#04856:00000023
#0485b:0023000023000000
#04854:0000003300000000
#0435a:24140000
#0435b:0000000000230000
#04357:0063
#04356:0000002300230000
#04352:00636300
#04355:0064000000000000
#0425a:24142414
#04256:0000002300000023
#04252:00630063
#04255:0064000000640000
#02052:13000013
#02057:0023002300130000
#02056:0063
#0205b:63636300
#0135c:0012
#01356:0022000000000000
#01352:5212
#01358:00520000
#07058:13
#0315a:24006444
#03156:0000000000240000
#02952:24005434
#02956:0000000000240000
#02752:00001414
#02757:53
#07955:16
#07952:00660000
#04655:16
#04658:00560000
#0665c:52000012
#06658:00220000
#0855a:1414
#08552:00140014
#0815b:4300000000630063
#08159:0000004300000000
#08156:6300006300430000
#08157:00000023
#08152:0023000023000000
#05052:34345454
#0505a:00004444
#05056:0000002400240025
#0505b:63630000
#05057:0023000000000000
#09656:1423000000000000
#0965a:0000000000000054
#0965b:00630000
#09657:0000002300000000
#09652:53
#0865a:1464
#08652:5414
#01056:1414
#00957:1313
#00856:1313
#00655:16
#01156:1400002300000000
#01152:00530000
#0115b:63
#01157:0023000000000000
#03452:0014
#0345a:14
#01652:14
#08756:0000000064240000
#08752:0000000000240000
#0875a:0064
#08856:0034
#0885a:0044
#0535a:0014
#05352:14
#0125a:14
#00455:16
#08055:66
#04755:56
#02656:00530053
#02657:2323
#02659:0063006300630000
#0265b:00230000
#03356:0000000000230000
#03352:0063
#03357:0023000000000000
#0335b:53
#03252:0063
#0325b:53
#09556:00140014
#0655c:00520000
#06558:00000052
#0305a:2424
#02852:2424
#09252:00330033
#09152:00330033
#0905b:00430043
#0895b:00430043
#09456:00140014
#09356:00140014
#0555b:63636363
#05558:0023002300230000
#05656:63636363
#05659:0023002300230000
#0355b:0023002300000000
#03558:53530000
#03552:0023002300003500
#03555:63630000
#03559:00000045
#0255b:00230023
#02559:0000006300000063
#02552:2323
#02554:0063006300630000
#02556:00230000
#01558:0016
#01552:0016
#06758:12
#0525a:00140014
#05252:1414
#000350:13230000
#001380:14240000
#002320:16260000
#0043b0:1333000033330000
#004370:0000333300003333
#0053b0:33333333
#005370:0033003300330023
#004321:0000132300000000
#004361:0000000013230000
#004321:0000000000001323
#006320:1333000033330000
#006360:0000333300003333
#007320:33333300
#007360:0033003300230000
#0063b1:0000132300000000
#006371:0000000013230000
#0063b1:0000000000001323
#0083b0:1323000000000000
#008370:0000132300000000
#0083b0:0000000013230000
#008370:0000000000001323
#009320:1323000000000000
#009360:0000132300000000
#009320:0000000013230000
#009360:0000000000001323
#0103b0:13
#010370:0023000000000000
#010370:00130000
#0103b0:0000002300000000
#010320:0013
#010360:0000000000230000
#010360:00000013
#010320:0000000000000023
#0113b0:13230000
#011390:00330033000000000000000000000000
#011370:0033000000000000
#011321:00132300
#011341:00000000003300330000000000000000
#011361:0000003300000000
#0123c1:0000000012220000
#0123a1:0000000000001222
#013321:12220000
#013361:0052000000000000
#013380:00120000
#0133c0:0022
#016320:0000000013230000
#016340:0000000000001323
#0173b0:13230000
#017370:0053000000000000
#017361:00130000
#017321:0023
#017371:0000000000000013
#018361:23
#018390:15
#018380:0025000000000000
#018331:0015000000000000
#018321:00250000
#018370:00130000
#018360:0000002300000000
#018320:0000000000000015
#019330:25
#019381:15
#019391:0025000000000000
#019360:0013000000000000
#019370:00230000
#0203b0:13333300
#020370:0033003300230000
#020361:0013
#020321:0000000000532300
#021321:13333300
#021361:0033003300230000
#021370:0013
#0213b0:0000000000532300
#022320:0000000000130033
#022360:00000033
#023360:23
#023350:0000000013230000
#023381:0000000000132300
#024321:13
#024361:0053230000000000
#0243b0:0000135300000000
#024370:0023
#024321:0000000013530000
#024361:00000023
#0243b0:00000013
#024370:0000000000000053
#025370:23
#025321:1353
#025341:0053005300530000
#025361:00530023
#0253b0:00130000
#025390:0000005300000000
#025370:0023
#0253b0:00000013
#025390:0000000000000053
#026370:5353
#026390:0053005300530000
#0263b0:00530023
#026361:00130000
#026321:0023
#026361:00000013
#027321:23
#027370:13
#0273b0:0053000023000000
#028320:14
#028360:00000024000000000000000000000000
#028320:0014
#028360:00000000000000000000002400000000
#029320:14
#029360:00000024000000000000000000000000
#029320:00001424
#029340:00000000000000000034003400000000
#029360:0000000000340000
#0303a0:14
#030360:00000024000000000000000000000000
#0303a0:0014
#030360:00000000000000000000002400000000
#0313a0:14
#031360:00000024000000000000000000000000
#0313a0:00001424
#031380:00000000000000000034003400000000
#031360:0000000000340000
#0323b0:13
#0323a0:00330000000000000000000000000000
#032390:0033000000000000
#032380:00000033000000000000000000000000
#032370:00230000
#032320:0013
#032330:00000000000000000033000000000000
#032340:0000000000330000
#032350:00000000000000000000003300000000
#032360:00000023
#0333b0:13230000
#033390:00330033000000000000000000000000
#033370:0033000000000000
#033320:00001323
#033340:00000000000000000033003300000000
#033360:0000000000330000
#035380:13332300
#0353b0:0053005300000000
#035351:13332300
#035321:0053005300000000
#037361:000000000000000000000000185858585858585858585858
#037381:000000000000000000000000000000000000000000000000005400530000005300000053000000530000005300000053
#037391:000000000000000000000000000000000000000000000000000000000053000000530000005300000053000000530000
#038361:28
#038320:13332400
#038360:0053005400000000
#0383a1:00001434
#038361:0000000000540000
#038351:0000000000000055
#039391:25
#039320:15250000
#039360:0055000000000000
#039391:00152500
#039351:0000005500000000
#039360:00001323
#039320:0000000000530000
#041370:13
#0413a0:0054000000000000
#041360:00240000
#041321:00142500
#041371:0000005400000000
#041370:0013
#0413b0:0000000000230000
#0423a0:14240000
#042350:0054000000000000
#042321:00132300
#042361:0000005300000000
#0423a0:00001424
#042350:0000000000540000
#042321:00000013
#042361:0000000000000053
#043321:23
#0433a0:14240000
#043350:0054000000000000
#043321:00133323
#043361:0000005300530000
#043370:00001323
#0433b0:0000000000530000
#045320:0014
#0453a0:000000000000000000000000000000343434240000000000
#0453a1:0014
#045321:000000000000000000000000000000343434240000000000
#046381:00160000
#046351:0026
#047351:16
#047321:00260000
#048371:1300333300230000
#0483b1:0053000053000000
#048320:0000000000130033
#048360:00000053
#049360:33
#049320:0053230000000000
#0493b1:13230000
#049371:0053000000000000
#0493b1:0013
#049361:0000000000230000
#049320:0000000000132300
#0503b0:13330000
#050370:0053000000000000
#050360:0000005400000000
#0503a0:0024
#050321:00001434
#050361:0000000000540055
#051321:25
#051390:15250000
#051350:0055000000000000
#051321:00152500
#051361:0000005500000000
#051370:00001323
#0513b0:0000000000530000
#054380:0000001600000000
#054320:0026
#054321:0000001600000000
#054381:0026
#0553b1:13333333
#055381:0053005300530000
#056361:33333333
#056391:0053005300530033
#056381:00000000000000000000000000330000
#0563a1:00000000000000000000000000000033
#0573b1:23
#062361:12322200
#062321:0032003200000000
#062380:12322200
#0623c0:0032003200000000
#063320:12520000
#063360:00005252
#064320:52520000
#064360:00005222
#0653c0:1200320000320052
#065380:0032005232003200
#0663c0:3200000032322200
#066380:00520000
#0663a0:00000000000000000032003200000000
#067320:1236003632360036
#067360:00320032
#068320:22
#0683c1:1232
#068381:0036323600363236
#0693b1:23
#0713b1:13330000
#071371:0053000000000000
#071361:0000005400000000
#0713a1:0024
#071320:00001434
#071360:0000000000540055
#072320:25
#072391:15250000
#072351:0055000000000000
#072320:00152500
#072360:0000005500000000
#0723a1:00001424
#072361:0000000000540000
#074361:14240000
#074321:0054000000000000
#0743a0:00140000
#074350:0000005400000000
#074390:0025
#074361:0013
#074321:0000000000230000
#075321:14240000
#075371:0054000000000000
#0753a0:00142400
#075360:0000005400000000
#075321:00001424
#075371:0000000000540000
#0753a0:00000014
#075360:0000000000000054
#0763a0:24
#076321:14240000
#076371:0054000000000000
#0763a0:00143424
#076360:0000005400540000
#076361:00001424
#076321:0000000000540000
#0783a1:0014
#078321:000000000000000000000000000000343434240000000000
#078320:0014
#0783a0:000000000000000000000000000000343434240000000000
#079320:00160000
#079350:0026
#080350:16
#080380:00260000
#081360:1300333300230000
#081320:0053000053000000
#0813b1:0000000000130033
#081371:00000053
#082371:33
#0823b1:0053230000000000
#082320:13230000
#082360:0053000000000000
#082320:0013
#082370:0000000000230000
#0823b1:0000000000132300
#083321:13332400
#083361:0053005400000000
#0833a0:00001434
#083360:0000000000540000
#083350:0000000000000055
#084390:25
#084321:15250000
#084361:0055000000000000
#084390:00152500
#084350:0000005500000000
#084321:00001424
#084361:0000000000540000
#086321:14
#086361:00240000
#0863a1:0014
#086361:00000024
#0873a1:00001424
#087361:0000000000540000
#087360:00001424
#087320:0000000000540000
#090320:1323000000000000
#090320:0000000013230000
#0923b0:1323000000000000
#0923b0:0000000013230000
#093320:14
#093360:0024000000000000
#093320:00140000
#093360:0000002400000000
#0933a0:0014
#093360:0000000000240000
#0933a0:00000014
#093360:0000000000000024
#094360:1424000000000000
#094320:00140000
#094360:0000002400000000
#094360:0000000014240000
#0943a0:00000014
#094360:0000000000000024
#095360:14
#095320:0024000000000000
#095361:0014000000000000
#0953a1:00240000
#095361:0014
#0953a1:0000000000240000
#095360:0000000000140000
#095320:00000024
#096320:13230000
#096340:00330033000000000000000000000000
#096360:0033000000000000
#0963b1:00132300
#096391:00000000003300330000000000000000
#096371:0000003300000000
#0963a1:0000000000000014
#097381:0052220000000000
