This file was generated by Ched 2.7.0.0.
#TITLE ""
#ARTIST ""
#DESIGNER ""
#DIFFICULTY 0
#PLAYLEVEL
#SONGID ""
#WAVE ""
#WAVEOFFSET 0
#JACKET ""
#REQUEST "ticks_per_beat 480"
#00002: 4
#BPM01: 178
#00008: 01
#TIL00: ""
#HISPEED 00
#MEASUREHS 00
#00018:14140000
#00113:15150000
#00218:16160000
#00618:14
#00614:0014
#0071a:14
#00712:0014
#01214:0014
#0121a:24
#01418:0014
#01412:14
#0161a:14
#01612:0014
#01610:41
#0191a:14
#01912:00140000
#00312:00000016
#00512:0014
#01318:14
#01314:00140000
#0131a:0014
#01514:14
#01518:00140000
#01512:0014
#02218:14
#02214:0014
#02414:14
#02418:0014
#0251a:00140014
#02512:1414
#02614:0000001400000000
#02612:14
#03618:1414
#03614:00140014
#03718:1424
#03714:00140000
#04018:14
#04014:00140000
#0401a:0014
#04012:00000014
#04118:14
#04114:00140000
#0411a:0014
#04412:14
#0441a:00140000
#04414:0014
#04418:00000014
#04512:14
#04518:0014
#0451a:00140000
#04519:0000003400000000
#0571a:14
#05716:0014
#05710:41
#0591a:1414
#05914:00140000
#06012:1414
#06018:00140000
#06218:14
#06214:00140000
#0621a:0014
#06914:1414
#06918:00140014
#07314:14
#07318:00140000
#07312:0014
#0731a:00000014
#0771a:14
#07712:00140000
#07718:0014
#07714:00000014
#0781a:14
#07814:0014
#07812:00140000
#07813:0000003400000000
#09114:14
#09118:00140000
#09112:0014
#0911a:00000014
#09214:14
#09218:00140000
#09212:0014
#0921a:00000014
#09012:0014
#09014:14
#09018:00140000
#0901a:00000014
#08912:0014
#08918:00140000
#0891a:00000014
#08914:24
#05314:0000001400000000
#05318:2424
#05312:0000000000000024
#05218:14
#05212:00140000
#0521a:0014
#05214:00000014
#04718:14000014
#04712:0014
#0461a:0014
#04614:00140000
#04612:00000014
#04814:14
#04812:0014
#0481a:00140000
#04818:00000014
#04914:14
#04918:0014
#04919:0000000000340000
#08014:14000014
#0801a:0014
#07912:0014
#07918:00140000
#0791a:00000014
#08118:14
#0811a:0014
#08112:00140000
#08114:00000014
#08218:14
#08214:0014
#08213:0000000000340000
#0611a:14
#06114:00140000
#06118:0014
#06112:00000014
#05812:1414
#05818:00140000
#0501a:00000014
#05018:00140000
#05012:24
#05014:0024
#05118:00140000
#05114:24
#05112:0024
#08618:0000001400000000
#08614:2424
#08514:14
#0851a:00140000
#08512:0014
#08518:00000014
#07418:00140000
#07414:14
#07412:0024
#02718:14
#02714:0014
#03818:00140000
#0381a:00000014
#03812:24
#03814:0024
#03918:00140000
#03914:24
#03912:0024
#0631f:11
#0201a:24242400
#02112:24242400
#00418:26
#0341a:24
#06712:24
#07014:24
#06818:24
#0231a:2424
#02312:00240000
#03512:24
#08817:0024
#08819:0034000000000000
#0831a:24
#08318:0024
#08314:00240000
#08312:00000024
#08310:41
#08418:24
#0841a:0024
#08414:00240000
#0711a:24
#07118:0024
#07114:00240000
#07112:00000024
#0711f:21
#07218:24
#0721a:0024
#07214:00240000
#07210:41
#05518:00340000
#05519:0034
#05614:00340000
#05613:0034
#05414:0034000000000000
#03218:00343400
#03314:00343400
#08719:0034000000000000
#02810:41
#04210:41
#02654:0000002400000000
#02652:54
#0455a:00640000
#04558:0064
#07054:14
#07854:0054
#07852:00540000
#07452:0014
#0975a:00140000
#05352:0000000000000064
#05454:0014
#0625a:0014
#04954:64
#04958:0064
#08258:54
#08254:0054
#08857:0014
#0415a:0014
#003320:1636363626000000
#004380:16565656
#004390:0054005400540054
#005380:26
#008380:14
#0083a0:0024
#009340:14
#009320:0024
#0103a0:14
#010380:0024
#011320:14
#011340:0024
#017380:1424
#0173a0:00340000
#018340:1424
#018320:00340000
#0203a0:00001424
#021320:00001424
#026320:14000024
#026340:0000005400000000
#0283a0:14
#028380:0024
#029380:14
#0293a0:0024
#030340:14
#030320:0024
#031320:14
#031340:0024
#032380:14343400
#0323a0:00000024
#033340:14343400
#033320:00000024
#0343a0:14000024
#034380:00343400
#035320:14000024
#035340:00343400
#042320:14
#042340:00240000
#042380:0014
#0423a0:00000024
#043340:14
#043320:00240000
#0433a0:0014
#043380:00000024
#0453a0:00140000
#045390:0000003400000000
#045380:0034
#0463a0:24
#049340:14
#049320:00240000
#049380:0014
#049390:0000000000340000
#0493a0:00000024
#053320:0000000000000014
#054340:0034003424000000
#055380:14340000
#055390:0034
#0553a0:00000024
#056340:14340000
#056330:0034
#056320:00000024
#063320:14340000
#063340:00003434
#064320:34340000
#064340:00003424
#0653a0:14340000
#065380:00003434
#0663a0:34340000
#066380:00003424
#067320:14340000
#067340:00003424
#068380:14340000
#0683a0:00003424
#0753a0:14
#075380:00240000
#075340:0014
#075320:00000024
#076380:14
#0763a0:00240000
#076320:0014
#076340:00000024
#078320:00140000
#078330:0000003400000000
#078340:0034
#079320:24
#082380:14
#0823a0:00240000
#082340:0014
#082330:0000000000340000
#082320:00000024
#0863a0:0000000000000014
#087390:0034000000000000
#087370:0000003434000000
#0873a0:0000000000003434
#088390:0034000000000000
#088370:0000003424000000
#093340:14240000
#093380:00001424
#094320:14240000
#0943a0:00001424
#095340:14240000
#095380:00001424
#096320:14240000
#0963a0:0000000014343434
#0973a0:00240000
