This file was generated by Ched 2.6.4.0.
#TITLE ""
#ARTIST ""
#DESIGNER ""
#DIFFICULTY 0
#PLAYLEVEL
#SONGID ""
#WAVE ""
#WAVEOFFSET 0
#JACKET ""
#REQUEST "ticks_per_beat 480"
#00002: 4
#BPM01: 128
#00008: 01
#TIL00: ""
#HISPEED 00
#MEASUREHS 00
#00118:14
#00214:14
#0031a:14
#00310:41
#00412:14
#04012:1616
#04010:41
#03918:2616
#0391f:21
#04118:16
#04112:0016
#04418:1616
#04312:2616
#04512:16
#04518:0016
#05614:0014
#07118:14
#07114:0014
#00518:14
#00514:0014
#00618:14
#00614:0014
#0071a:14
#00812:14
#00918:14
#01014:14
#0111a:14
#01110:41
#0121a:14
#01312:14
#01412:14
#01518:14
#01618:14
#01714:14
#01814:14
#02718:14
#0271f:11
#02814:14
#0291a:14
#03012:14
#03118:14
#03114:0014
#03218:14
#03214:0014
#0331a:14
#03412:14
#03814:0014
#05718:16
#05712:0016
#06018:0016
#06012:16
#06112:16
#06118:0016
#05918:0016
#05912:26
#05910:41
#06412:1616
#06318:2616
#06518:16
#06512:0016
#06818:1616
#06712:2616
#06918:0016
#06912:16
#0511a:00340000
#05110:41
#03718:00003434
#03719:00340000
#01910:41
#019380:14
#020380:24
#021340:14
#022340:24
#0233a0:14
#0243a0:24
#025320:14
#026320:24
#0353a0:14
#035390:0034
#036380:34
#036390:0034
#0373a0:34
#037390:00340000
#037380:00003434
#038380:24
#042380:1626
#046320:1626
#0473a0:1434
#0483a0:3424
#049320:1434
#050320:3424
#0513a0:14340000
#053380:24
#053320:0014
#054320:00240000
#055380:1400000000340000
#056380:24
#058380:1626
#062320:1626
#066380:1626
#070320:1626
#0723a0:1434
#0733a0:0000002400000000
