This file was generated by Ched 2.6.4.0.
#TITLE ""
#ARTIST ""
#DESIGNER ""
#DIFFICULTY 0
#PLAYLEVEL
#SONGID ""
#WAVE ""
#WAVEOFFSET 0
#JACKET ""
#REQUEST "ticks_per_beat 480"
#00002: 4
#BPM01: 128
#00008: 01
#TIL00: ""
#HISPEED 00
#MEASUREHS 00
#00215:1300001300130013
#00218:00131313
#0021b:0000001300000013
#00212:00000013
#00116:00001314
#0011b:13
#00112:00130000
#00115:23
#0471b:00000000131300000013000000001300
#04715:00000000000013000000000013130000
#04718:00000000000000130000000000000000
#04712:2400000013130000
#0471a:24
#04815:13001300000000130013000000000000
#04818:00130000000013000000130000000000
#0481b:00000013
#04812:00000000131300000000000013000000
#0721a:120000000000000000000000120000123232000000000000
#07214:120000000000000000000000120000123232000000000000
#07216:00120012001200120000000000000000
#07218:0012121200000000
#01015:130000000000000000000000000000130013000000130000
#01018:000000130000000000000000260000001300130000000000
#03516:0013
#0351b:1313
#03616:00130000
#03619:1313
#0371b:1300000000001313
#03719:00130000
#0371a:0013
#03716:13000013
#03715:0013
#03714:00130000
#03712:0013001300000000
#03713:0000000000130000
#0411a:14000014
#04114:001400000000000014000000
#04118:000014000000001400000000
#04112:00141400
#0421b:1313000000000000
#04212:00130013000000001300140015001600
#04218:00130000
#04215:0000001300000000
#04518:001400000000000014000000
#04514:000014000000001400000000
#0451a:00141400
#04512:14000014
#03818:00001313
#03815:2600000000130013
#04612:1313000023130000
#0461b:00130013000000002300130000000000
#04615:00130013
#04618:0000001300001300
#05712:140014
#05716:001400140000001400140000
#0571a:001400140000
#06218:1313000013001300
#06215:00130013000000000000130013000000
#0621b:0000130000000013
#06212:0000001300000013
#05815:1313000013000000
#05814:0000000000140000
#05813:00000015
#05812:0000130000000016
#05818:00130013000000000000000000000000
#0581b:0000001300000000
#0311b:0013000000130000
#03115:00130013
#03118:0000001300000013
#03112:24
#03116:0024
#03215:0013000000001300
#03212:0000001300000000
#03218:0000230000000013
#0321a:24
#03216:0024
#03413:0013000000000013
#03414:00130013
#03415:0000001300130000
#03416:0013
#03417:13
#0051b:0013001300000000
#00515:00130000
#00518:0000000000130013
#00512:24000013
#00514:0024
#00612:0013001300000000
#00615:00000013
#00618:0000230024000013
#0061a:24
#00817:0013
#00818:0000001300130000
#00819:00130013
#0081a:0013000000000013
#00816:13
#0081b:13
#0091b:1300000000000000000000130000001300000000130000000000000000000000
#00918:00001300000000000000000013131313
#00913:13131313000000000000000000000000
#00914:0013000000130000000000000000000000000013000000130000000000000000
#00912:0000001300000013000000000000000000000000000000000000000013000000
#00915:00000000000013001313131300000000
#0091a:00000000131313130000000000000000
#00919:0000000000000000001300000013000000000000000000000000001300000013
#00916:0000000000000000000000000000000000130000001300000000000000000000
#00917:0000000000000000000000000000000000000000000000000013000000130000
#00316:00000014
#00312:13
#00317:0013
#0031b:00130000
#00318:23
#00310:41
#0041b:1300001300001300
#00412:13131313
#00418:0000130013000013
#00415:0013000000130000
#02812:0000001300001300
#02818:0013
#02815:0000000000130000
#0281b:0000000000000013
#02817:13
#02816:00130000
#02717:00000013
#0271b:00130000
#02712:13
#02716:00130000
#0271f:11
#02718:23
#02916:00000013
#02912:00130000
#0291b:13
#02917:00130000
#02915:23
#03015:0000130000000013
#03012:1300000000130000
#0301b:0013000013000000
#03018:0000001300001300
#03312:1313
#0331b:13
#03316:00000013
#03317:00130000
#0071b:13
#00712:00130000
#00717:00130000
#00715:23
#0401b:0000230000130000
#04016:0000230000000013
#04017:0023000023000000
#04012:0023000000002300
#04010:41
#04412:0000230000130000
#04417:0000230000000013
#04416:0023000023000000
#0441b:0023000000002300
#01116:00130000000000000000000000000000
#01119:0013000000000000
#01114:00000013000000000000000000000000
#01117:00000000130000130000130000000000
#01112:0000001313000013
#0111b:23
#01110:41
#01218:1300001300130000
#01212:0013000013130000
#0121b:00131300
#01215:00000000001300000000000000000000
#0231a:14
#02314:0014000000140000
#0231b:0000131300000000
#02315:00000000001300130000000000000000
#02318:0000000014001313
#02312:00000000000000000000000000130013
#02418:1400131300000000
#02412:0014000000140000
#02415:00000000001300130000000000000000
#0241a:00001414
#02416:0000000000000014
#02518:00000000000012000000001200000000
#02512:14
#0261b:23001313
#02618:00000013000000000000130000001300
#02612:2300000000130013
#02615:0013000000001300
#01316:0013000013130000
#01317:0000001300000000
#0131b:0000000013130013
#01312:00000013
#01417:0013000013130000
#01416:0000001300000000
#01412:0000000013130013
#0141b:00000013
#01515:0013130000000000
#01518:00130000000013001300000000000000
#01512:1300000013002313
#0151b:0000230000130000
#0161b:1313000013002313
#01615:0000001313000000
#01618:00130000
#01616:13
#01612:0000230000130000
#01818:0013000013130000
#01815:00000000130000000013001300000000
#0181b:00000013
#01812:0000001300000013
#0191b:13
#01915:13000013000000000000001300130013
#01918:0013000013001313
#01910:41
#02012:13
#02018:13000013000000000000001300130013
#02015:0013000013001313
#02115:13000000000013000000131300000000
#0211b:13000000000000000000232300000000
#02118:00000013000000001300000000000000
#02112:0013000013000000
#02218:1313000013000000
#02212:00130013000000001300000000001300
#0221b:0000131300131300
#02215:00000000001300130000000013000000
#0611a:140014
#06116:001400140000001400140000
#06112:001400140000
#05917:0000000023130000
#05916:00002300230000000000000000130000
#0591b:00000000000000000000000000130000
#05912:2600000000130000
#05910:41
#06017:0013
#06016:0000000000130013
#0601b:0023230000130000
#06012:00002313
#06316:0000000023130000
#06317:00002300230000000000000000130000
#06312:00000000000000000000000000130000
#0631b:0000000000130000
#06318:23
#06315:23
#06416:0013
#06417:0000000000130013
#06412:0023230000130000
#0641b:00002313
#0701b:0000001300000000
#07012:00130000
#07018:00130013000000000000000000000000
#07015:1313000013000013
#06512:13131300
#06518:0013130013000000
#06515:00000013000000000000130000000000
#0651b:0000001300130013
#06516:0000000000000013
#06612:13
#06617:13
#0661b:0013
#06618:00000013
#06615:00230000
#06714:0000001300000000
#06719:0013000000000013
#06717:00230000
#06712:00230023
#0671b:2323
#06716:0023
#06819:0000001300000000
#06814:0013000000000000
#0681a:000000000000000000000014
#06816:23002313
#06812:00230000
#06817:00230000
#0681b:23002323
#0541b:00000013
#05412:0026000000001300
#05418:2400260000130000
#05415:0013
#06912:001400000014000000140000
#06916:141400141400
#0691a:000000140000001400000000
#0511a:14
#05114:14
#05112:00000000140000000013000000001300
#05118:00000000140013000000130013130000
#05115:00000000000000130000000000000000
#0511b:0013
#05110:41
#05218:13001300000000130013000000000000
#05215:00130000000013000000130000000000
#05212:00000013
#0521b:00000000131300000000000013000000
#0531b:00131300
#05312:00000000001300130000000000000000
#05315:00000013000000000000000000000000
#05318:0013000000002200
#05316:0000000000220000
#05314:0000000000000024
#04312:2600230000130000
#0431b:00000000000000002300000000130000
#04316:00000000000000000000000000130000
#04319:0023000000000000
#04317:0000230000230000
#0391b:2300230000130000
#03912:23000000000000002300000000130000
#03917:00000000000000000000000000130000
#03914:0023000000000000
#03916:0000230000230000
#0391f:21
#04915:00000000001300000000130000001300
#04918:13131313
#04912:00000013000000131300000013000000
#0491b:0013000000130013
#05018:00000000001300000000130000001300
#05015:13131313
#0501b:00000013000000131300000013000000
#05012:0013000000130013
#0711a:12000000001200000000001200000000
#07114:1200000000000000000000000000000000000000000000000000000000000000000000000000000000000000000000000000000000000000000000000000000000003200000000000000000032000000000000000000000000000000000000000000000000000012000000000000000000000000000000000000000000000000
#07116:00120012000000000000000000000000
#07118:0000000000000000000000000000000012000000000000000000000000000000000000000000000000000000000000000000000000000000000000000000000000000000000000000000000000000000000000000000000000000000000000000000000000000012000000000000000000000000000000000000000000000000
#05516:2400000000240000
#05612:24
#0561a:24
#05618:00242424
#05614:00000000000024000000002400000000
#01715:00230023
#01712:0023000000000023
#01718:00000000000023000000002300000000
#0171b:0000000000230023
#0025b:13
#00252:00130000
#01058:0016
#07252:00000014
#0725a:0000000000221400
#07254:0000000000220000
#03556:0063
#03656:00630000
#0375b:0000000000000013
#03756:63000063
#03755:0063
#03754:00630000
#03752:0053005300000000
#03753:0000000000530000
#03855:16
#0475a:44
#04752:34
#04658:00000023
#04655:00000023
#06258:00000023
#06255:00000023
#0625b:0000000000000063
#06252:0000000000000053
#05556:1400000000140000
#06355:13
#06358:13
#06356:0000000000630000
#06357:00000000530000000000000000230000
#06352:00000000000000000000000000230000
#0635b:0000000000630000
#00952:0000002300000023000000000000000000000000000000000000000000000000
#00954:0023000000230000000000000000000000000023000000230000000000000000
#00953:53535353000000000000000000000000
#0095a:00000000636363630000000000000000
#00959:0000000000000000002300000023000000000000000000000000002300000023
#0095b:0000000000000000000000230000002300000000000000000000000000000000
#00955:00000000000000005353535300000000
#00956:0000000000000000000000000000000000230000002300000000000000000000
#00958:00000000000000000000000063636363
#00957:0000000000000000000000000000000000000000000000000023000000230000
#00552:14
#00554:0014
#0065a:14
#00658:0014
#03152:14
#03156:0014
#0325a:14
#03256:0014
#02757:00000013
#0275b:00130000
#02752:53
#02756:00630000
#02852:13000013
#0285b:00130000
#02956:00000013
#02952:00130000
#0295b:63
#02957:00530000
#03055:00130000
#03058:00000013
#05652:14
#0565a:14
#00156:0023
#0015b:63
#00152:00530000
#00352:53
#00357:0023
#0035b:00630000
#0075b:63
#00752:00530000
#00757:00530000
#0335b:63
#03352:0053
#03356:00000063
#03357:00530000
#03457:53
#0395b:0000630000630000
#03952:00000000000000000000000000230000
#03957:00000000000000000000000000230000
#03956:0000000000630000
#0405b:0000000000230000
#04057:0053
#04056:0000630000000023
#04052:00000053
#04452:0000000000230000
#04457:0000530000000023
#04456:0063
#0445b:00000063
#04352:0000530000530000
#04357:0000000000530000
#0435b:00000000000000000000000000230000
#04356:00000000000000000000000000230000
#05354:0000000000000014
#05356:0000000000120000
#05358:00000012
#05452:0016000000001300
#05458:14160000
#0545b:00000013
#0235a:14
#02354:0014000000140000
#02358:0014
#02458:14
#02452:0014000000140000
#0245a:00001464
#02456:0000000000000024
#01852:0000002300000033
#0185b:00000043
#01855:00630000
#05956:00000000630000000000000000230000
#05957:0000000000530000
#0595b:00000000000000000000000000230000
#05952:0000000000530000
#06057:0053
#06056:0000000000230023
#0605b:0000630000230000
#06052:00005353
#06456:4363
#06457:0000000000230023
#06452:0000530000230000
#0645b:43006363
#06657:53
#00856:63
#01157:0000000000530000
#01252:0000000000530000
#01356:0013000000630000
#01352:00000023
#01357:0000001300000000
#0145b:00000023
#01457:0013000000530000
#01456:0000001300000000
#0155b:0000000000630000
#01652:0000000000530000
#01656:0000000000000013
#02158:00000053000000000000000000000000
#02155:00000000000000000000006300000000
#0215b:00000000000000000000006300000000
#0515a:14
#05152:00140000
#0255a:44
#02552:34
#04152:00140000
#0415a:00000014
#0455a:00140000
#04552:00000014
#05756:00140014
#06156:00140014
#0695a:00140000
#06952:00000014
#01958:0013
#02055:0013
#06856:00000063
#0013b0:13
#001370:00230000
#001321:00130023
#001361:0053
#0013b1:0000000000000013
#0023b1:23
#002321:0013230000000000
#003321:13
#003361:00230000
#0033b0:00130023
#003370:0053
#0073b0:13000023
#007370:00330000
#007321:00130000
#007361:00000023
#008361:13
#008321:00230000
#008321:0000000013230000
#008351:0000000000001323
#009331:13535353230000000000000000000000
#009341:0053000000530000000000000000000000000000000000000000000000000000
#009321:0000005300000053000000000000000000000000000000000000000000000000
#0093a0:00000000135353532300000000000000
#009390:0000000000000000005300000053000000000000000000000000000000000000
#0093b0:0000000000000000000000530000005300000000000000000000000000000000
#009351:00000000000000001353535323000000
#009361:0000000000000000000000000000000000530000005300000000000000000000
#009341:0000000000000000000000000000000000000053000000530000000000000000
#009380:00000000000000000000000013535353
#009370:0000000000000000000000000000000000000000000000000053000000530000
#009390:0000000000000000000000000000000000000000000000000000005300000053
#010380:23
#010330:0000000000000000135353535353535323000000000000000000000000000000
#010320:00000000000000000000000000000000005300530053005300530053005300530000000000000000000000000000000000000000000000000000000000000000
#011370:0000000000130000
#0113b0:0000000000000023
#012320:0000000000130000
#013360:23
#0133b1:1323000000000000
#013321:0000132300000000
#013361:0000000000130023
#013321:00000053
#014321:1323000000000000
#0143b1:0000132300000000
#014371:0000000000130023
#0143b1:00000053
#0153b1:0000000000130000
#015371:0000000000000023
#016321:0000000000130000
#016361:0000000000000023
#018351:00132300
#018321:0000005300000000
#0193b1:00130000
#019381:0000002300000000
#019320:0000001323000000
#020320:00130000
#020350:0000002300000000
#0203b1:0000001323000000
#021381:00000013000000000000000000000000
#0213b1:0000002300000000
#0213b1:00000000000000000000001300000000
#021381:0000000000000023
#021350:00000000000000000000001300000000
#021320:0000000000000023
#0243a0:00000014
#024360:0000000000000054
#0253a0:24
#025360:00000000000000001200002200000000
#026350:00132300
#027320:13000023
#027360:00330000
#027320:0000000000000013
#028320:23
#0283b0:0013230000000000
#0293b0:13000023
#029370:00330000
#0333b0:13000023
#033370:00330000
#033321:0013
#033361:00000033
#034321:23
#034370:13
#0343b0:00230000
#0343b0:0000000013230000
#034380:0000000000001323
#035320:13000033
#035340:00330000
#035360:0033
#036340:33000033
#036360:00330000
#036320:0033
#037360:33000033
#037320:0033003300000000
#037340:0000330000000023
#037350:0033
#037330:0000000000330000
#0393b0:00130000
#039370:0023
#0393b0:0000000000130000
#039370:00000000000000000000000000530000
#0403b0:23
#039361:0000000000130000
#039321:00000000000000000000000000530000
#040361:23
#040361:00130000
#040321:0023
#040370:00001323
#0403b0:0000000000530000
#040321:00000013
#040361:0000000000000053
#041321:23
#0423b1:000000000000000000000000000000000000000000000000000000000000000000000000000000000000000000000000000000000000000000000000000000000000000000000000000000000000000000000000000000000000000000000000000000000000000000000000000000000000000000000000000000000000000000000000000000000000000000000000000000000000000000000000000000000000000000000000000000000000000000000000000000000000000000000000000000000000000000000000000000000000000000000000000000000000000000000000000000000000000000000000000000000000000000000000000000000000000000000000000000000000000000000000000000000000000000000000000000000000000000000000000000000000000000000000000000000000000000000000000000000000000000000000000000000000000000000000000000000000000000000000000000000000000000000000000000000000000000000000000000000000000000000000000000000000000000000000000000000000000000000000000000000000000000000000000000000000000000000000000000000000000000000000000000000000000000000000000000000000000000000000000000000000000000000000000000000000000000000000000000000000000000000000000000000000000000000000000000000000000000000000000000000000000000000000000000000000000000000000000000000000000000000000000000000000000000000000000000000000000000000000000000000000000000000000000000000000000000000000000000000000000000000000000000000000000000000000000000000000000000000000000000000000000000000000000000000000000000000000000000000000000000000000000000000000000000000000000000000000000000000000000000000000000000000000000000000000000000000000000000000000000000000000000000000000000000000000000000000000000000000000000000000000000000000000000000000000000000000000000000000000000000000000000000000000000000000000000000000000000000000000000000000000000000000000000000000000000000000000000000000000000000000000000000000000000000000000000000000000000000000000000000000000000000000000000000000000000000000000000000000000000000000000000000000000000000000000000000000000000000000000130000000000000000000000000000000000000000000000000000000000000000000000000000000000000000000000000000000000000000000000000000000000000000000000000000000000000000000000000000000000000000000000000000000000000000000000000000000000000000000000000000000000000000000000000000000000000000000000000000000000000000000000000000000000000000000000000000000000000000000000000000000000000000000000000000000000000000000000000000000000000000000000000000000000000000000000000000000000000000000053000000000000000000000000000000000000000000000000000000000000000000000000000000000000000000000000000000000000000000000000000000000000000000000000000000000000000000000000000000000000000000000000000000000000000000000000000000000000000000000000000000000000000000000000000000000000000000000000000000000000000000000000000000000000000000000000000000000000000000000000000000000000000000000000000000000000000000000000000000000000000000000000000000000000000000000000000000000000000000000000000000000000000000000000000000000000000000000000000000000000000000000000000000000000000000000000000000000000000000000000000000000000000000000000000000000000000000000000000000000000000000000000000000000000000000000000000000000000000000000000000000000000000000000000000000000000000000000000000000000000000000000000000000000000000000000000000000000000000000000000000000000000000000000000000000000000000000000000000000000000000000000000000000000000000000000000000000000000000000000000000000000000000000000000000000000000000000000000000000000000000000000000000000000000000000000000000000000000000000000000000000000000000000000000000000000000000000000000000000000000000000000000000000000000000000000000000000000000000000000000000000000000000000000000000000000000000000000000000000000000000000000000000000000000000000000000000000000000000000000000000000000000000000000000000000000000000000000000000000000000000000000000000000000000000000000000000000000000000000000000
#0423a1:000000000000000000000000000000000000000000000000000000000000000000000000000000000000000000000000000000000000000000000000000000000000000000000000000000000000000000000000000000000000000000000000000000000000000000000000000000000000000000000000000000000000000000000000000000000000000000000000000000000000000000000000000000000000000000000000000000000000000000000000000000000000000000000000000000000000000000000000000000000000000000000000000000000000000000000000000000000000000000000000000000000000000000000000000000000000000000000000000000000000000000000000000000000000000000000000000000000000000000000000000000000000000000000000000000000000000000000000000000000000000000000000000000000000000000000000000000000000000000000000000000000000000000000000000000000000000000000000000000000000000000000000000000000000000000000000000000000000000000000000000000000000000000000000000000000000000000000000000000000000000000000000000000000000000000000000000000000000000000000000000000000000000000000000000000000000000000000000000000000000000000000000000000000000000000000000000000000000000000000000000000000000000000000000000000000000000000000000000000000000000000000000000000000000000000000000000000000000000000000000000000000000000000000000000000000000000000000000000000000000000000000000000000000000000000000000000000000000000000000000000000000000000000000000000000000000000000000000000000000000000000000000000000000000000000000000000000000000000000000000000000000000000000000000000000000000000000000000000000000000000000000000000000000000000000000000000000000000000000000000000000000000000000000000000000000000000000000000000000000000000000000000000000000000000000000000000000000000000000000000000000000000000000000000000000000000000000000000000000000000000000000000000000000000000000000000000000000000000000000000000000000000000000000000000000000000000000000000000000000000000000000000000000000000000000000000000000000000000000000000000000000000000000000000000000000000000000000000000000000000000000000000000000000000000000000000000000000000000000000000000000000000000000000000000000000000000000000000000000000000000000000000000000000000000000000000000000000000000000000000000000000000000000000000000000000000000000000000000000000000000000000000000000000000000000000000000000000000000000000000000000000000000000000000000000000000000000000000000000000000000000000000000000000000000000000000000000000000000000000000340000000000000000000000000000000000000000000000000000000000000000000000000000000000000000000000000000000000000000000000000000000000000000000000000000000000000000000000000000000000000000000000000000000000000000000000000000000000000000000000000000000000000000000000000000000000000000000000000000000000000000000000000000000000000000000000000000000000000000000000000000000000000000000000000000000000000000000000000000000000000000000000000000000000000000000000000000000000000000000054000000000000000000000000000000000000000000000000000000000000000000000000000000000000000000000000000000000000000000000000000000000000000000000000000000000000000000000000000000000000000000000000000000000000000000000000000000000000000000000000000000000000000000000000000000000000000000000000000000000000000000000000000000000000000000000000000000000000000000000000000000000000000000000000000000000000000000000000000000000000000000000000000000000000000000000000000000000000000000000000000000000000000000000000000000000000000000000000000000000000000000000000000000000000000000000000000000000000000000000000000000000000000000000000000000000000000000000000000000000000000000000000000000000000000000000000000000000000000000000000000000000000000000000000000000000000000000000000000000000000000000000000000000000000000000000000000000000000000000000000000000000000000000000000000000000000000000000000000000000000000000000000000000000000000000000000000000000000000000000000
#042391:000000000000000000000000000000000000000000000000000000000000000000000000000000000000000000000000000000000000000000000000000000000000000000000000000000000000000000000000000000000000000000000000000000000000000000000000000000000000000000000000000000000000000000000000000000000000000000000000000000000000000000000000000000000000000000000000000000000000000000000000000000000000000000000000000000000000000000000000000000000000000000000000000000000000000000000000000000000000000000000000000000000000000000000000000000000000000000000000000000000000000000000000000000000000000000000000000000000000000000000000000000000000000000000000000000000000000000000000000000000000000000000000000000000000000000000000000000000000000000000000000000000000000000000000000000000000000000000000000000000000000000000000000000000000000000000000000000000000000000000000000000000000000000000000000000000000000000000000000000000000000000000000000000000000000000000000000000000000000000000000000000000000000000000000000000000000000000000000000000000000000000000000000000000000000000000000000000000000000000000000000000000000000000000000000000000000000000000000000000000000000000000000000000000000000000000000000000000000000000000000000000000000000000000000000000000000000000000000000000000000000000000000000000000000000000000000000000000000000000000000000000000000000000000000000000000000000000000000000000000000000000000000000000000000000000000000000000000000000000000000000000000000000000000000000000000000000000000000000000000000000000000000000000000000000000000000000000000000000000000000000000000000000000000000000000000000000000000000000000000000000000000000000000000000000000000000000000000000000000000000000000000000000000000000000000000000000000000000000000000000000000000000000000000000000000000000000000000000000000000000000000000000000000000000000000000000000000000000000000000000000000000000000000000000000000000000000000000000000000000000000000000000000000000000000000000000000000000000000000000000000000000000000000000000000000000000000000000000000000000000000000000000000000000000000000000000000000000000000000000000000000000000000000000000000000000000000000000000000000000000000000000000000000000000000000000000000000000000000000000000000000000000000000000000000000000000000000000000000000000000000000000000000000000000000000000000000000000000000000000000000000000000000000000000000000000000000000000000000000000000000000000000000000000000000000000000000000000000000000000000000000000000000000000000000000000000000000000000000000000000000000000000000000000000000000000000000000000000000000000000000000000000000000000000000000000000000000000000000000000000000000000000000000000000000000000000000000000000000000000000000000000000000000000000000000000000000000000000000000000000000000000000000000000000000000000000000000000000000000000000000000000000000000000000000000000000000000000000000000000000350000000000000000000000000000000000000000000000000000000000000000000000000000000000000000000000000000000000000000000000000000000000000000000000000000000000000000000000000000000000000000000000000000000000000000000000000000000000000000000000000000000000000000000000000000000000000000000000000000000000000000000000000000000000000000000000000000000000000000000000000000000000000000000000000000000000000000000000000000000000000000000000000000000000000000000000000000000000000000000055000000000000000000000000000000000000000000000000000000000000000000000000000000000000000000000000000000000000000000000000000000000000000000000000000000000000000000000000000000000000000000000000000000000000000000000000000000000000000000000000000000000000000000000000000000000000000000000000000000000000000000000000000000000000000000000000000000000000000000000000000000000000000000000000000000000000000000000000000000000000000000000000000000000000000000000000000000000000000000000000
#042381:0000000000000036
#043381:26
#043321:00130000
#043361:0023
#043321:0000000000130000
#043361:00000000000000000000000000530000
#044321:23
#043370:0000000000130000
#0433b0:00000000000000000000000000530000
#044370:23
#044370:00130000
#0443b0:0023
#044361:00001323
#044321:0000000000530000
#0443b0:00000013
#044370:0000000000000053
#0453b0:23
#046380:00000013
#0473a0:24
#046351:00000013
#047321:24
#049351:1323000000000000
#050381:1323000000000000
#053351:1323000000000000
#058381:000000000000000000000000000000000000000000000000000000000000000000000000000000000000000000000000000000000000000000000000000000000000000000000000000000000000000000000000000000000000000000000000000000000000000000000000000000000000000000000000000000000000000000000000000000000000000000000000000000000000000000000000000000000000000000000000000000000000000000000000000000000000000000000000000000000000000000000000000000000000000000000000000000000000000000000000000000000000000000000000000000000000000000000000000000000000000000000000000000000000000000000000000000000000000000000000000000000000000000000000000000000000000000000000000000000000000000000000000000000000000000000000000000000000000000000000000000000000000000000000000000000000000000000000000000000000000000000000000000000000000000000000000000000000000000000000000000000000000000000000000000000000000000000000000000000000000000000000000000000000000000000000000000000000000000000000000000000000000000000000000000000000000000000000000000000000000000000000000000000000000000000000000000000000000000000000000000000000000000000000000000000000000000000000000000000000000000000000000000000000000000000000000000000000000000000000000000000000000000000000000000000000000000000000000000000000000000000000000000000000000000000000000000000000000000000000000000000000000000000000000000000000000000000000000000000000000000000000000000000000000000000000000000000000000000000000000000000000000000000000000000000000000000000000000000000000000000000000000000000000000000000000000000000000000000000000000000000000000000000000000000000000000000000000000000000000000000000000000000000000000000000000000000000000000000000000000000000000000000000000000000000000000000000000000000000000000000000000000000000000000000000000000000000000000000000000000000000000000000000000000000000000000000000000000000000000000000000000000000000000000000000000000000000000000000000000000000000000000000000000130000000000000000000000000000000000000000000000000000000000000000000000000000000000000000000000000000000000000000000000000000000000000000000000000000000000000000000000000000000000000000000000000000000000000000000000000000000000000000000000000000000000000000000000000000000000000000000000000000000000000000000000000000000000000000000000000000000000000000000000000000000000000000000000000000000000000000000000000000000000000000000000000000000000000000000000000000000000000000000053340000000000000000000000000000000000000000000000000000000000000000000000000000000000000000000000000000000000000000000000000000000000000000000000000000000000000000000000000000000000000000000000000000000000000000000000000000000000000000000000000000000000000000000000000000000000000000000000000000000000000000000000000000000000000000000000000000000000000000000000000000000000000000000000000000000000000000000000000000000000000000000000000000000000000000000000000000000000000000000054350000000000000000000000000000000000000000000000000000000000000000000000000000000000000000000000000000000000000000000000000000000000000000000000000000000000000000000000000000000000000000000000000000000000000000000000000000000000000000000000000000000000000000000000000000000000000000000000000000000000000000000000000000000000000000000000000000000000000000000000000000000000000000000000000000000000000000000000000000000000000000000000000000000000000000000000000000000000000000000055360000000000000000000000000000000000000000000000000000000000000000000000000000000000000000000000000000000000000000000000000000000000000000000000000000000000000000000000000000000000000000000000000000000000000000000000000000000000000000000000000000000000000000000000000000000000000000000000000000000000000000000000000000000000000000000000000000000000000000000000000000000000000000000000000000000000000000000000000000000000000000000000000000000000000000000000000000000000000000000000
#059381:26
#0593b1:0013230000000000
#059360:00130000
#059320:0023
#059371:0000000013330000
#0593b1:00000000000000000000000000530000
#060371:23
#059320:0000000000130000
#059360:00000000000000000000000000530000
#060320:23
#060360:0013230000000000
#0603b1:0000130000530000
#060371:00003323
#060320:00001333
#060360:0000000000530053
#061320:23
#062380:00000013
#0623b0:0000000000000033
#063380:23
#062351:00000013
#062321:0000000000000033
#063351:23
#063321:0013230000000000
#063370:00130000
#0633b0:0023
#063361:0000000013330000
#063321:00000000000000000000000000530000
#064361:23
#0633b0:0000000000130000
#063370:00000000000000000000000000530000
#0643b0:23
#064370:0013230000000000
#064321:0000130000530000
#064361:00003323
#0643b0:00001333
#064370:0000000000530053
#0653b0:23
#066370:13
#0663b0:00230000
#066351:00000000135353535353000000000000
#066341:0000000000000000005300530053005300530000530000000000000000000000
#066331:0000000000000000000000000000000000000053000053005300530053005300
#066321:0000000000000000000000000000000000000000005300530053005300530053
#067331:23
#0673b1:0000000000130000
#067371:00000023
#068321:000000000000000000000000000000130000000000002300
#068361:00000033
#070381:0000000000130023
#071341:00000000000000000000000000000000000000000000000000000000120000000032000000003200000000000000000000000000000000000000000000000000
#071361:00000000000000000000002200000000
#072341:000000000000000000000000000000123232000000000000
#072321:00000024
#0723a0:000000000000000000000000000000123232240000000000
#072360:0000000000000014
#073370:0000002200000000
