This file was generated by Ched 2.6.4.0.
#TITLE ""
#ARTIST ""
#DESIGNER ""
#DIFFICULTY 0
#PLAYLEVEL
#SONGID ""
#WAVE ""
#WAVEOFFSET 0
#JACKET ""
#REQUEST "ticks_per_beat 480"
#00002: 4
#BPM01: 128
#00008: 01
#TIL00: ""
#HISPEED 00
#MEASUREHS 00
#04715:2900131313000000
#04718:00000000001300130000000000130000
#04712:0000000000001313
#0471b:00000000000000000013000000000000
#0481b:0000131300001300
#04815:00130000001300130000130000000000
#04812:00000013
#04818:13000000000000000013000000000000
#04915:0013130000130000
#04918:00000013001300001300000013000000
#04912:00000000000000130000000000000000
#0491b:1300000000000013
#01015:0013000000130000
#0101b:00000013
#01012:0000000000000013
#01018:1325
#0411a:001400140000000000000000
#04114:141400000000
#04112:000000141400
#04118:000000000000001400140000
#05015:0000130000130013
#0501b:00001300001300000000000000000000
#05012:00001300000000130000000000000000
#05018:00001313
#0571a:141400000000
#05714:001400140000000000000000
#05718:000000141400
#05712:000000000000001400140000
#0621b:0000000000130000
#06215:1313130013000000
#06218:00130013000013000000000000001300
#06212:00000013
#03412:00131300
#0341b:0000130000000013
#03418:0000000000130000
#03415:00000013
#00515:00130000
#0051b:0000001300000000
#00518:24000013
#00512:0000000000000013
#00514:0024
#0081b:0013
#00815:0000000000130000
#00818:00000013
#00812:1300000000000013
#00218:1300130013000013
#0021b:0000000000130000
#00215:0000001300001300
#00212:0013000000000000
#00418:00130013
#00412:0000001300000013
#0041b:1313
#00415:0013000000130000
#02818:00131300
#02815:0000000000130000
#0281b:13000013
#02812:0013001300000013
#0011b:13
#00112:0000000000000013
#00117:00130000
#0071b:13
#00717:00130000
#01118:23001300130000130000000000000000
#01115:00130013000013000000130000000000
#01110:41
#0121b:1300000000130000
#01212:0013000013000000
#01218:0000131300000000
#01215:00000000001300000000000000000000
#02314:1414
#0231a:0014000000000000
#02315:0000131300001313
#02318:00000000001300130000140000130013
#02518:00000000000012000000001200000000
#02516:0012
#02618:00000013000000000000000000001300
#02615:0013000000000000
#0261b:2300000000130000
#02612:23000013
#01312:0000000013130000
#01515:1313001300002300
#01512:0013
#01518:00130000230000000000130000001300
#0151b:0013
#0161b:1313
#01615:0013001300002300
#01612:1300000013000013
#01618:0000230000130000
#0191b:13
#01912:13
#01918:00000013000000000000000013000000
#01915:0013000000000013
#01910:41
#02112:13
#0211b:13000000000000001300231300000000
#02115:00001300000000001300001300000000
#02118:00000013000000000000000000000000
#02218:0000000000130000
#02215:00000013
#0221b:0000000000000013
#06518:0013130000000000
#06515:00000013000000000000130000001300
#0651b:1300000013000013
#06512:1300001300000000
#06715:0013001300002300
#06718:2300230000130013
#0671b:0023
#06712:2323
#06815:2300001300002300
#06812:0013000023000000
#06818:0000230000130000
#0681b:2323
#02416:0000000000000014
#02412:14001414
#02418:00001400001300130000000000000000
#02415:0000131300000000
#0241a:0000000000140000
#00312:13
#00316:00130000
#00310:41
#0061b:0000001300000000
#00618:24000013
#00615:0000230000000013
#00614:0024
#0091b:13
#00917:00130000
#00912:0013
#00916:00000013
#0141b:0000000013130000
#01815:0000000013130000
#01812:00000013
#0181b:0000000000000013
#01818:00000000000000000013001300000000
#02012:13
#0201b:13
#02018:0013000000000013
#02015:00000013000000000000000013000000
#03118:0000130000000013
#03115:0000001300001300
#03112:24
#0311a:0024
#03312:13
#0331b:0013
#03215:0000001300001300
#03218:0000230000000013
#03212:24
#0321a:0024
#03815:00001313
#03818:0000000000130000
#0381a:24
#04215:1313130000000000
#04218:00130013000013000000140000001500
#04214:0014
#04213:00000015
#04512:001400140000000000000000
#04518:141400000000
#0451a:000000141400
#04514:000000000000001400140000
#04618:1313130000001300
#04615:00130013000013000000000000000000
#04612:0000000000130000
#0461b:0023
#05118:14
#05112:00140000
#05110:41
#0541b:00000013
#05415:0000000000130000
#05418:0026000013000000
#05413:25
#05412:00260000
#05818:1313130014001500
#05815:00130013000013000000000000000000
#05814:0000000000140000
#05813:0000000000000015
#05916:00000000000000000000000000130000
#05915:0023000000000000
#05918:26
#0591b:00230000
#05912:0000000000230000
#05910:41
#06112:141400000000
#06118:001400140000000000000000
#06114:000000141400
#0611a:000000000000001400140000
#06017:0013
#0601b:0023230000000000
#0441b:0013
#04412:0023000000000000
#04418:00230000
#04012:0013
#0401b:0023000000000000
#04015:00230000
#04010:41
#06317:00000000000000000000000000130000
#06318:0023000000000000
#06315:23
#06312:00230000
#0631b:0000000000230000
#06416:0013
#06412:0023230000000000
#06618:13
#06612:13
#06615:00230000
#0661b:00230000
#07018:1313130013000000
#07015:00130013000013000000000000000000
#06914:001400000000000014000000
#0691a:14000014
#0691a:00000014
#06918:000014000000001400000000
#06912:00141400
#06912:00140000
#02717:0013
#0271b:00130000
#02715:2300000000000013
#0271f:11
#0301b:1300000000000013
#03015:0000001300001300
#03018:0000130000130000
#03012:0013000013000000
#02916:0013
#02912:00130000
#02918:23
#05216:14
#05214:0014
#05312:14
#05318:0000000000240025
#05314:00000024
#0391b:23
#03912:2300000000230000
#03915:0023000000000000
#03918:00230000
#0391f:21
#04318:0023000000000000
#04312:26
#0431b:0000000000230000
#04315:00230000
#05512:24
#0551a:0000000000240000
#05618:00242400
#05614:2400002400000000
#0561a:00000024
#05612:00000024
#01718:0000002300002300
#01715:0000230000230000
#01712:0000000000000023
#0171b:0023000000000000
#03516:0033
#03514:00330000
#03617:0033
#03619:00330000
#07215:0033333300000000
#0385a:14
#05552:14
#0555a:0000000000140000
#00558:14
#00554:0014
#00658:14
#00654:0014
#0015b:63
#00157:00530000
#0075b:63
#00757:00530000
#02552:34
#02456:0000000000000024
#02452:00000054
#02158:00000053000000000000000000000000
#02155:00000000000000000000006300000000
#0215b:00000000000000000000006300000000
#00258:13130000
#00352:53
#00356:00630000
#00852:53
#0095b:63
#00957:00530000
#00952:0053
#00956:00000063
#01058:0015
#01155:0000000000630000
#0125b:0000000000630000
#01352:0000000000530000
#0145b:0000000000630000
#03352:53
#0335b:0063
#03152:14
#0315a:0014
#03252:14
#0325a:0014
#0435b:0000000000630000
#04355:00630000
#04658:00000023
#04755:19
#05158:14
#05152:00640000
#05452:00160000
#0545b:00000013
#05654:14
#0595b:00630000
#05956:00000000000000000000000000230000
#05952:0000000000530000
#06057:0053
#0605b:00630000
#0445b:0063
#04458:00530000
#04052:0053
#04055:00630000
#03952:0000000000530000
#03958:00530000
#06357:00000000000000000000000000230000
#06352:00530000
#0635b:0000000000630000
#06456:0063
#06452:00530000
#02757:0023
#0275b:00630000
#0285b:13
#02858:00130000
#02956:0023
#02952:00530000
#05256:24
#05254:0064
#05352:24
#05354:00440000
#03756:0000000000000013
#0013b0:13000023
#001370:00330000
#003320:13000023
#003360:00330000
#0073b0:13000023
#007370:00330000
#008320:13
#008360:00230000
#0093b0:1323
#009370:00330000
#009321:0013
#009361:00000033
#010321:23
#010381:00000000155555552500000000000000
#010391:0000000000000000005500550055005500000000000000000000000000000000
#011351:0000000013330000
#011321:0000000000000023
#0123b1:0000000000130000
#012371:0000000000000023
#013321:1323000000000000
#013381:0000132300000000
#013321:0000000000130000
#013361:0000000000000023
#0143b1:1323000000000000
#014351:0000132300000000
#0143b1:0000000000130000
#014371:0000000000000023
#018381:0013002300000000
#019351:00130000
#019321:0000003323000000
#020381:00130000
#0203b1:0000003323000000
#021381:00000013000000000000000000000000
#0213b1:0000002300000000
#021351:00000000000000000000133300000000
#021321:0000000000000023
#0213b0:00000000000000000000133300000000
#021380:0000000000000023
#022320:1323
#022330:00330000000000330000000000000000
#022340:0033003300000000
#022350:00000033003300000000000000000000
#022360:00330000
#024320:00000014
#024360:0000000000000054
#025320:24
#026320:00130000
#026350:0023
#0273b0:00130023
#027370:0053
#029320:00130023
#029360:0053
#033320:13
#033350:00330000
#034350:23
#0333b1:0013
#033381:00000033
#034381:23
#035321:13
#035341:00330000
#035361:00003323
#0363b1:13
#036391:00330000
#036371:00003323
#037321:13330000
#037331:0033000033000000
#037341:0000003300003300
#037351:0000000000330000
#037361:0000000000000023
#039381:00130000
#0393b1:0023
#039321:0000000000130000
#040361:23
#040351:00130023
#040321:0033
#043351:00130000
#043321:0023
#0433b1:0000000000130000
#044371:23
#044381:00130023
#0443b1:0033
#046381:00000013
#047351:29
#051321:00140000
#052361:54
#052341:0054
#053321:54
#053341:00240000
#0593b1:00130000
#059371:0023
#059321:0000000000130000
#059361:00000000000000000000000000530000
#060321:23
#0603b1:00130023
#060371:0033
#063321:00130000
#063361:0023
#0633b1:0000000000130000
#063371:00000000000000000000000000530000
#0643b1:23
#064321:00130023
#064361:0033
#0663b1:0000135353532300
#0663a1:00000000005300530053005300000000
#066350:0000135353532300
#066340:00000000005300530053005300000000
#070350:0000000000130000
#070320:0000000000000023
#071380:1300000000000000000000000000000000000000000000000000000000000000000000000000000000000000000000000000000000000000000000000000000000000000000000000000000000000000000000000000000033000000000000000000000000000023000000000000000000000000000000000000000000000000
#0713b0:00000033003300330000000000000000
#072350:1333333300000000
#072320:000000000000000000000000360000363636000000360000
#073320:0000002200000000
