This file was generated by Ched 2.6.4.0.
#TITLE ""
#ARTIST ""
#DESIGNER ""
#DIFFICULTY 0
#PLAYLEVEL
#SONGID ""
#WAVE ""
#WAVEOFFSET 0
#JACKET ""
#REQUEST "ticks_per_beat 480"
#00002: 4
#BPM01: 128
#00008: 01
#TIL00: ""
#HISPEED 00
#MEASUREHS 00
#0711a:12000000000000000000000012000000000000000000000000000000000000000012000000000000000000001200000000000000000000000000000000000000
#07114:1200000000000000000000000000000000000000000000001200000000000000000000000000000000000000000000000000000000000000000000000000000000000000000000000000000000000000000000000000000000000000000000000000000000000012000000000000000000000000000000000000000000000000
#07118:0000000000000000120000000000000000000000000000000000000000000000000000000000000000000000000000000000000000000000120000000000000000000000000000000000000012000000000000000000000000000000000000000000000000000012000000000000000000000000000000000000000000000000
#07116:00001200001200000000001200000000
#0711c:0000000000000000000012000000000000000012000000000000000000000000
#01014:0000000000120012
#01018:000012
#01016:000000000000000000000000000000000012000000000000
#0101a:00000012
#01015:0029
#03715:0013000000000000
#0371b:1300000000001313
#03717:0000130000130000
#03719:0013
#03716:0000001300000000
#03712:13130000
#03713:0013
#03714:00000013
#03619:13000013
#0361a:0000001313000000
#03618:00130000
#03612:1313
#0361b:0000000000000013
#03518:0000001313000000
#03516:00130000
#03517:13000013
#03512:1313
#03519:0000000000000013
#04118:16161616
#04116:001414000000001414000000
#04112:00161616
#0421b:13130000
#04212:13000013000013000000000000000000
#04218:0013001315000000
#04215:00130000130000000000000000000000
#03812:2c00000000131300
#03816:000000000000000000001200120000000000000000140000
#03818:000000001400000000120012000000000000000000000000
#03814:00140000
#0381b:00000000000000000013001300000000
#04618:000000130000000000000000130000000000000000000000000000000000120000001200000000000000000000000000
#04616:000000000000000012120000
#04619:0000000000000013
#04614:0000000000000013
#04612:13132300
#0461b:13000013000013002300000000000000
#04615:0013001300000000
#05812:13130000000013000000000000000000
#05815:00000013130000000000000000000000
#05818:0013001300000000
#0581b:13130000
#05813:0015
#03118:0014000000000014
#03112:2c142c14
#03114:0000001400140000
#0311a:00140014
#00518:0013000000001300
#00515:0000130000130000
#00512:2c0000132c001300
#0051b:0000130000000013
#0081b:1313
#00819:0013001300130013
#00817:00130013
#0091b:1313
#00919:0013000000130000
#00914:0000001300000013
#00912:00130013
#00612:2c232c13
#00619:0000000000000013
#00618:0013000000000000
#00615:0000001300000000
#00617:00000013
#0061b:00230000
#00216:0000001300001300
#0021b:1313001300001300
#00217:0000000013000013
#00212:0000130013000013
#00219:0000000000130000
#02715:00000000000000130000000013000000
#02712:1300000000130000
#0271b:2313130000000013
#02716:0013000000000000
#0271f:11
#03015:00000013000013000000130000001300
#03012:13130000130000001300000013000000
#03018:00001300000000001300001300000000
#0301b:13130013
#03216:0014001400001300
#03212:2c0024002c000013
#0321b:0000000000001313
#0321a:00240000
#03312:1300130000130000
#03316:0013000013001300
#03317:13130000
#0331b:0013000000000000
#0391b:23000000001300002300000013000000
#03917:00130000000000000000230000000000
#03919:00000013000000000000000000000000
#03912:2300001300130013
#03916:00232313
#03914:0023000000000000
#0391f:21
#01116:00130000000000000000000013000000
#01119:0013000000000000
#01114:00000013000000000000000000000000
#01117:0000130000130000
#01118:0000001300000000
#01115:00000000000000130000000000000000
#01112:2300130013000013
#0111b:23001313
#01110:41
#0121b:1300130013000013
#01214:0013000000000000
#01212:00131313
#01216:1300000000130000
#01218:00000000001300000000000000000000
#01215:0000001300000000
#01217:00000013
#02415:15130000
#02418:00000000001300000000000000000000
#02412:1315001300000014
#0241b:00000000000000130000000000000000
#02417:0013000000150000
#0241a:00000014
#02416:0000000000001414
#02414:0000000015130000
#02419:0013
#0251a:00000000000012000000001200000000
#02514:00000000000012000000001200000000
#02517:0012
#01318:00001300001300000000000000000000
#01315:00130000000013000000000000000000
#01316:00001313
#01312:13000013130000000000130000001300
#0131b:13000000130000131300000013000000
#01317:0000000000130000
#01516:0014001400140014
#01512:13000000230000001300001323001300
#0151b:13130000230000131300000023000000
#0181b:13131300
#01816:00000000000000000013000000000000
#01819:0000000000130000
#01814:000000000000000000000000000000130000001300000013000000000000000000130000000000000000000000000000
#01817:00000013
#01818:0013001300000000
#01815:00130000000000000000000000001300
#01812:130000000000000000000000001300000013000000130000000000000000000000000000000000130000000000000000
#01813:000000000000131313131313000000000000000000000000
#0191b:1313
#01912:13000000130000000000001300000000
#01918:00001300000000130000000000000000
#01915:00000013000013000000000000000000
#01916:00000000000000000000000000000013
#01919:0000000000000013
#01917:00000013
#01914:00000000000000000000000000130000
#01910:41
#02012:1313
#0201b:13000000130000000000001300000000
#02017:00000000000000000000000000000013
#02014:0000000000000013
#02016:00000013
#02019:00000000000000000000000000130000
#02015:00001300000000130000000000000000
#02018:00000013000013000000000000000000
#02116:0000000013000000000000001300000000000000000000000013000000000000
#02119:0013
#02114:0013
#02117:0000000000000000001300000000000000000000130013000000000000000000
#0211b:1300000000001300000000000000000000000000000000000013000000000000
#02112:13000000000000000000232300000000
#0691a:140000000014000014140000
#06916:001400180000181400000000
#06912:180014140014140000180000
#07016:00141414000000141400000000000000
#07014:00000000000000000000141400001400
#0701a:1400141400000000
#07012:1400141400000000
#07018:0000000000140000
#06512:0000000000001313
#06516:13
#0651b:0013000000131300
#06715:00130013000013002300000000000000
#06718:00001300001300130000000000000000
#06712:2300230000130013
#0671b:00232300
#06716:00000023
#06812:000000000000230000130000000000000000000000001400
#06817:23001313230000000000000023000000
#0681b:23130000000000002300130000000000
#0681a:000000000000000000000014
#06816:0023
#01415:00001300001300000000000000000000
#01418:00130000000013000000000000000000
#01417:00001313
#0141b:13000013130000000000130000001300
#01412:13000000130000131300000013000000
#01416:0000000000130000
#0231b:13130013
#02312:00000000000000130000000000000013
#02316:1513000000000000
#02319:0015000000130000
#02315:00000000001300000000000000130000
#02318:0000001300000013
#02317:0015
#02314:0000000013150000
#02615:00130000130013000000000013000000
#02612:23000013000000001300001300001300
#02618:2313000013000013
#0261b:0000131300131300
#0471b:00000000131300000000000013001300
#04715:00000000130013130000000013130000
#04718:00000000000000001313001300000000
#04712:2400000013130000
#0471a:24
#04812:1313000000000000001300001c000000
#04815:00000000131300001300001300000000
#04818:13001300000013130000000000000000
#0481b:00000000130000000013130000000000
#04912:00131313
#04915:00000000001300000000000000000000
#0491b:00000013130000130000000000000000
#04916:001200120000000000000000000000130000000000130000
#04918:120012000000000000130000000000000000000000000000
#0501b:00131313
#05018:000012000000120000000000000000130000000000000000000000000000000000000000000000000000000000000000
#05012:00000013130000130000000000000000
#05017:0000000000130013
#05016:121200000000000000000000
#05015:0000001300000000
#05312:00000000131300001300000000000000
#05318:120000001200000000130000000000000000000000130000000000000000000000000000000000000000000000000000
#05316:001200120000000000000000000000000000240000000000
#0531b:00131300
#05315:0000001300000026
#05317:0000000000220000
#05418:00000000000000130000130000000000
#05415:0000001300130000
#05414:28
#05413:002a000000000000
#05412:002c0000
#0721b:12
#07215:000000000000000000000000000000000000120000000000000000000000000000000000120000000000000000000000000000000000000000000000000000000000000016000000000000000000000000000000000000000000000000160000
#07219:00120000120000000000000000000000
#07217:00001200001200001200120000000000
#07213:00000000000000120000000000001a00
#07216:000014
#07214:00000018
#00412:13131313
#0041b:13131313
#00418:00001300000000000000001300001300
#00415:00130013000013000000130000000000
#00112:2300130000001313
#0011b:23130013
#00117:00001300000000130000000000000000
#00116:0000000000130000
#00312:23130013
#00316:00001300000000130000000000000000
#00317:0000000000130000
#0031b:23130013
#00310:41
#00714:0013000000000000
#00717:0000131300000000
#0071b:23001313
#00712:0000131300130013
#00716:23001313
#01616:0014001400140014
#0161b:13000000230000001300001323001300
#01612:13130000230000131300000023000000
#0171b:13
#01712:13002400000000140000000024002400
#0171a:00000014000024000000240000002400
#01716:00000000240000001400002400000000
#02212:0000001313000000
#02217:00000000001300000013000000000000
#02214:0000130000130000
#02219:00000013000000000000001300000000
#02216:0013000000001300
#02218:1300000000000013
#0221b:00130000000000000000000000130000
#02215:00000000000000130000000000000000
#03412:0013
#03414:0013001300130013
#03416:00130013
#02812:1313000013001300
#0281b:0000131300130013
#02817:0013
#02816:0000001300130013
#02918:00000000000000130000000013000000
#0291b:1300000000130000
#02912:2313130000000000
#02917:0013000000000000
#02915:0000000000000013
#07314:18
#07315:0016000000000000
#07316:0000001400000000140000000000000000000000000000000000000000000000
#07317:0000000000000012000000000000000000000000000000000000000000000000
#04012:0023230000132300
#0401b:23130000000000001300000000001300
#04017:00000013230000000000130000000000
#04016:2300001300000013
#04014:0013
#04010:41
#06114:001400000000000000000000
#06116:180014000000000014180000
#0611a:00141400
#06112:00181814
#06118:000000000000001400000000
#04512:16161616
#04516:001414000000001414000000
#04518:00161616
#04312:26000000001300002300000013000000
#04315:00000013000000000000000000000000
#0431b:0023001300130013
#04317:00002313
#04318:26230000
#04316:0000000000230000
#0441b:0023230000132300
#04412:23130000000000001300000000001300
#04416:00000013230000000000130000000000
#04417:2300001300000013
#04419:0013
#05212:00000000000000001300130013130013
#05215:00000000130013130000000000000000
#0521b:00000000131300001300000000000000
#05218:00131300000000000013000000000000
#05115:00000000000013130000130013130013
#0511a:14
#05112:00141300
#05118:00000000131300001300000000000000
#0511b:00001300000000000013000000000000
#05110:41
#05718:001400000000000000000000
#05716:000014180000180014000000
#05712:18141418
#05714:000000000000001400000000
#0571a:14000014
#06216:000000000000000000000000000000120012000000000000
#06218:000000000000000000130000130000000000000000000000000000000000000012000000120000000000000000000000
#06214:0000000000000013
#06219:0000000000000013
#06212:13131300
#0621b:13130000000013001300000000000000
#06215:0013001300000000
#06017:23130000000013000000130000000000
#0601b:00000013230000001300000000001300
#06012:2323001300132300
#06016:0000230023000013
#05918:26000013000000000000000000000000
#0591b:00000000001300002300000013000000
#05916:0000001323001300
#05917:0000000000130013
#05915:0023000000000000
#05912:2600230000230000
#05910:41
#06416:23130000000013000000130000000000
#06412:00000013230000001300000000001300
#0641b:2323001300132300
#06417:0000230023000013
#06315:00000013000000000000000000000000
#06312:24000000001300002300000013000000
#06317:0000001323001300
#06316:0000000000130013
#0631a:24
#06318:0023000000000000
#0631b:0000230000230000
#06617:0013000000000000
#06616:00130000
#06614:0013
#06612:00000013
#0661b:00230000
#05518:1600000000260000
#0551b:00000000001300000000000000000000
#05512:26000000000000000000160000130000
#05618:16000000260000002600002626000000
#0561b:0013000000000000
#05612:2600000000000000000000002600000016000013000026000000000000000000
#01055:0019
#0105a:00000012
#01054:0000000000000012
#03755:0063000000000000
#0375b:0000000000000013
#03756:0000006300000000
#03757:0000000000630000
#03752:53530000
#03753:0053
#03754:00000053
#03659:00000063
#03658:00630000
#03652:5353
#03852:1c
#03556:00630000
#03557:00000063
#03552:5353
#05552:16000000000000000000660000230000
#05558:5600000000160000
#0555b:00000000002300000000000000000000
#00552:1c1c
#00652:1c1c
#02755:00000000000000230000000013000000
#02752:53330000
#0275b:0000630000000023
#02756:0023000000000000
#0305b:00130013
#03356:00006363
#03357:53530000
#0335b:0023000000001300
#03352:0000130000230000
#0395b:00000023
#03957:0000000000530000
#04052:00000053
#04056:0000000000000063
#04057:0000530000530000
#0405b:0063
#01157:0000000000530000
#0115b:00000023
#01252:00000023
#01256:0000000000630000
#0135b:00006323
#01357:0000000000530000
#01358:0013000000000000
#01355:0000001300000000
#01452:00005323
#01456:0000000000630000
#01455:0013000000000000
#01458:0000001300000000
#01852:000000000000000000000000002300000023000000230000000000000000000000000000000000000000000000000000
#01854:000000000000000000000000000000230000002300000023000000000000000000000000000000000000000000000000
#01853:000000000000636363636363000000000000000000000000
#01857:00000013
#01855:0000000000000013
#02157:0000000000000000002300000000000000000000000053000000000000000000
#0215b:0000000000006300000000000000000000000000000000000023000000000000
#02156:0000000000000000000000000000000000000000000000000023000000000000
#02152:00000000000000000000005300000000
#02455:45
#02452:0035000000000024
#02456:0000000000006424
#02454:0035
#02457:0000000000450000
#0255a:44
#02556:44
#0475a:44
#04752:34
#04852:0000001c
#05357:0000000000120000
#05356:00000014
#05355:0000000000000016
#05454:18
#05453:001a000000000000
#05452:001c0033
#0545b:00000043
#05458:0000000000230000
#05455:0000000000230000
#03152:3c4c
#03252:3c4c
#0025b:0023000000000000
#00257:00330000
#00256:43
#00152:0000130000000023
#0015b:00630013
#00157:00000000000000230000000000000000
#00352:00530013
#0035b:00130000
#00356:00000000000000230000000000000000
#00757:0000005300000000
#0075b:0023
#0195b:0043
#02052:0033
#02852:0023000000001300
#02856:00430000
#02857:3353
#0285b:0000000000230000
#02958:00000000000000230000000013000000
#02957:0023000000000000
#02952:00530000
#0295b:63430000
#0045b:00130000
#00452:00000013
#02356:35
#02359:0045000000000000
#02357:0045
#02354:0000000000350000
#07253:000000000000005a
#07255:0000000000000000000000000000000000000000000000000000000000000026
#07254:00000018
#07354:58
#07355:0056000000000000
#07356:0000002400000000540000000000000000000000000000000000000000000000
#07357:0000000000000022000000000000000000000000000000000000000000000000
#04158:46000046
#04152:00363600
#06152:00383800
#06156:48000048
#04552:36000036
#04558:00464600
#04352:36000023
#04356:0000000000630000
#04358:46
#04457:0000000000000053
#04456:0000630000630000
#04452:0053
#0445b:00000063
#0515a:14
#05152:00140000
#05752:38000038
#05756:00484800
#06352:34
#0635a:44
#06357:00000023
#0635b:0000000000630000
#06956:00484800
#06952:38000038
#06056:0000000000000063
#0605b:00636300
#06057:0000002300530000
#06052:00000063
#05952:3600000000530000
#05956:00000023
#05958:46
#06457:0000000000000053
#06452:00535300
#06456:0000002300630000
#0645b:43000053
#00856:0033000000330000
#00852:0000004300000043
#03457:0043000000430000
#0345b:0000003300000033
#05652:1600000000000000000000001600000066000023000016000000000000000000
#05658:56161616
#0565b:0023000000000000
#0013b0:0000130000230000
#001370:00000000000000530000000000000000
#001320:0000000000000013
#002360:23
#0023b0:0013000000000000
#002370:00230000
#003320:0000130000230000
#003360:00000000000000530000000000000000
#007370:0000001300230000
#0073b0:0053
#008360:1323000000000000
#008320:0000132300000000
#008360:0000000013230000
#008320:0000000000001323
#009360:13
#009320:00532300000000000000000000000000
#009370:00130000
#0093b0:00000000005323000000000000000000
#009360:0013
#009320:00000000000000000053230000000000
#009370:00000013
#0093b0:00000000000000000000000000532300
#010350:1252525222000000000000000000000000000000000000000000000000000000
#010360:00520052005200520000000000000000000000000000000000000000000000000000000000000000000000000000000000000000000000000000000000000000
#010391:0000000012525252220000000000000000000000000000000000000000000000
#010381:00000000000000000052005200520052000000000000000000000000000000000000000000000000000000000000000000000000000000000000000000000000
#010330:000000000000000000000000125252525252525252525252220000000000000000000000000000000000000000000000
#010320:000000000000000000000000000000000000000000000000005200520052005200520052005200520052005200520052000000000000000000000000000000000000000000000000000000000000000000000000000000000000000000000000
#011370:0000000000130023
#0113b0:00000053
#012360:0000000000130023
#012320:00000053
#0133b0:00001353
#013370:0000000000330023
#014320:00001353
#014360:0000000000330023
#018330:000000000000135353535353230000000000000000000000
#018320:000000000000000000000000005300000053000000530000000000000000000000000000000000000000000000000000
#018340:000000000000000000000000000000530000005300000053000000000000000000000000000000000000000000000000
#0213b0:00000013000023000000000000000000
#021370:0000000000000000005300000000000000000000000000000000000000000000
#021320:00000000000000000000001300002300
#021360:0000000000000000000000000000000000000000000000000053000000000000
#021371:00000000000000000000001300002300
#0213b1:0000000000000000000000000000000000000000000000000053000000000000
#024361:00000014
#024321:0000000000000034
#025361:24
#024360:0000000000000014
#0253a0:24
#027320:13230000
#027360:0053000000000000
#0273b1:0000130000230000
#027351:00000000000000530000000000000000
#0273b1:0000000000000013
#028371:23
#028321:0013000000000000
#028361:00230000
#028371:00001323
#0283b1:0000000000530000
#0293b1:13230000
#029371:0053000000000000
#029320:0000130000230000
#029380:00000000000000530000000000000000
#033370:13330000
#0333b0:0053000000002300
#033361:00001333
#033321:0000000000530000
#034321:23
#034370:1323000000000000
#0343b0:0000132300000000
#034370:0000000013230000
#0343b0:0000000000001323
#035320:1333
#035360:00330000
#035370:00000033
#036320:3333
#036380:00330000
#036390:00000033
#037320:33330000
#037350:0033000000000000
#037360:0000003300000000
#037330:0033
#037370:0000000000330000
#037340:00000033
#037380:0000000000000023
#039370:0000000000130023
#0393b0:00000053
#040370:0000130000530000
#0403b0:00003323
#040321:00000013
#040361:0000000000000053
#041321:23
#042331:000000000000000000000000000000000000000000000000000000000000000000000000000000000000000000000000000000000000000000000000000000000000000000000000000000000000000000000000000000000000000000000000000000000000000000000000000000000000000000000000000000000000000000000000000000000000000000000000000000000000000000000000000000000000000000000000000000000000000000000000000000000000000000000000000000000000000000000000000000000000000000000000000000000000000000000000000000000000000000000000000000000000000000000000000000000000000000000000000000000000000000000000000000000000000000000000000000000000000000000000000000000000000000000000000000000000000000000000000000000000000000000000000000000000000000000000000000000000000000000000000000000000000000000000000000000000000000000000000000000000000000000000000000000000000000000000000000000000000000000000000000000000000000000000000000000000000000000000000000000000000000000000000000000000000000000000000000000000000000000000000000000000000000000000000000000000000000000000000000000000000000000000000000000000000000000000000000000000000000000000000000000000000000000000000000000000000000000000000000000000000000000000000000000000000000000000000000000000000000000000000000000000000000000000000000000000000000000000000000000000000000000000000000000000000000000000000000000000000000000000000000000000000000000000000000000000000000000000000000000000000000000000000000000000000000000000000000000000000000000000000000000000000000000000000000000000000000000000000000000000000000000000000000000000000000000000000000000000000000000000000000000000000000000000000000000000000000000000000000000000000000000000000000000000000000000000000000000000000000000000000000000000000000000000000000000000000000000000000000000000000000000000000000000000000000000000000000000000000000000000000000000000000000000000000000000000000000000000000000000000000000000000000000000000000000000000000000000000000000000000150000000000000000000000000000000000000000000000000000000000000000000000000000000000000000000000000000000000000000000000000000000000000000000000000000000000000000000000000000000000000000000000000000000000000000000000000000000000000000000000000000000000000000000000000000000000000000000000000000000000000000000000000000000000000000000000000000000000000000000000000000000000000000000000000000000000000000000000000000000000000000000000000000000000000000000000000000000000000000000055230000000000000000000000000000000000000000000000000000000000000000000000000000000000000000000000000000000000000000000000000000000000000000000000000000000000000000000000000000000000000000000000000000000000000000000000000000000000000000000000000000000000000000000000000000000000000000000000000000000000000000000000000000000000000000000000000000000000000000000000000000000000000000000000000000000000000000000000000000000000000000000000000000000000000000000000000000000000000000000000000000000000000000000000000000000000000000000000000000000000000000000000000000000000000000000000000000000000000000000000000000000000000000000000000000000000000000000000000000000000000000000000000000000000000000000000000000000000000000000000000000000000000000000000000000000000000000000000000000000000000000000000000000000000000000000000000000000000000000000000000000000000000000000000000000000000000000000000000000000000000000000000000000000000000000000000000000000000000000000000000000000000000000000000000000000000000000000000000000000000000000000000000000000000000000000000000000000000000000000000000000000000000000000000000000000000000000000000000000000000000000000000000000000000000000000000000000000000000000000000000000000000000000000000000000000000000000000000000000000000000000000000000000000000000000000000000000000000000000000000000000000000000000000000000000000000000000000000000000000000000000000000000000000000000000000000000000000000000000000000
#042380:0000000000150000
#042360:000000000000000000000000000000000000000000000000000000000000000000000000000000000000000000000000000000000000000000000000000000000000000000000000000000000000000000000000000000000000000000000000000000000000000000000000000000000000000000000000000000000000000000000000000000000000000000000000000000000000000000000000000000000000000000000000000000000000000000000000000000000000000000000000000000000000000000000000000000000000000000000000000000000000000000000000000000000000000000000000000000000000000000000000000000000000000000000000000000000000000000000000000000000000000000000000000000000000000000000000000000000000000000000000000000000000000000000000000000000000000000000000000000000000000000000000000000000000000000000000000000000000000000000000000000000000000000000000000000000000000000000000000000000000000000000000000000000000000000000000000000000000000000000000000000000000000000000000000000000000000000000000000000000000000000000000000000000000000000000000000000000000000000000000000000000000000000000000000000000000000000000000000000000000000000000000000000000000000000000000000000000000000000000000000000000000000000000000000000000000000000000000000000000000000000000000000000000000000000000000000000000000000000000000000000000000000000000000000000000000000000000000000000000000000000000000000000000000000000000000000000000000000000000000000000000000000000000000000000000000000000000000000000000000000000000000000000000000000000000000000000000000000000000000000000000000000000000000000000000000000000000000000000000000000000000000000000000000000000000000000000000000000000000000000000000000000000000000000000000000000000000000000000000000000000000000000000000000000000000000000000000000000000000000000000000000000000000000000000000000000000000000000000000000000000000000000000000000000000000000000000000000000000000000000000000000000000000000000000000000000000000000000000000000000000000000000000000000000000000000000000000000000000000000000000000000000000000000000000000000000000000000000000000000000000000000000000000000000000000000000000000000000000000000000000000000000000000000000000000000000000000000000000000000000000000000000000000000000000000000000000000000000000000000000000000000000000000000000000000000000000000000000000000000000000000000000000000000000000000000000000000000000000000000000000000000000000000000000000000000000000000000000000000000000000000000000000000000000000000000005700000000000000000000000000000000000000000000000000000000000000000000000000000000000000000000000000000000000000000000000000000000000000000000000000000000000000000000000000000000000000000000000000000000000000000000000000000000000000000000000000000000000000000000000000000000000000000000000000000000000000000000000000000000000000000000000000000000000000000000000000000000000000000000000000000000000000000000000000000000000000000000000000000000000000000000000000000000000000000057000000000000000000000000000000000000000000000000000000000000000000000000000000000000000000000000000000000000000000000000000000000000000000000000000000000000000000000000000000000000000000000000000000000000000000000000000000000000000000000000000000000000000000000000000000000000000000000000000000000000000000000000000000000000000000000000000000000000000000000000000000000000000000000000000000000000000000000000000000000000000000000000000000000000000000000000000000000000000000000000000000000000000000000000000000000000000000000000000000000000000000000000000000000000000000000000000000000000000000000000000000000000000000000000000000000000000000000000000000000000000000000000000000000000000000000000000000000000000000000000000000000000000000000000000000000000000000000000000000000000000000000000000000000000000000000000000000000000000000000000000000000000000000000000000000000000000000000000000000000000000000000000000000000000000000000000000000000000000000000000
#0423a0:00000023
#042321:000000000000000000000000000000000000000000000000000000000000000000000000000000000000000000000000000000000000000000000000000000000000000000000000000000000000000000000000000000000000000000000000000000000000000000000000000000000000000000000000000000000000000000000000000000000000000000000000000000000000000000000000000000000000000000000000000000000000000000000000000000000000000000000000000000000000000000000000000000000000000000000000000000000000000000000000000000000000000000000000000000000000000000000000000000000000000000000000000000000000000000000000000000000000000000000000000000000000000000000000000000000000000000000000000000000000000000000000000000000000000000000000000000000000000000000000000000000000000000000000000000000000000000000000000000000000000000000000000000000000000000000000000000000000000000000000000000000000000000000000000000000000000000000000000000000000000000000000000000000000000000000000000000000000000000000000000000000000000000000000000000000000000000000000000000000000000000000000000000000000000000000000000000000000000000000000000000000000000000000000000000000000000000000000000000000000000000000000000000000000000000000000000000000000000000000000000000000000000000000000000000000000000000000000000000000000000000000000000000000000000000000000000000000000000000000000000000000000000000000000000000000000000000000000000000000000000000000000000000000000000000000000000000000000000000000000000000000000000000000000000000000000000000000000000000000000000000000000000000000000000000000000000000000000000000000000000000000000000000000000000000000000000000000000000000000000000000000000000000000000000000000000000000000000000000000000000000000000000000000000000000000000000000000000000000000000000000000000000000000000000000000000000000000000000000000000000000000000000000000000000000000000000000000000000000000000000000000000000000000000000000000000000000000000000000000000000000000000000000000000000000000000000000000000000000000000000000000000000000000000000000000000000000000000000000000000000000000000000000000000000000000000000000000000000000000000000000000000000000000000000000000000000000000000000000000000000000000000000000000000000000000000000000000000000000000000000000000000000000000000000000000000000000000000000000000000000000000000000000000000000000000000000000000000000000000000000000000000000000000000000000000000000000000000000000000000000000000000000000000000000000000000000000000000000000000000000000000000000000000000000000000000000000000000000000000000000000000000000000000000000000000000000000000000000000000000000000000000000000000000000000000000000000000000000000000000000000000000000000000000000000000000000000000000000000000000000000000000000000000000000000000000000000000000000000000000000000000000000000000000000000000000000000000000000000000000000000000000000000000000000000000000000000000000000000000000000000000000000000000000145800000000000000000000000000000000000000000000000000000000000000000000000000000000000000000000000000000000000000000000000000000000000000000000000000000000000000000000000000000000000000000000000000000000000000000000000000000000000000000000000000000000000000000000000000000000000000000000000000000000000000000000000000000000000000000000000000000000000000000000000000000000000000000000000000000000000000000000000000000000000000000000000000000000000000000000000000000000000000000000585600000000000000000000000000000000000000000000000000000000000000000000000000000000000000000000000000000000000000000000000000000000000000000000000000000000000000000000000000000000000000000000000000000000000000000000000000000000000000000000000000000000000000000000000000000000000000000000000000000000000000000000000000000000000000000000000000000000000000000000000000000000000000000000000000000000000000000000000000000000000000000000000000000000000000000000000000000000000000000000
#043321:26
#0423a0:0000000000000014
#042380:000000000000000000000000000000000000000000000000000000000000000000000000000000000000000000000000000000000000000000000000000000000000000000000000000000000000000000000000000000000000000000000000000000000000000000000000000000000000000000000000000000000000000000000000000000000000000000000000000000000000000000000000000000000000000000000000000000000000000000000000000000000000000000000000000000000000000000000000000000000000000000000000000000000000000000000000000000000000000000000000000000000000000000000000000000000000000000000000000000000000000000000000000000000000000000000000000000000000000000000000000000000000000000000000000000000000000000000000000000000000000000000000000000000000000000000000000000000000000000000000000000000000000000000000000000000000000000000000000000000000000000000000000000000000000000000000000000000000000000000000000000000000000000000000000000000000000000000000000000000000000000000000000000000000000000000000000000000000000000000000000000000000000000000000000000000000000000000000000000000000000000000000000000000000000000000000000000000000000000000000000000000000000000000000000000000000000000000000000000000000000000000000000000000000000000000000000000000000000000000000000000000000000000000000000000000000000000000000000000000000000000000000000000000000000000000000000000000000000000000000000000000000000000000000000000000000000000000000000000000000000000000000000000000000000000000000000000000000000000000000000000000000000000000000000000000000000000000000000000000000000000000000000000000000000000000000000000000000000000000000000000000000000000000000000000000000000000000000000000000000000000000000000000000000000000000000000000000000000000000000000000000000000000000000000000000000000000000000000000000000000000000000000000000000000000000000000000000000000000000000000000000000000000000000000000000000000000000000000000000000000000000000000000000000000000000000000000000000000000000000000000000000000000000000000000000000000000000000000000000000000000000000000000000000000000000000000000000000000000000000000000000000000000000000000000000000000000000000000000000000000000000000000000000000000000000000000000000000000000000000000000000000000000000000000000000000000000000000000000000000000000000000000000000000000000000000000000000000000000000000000000000000000000000000000000000000000000000000000000000000000000000000000000000000000000000000000000000000000000000000000000000000000000000000000000000000000000000000000000000000000000000000000000000000000000000000000000000000000000000000000000000000000000000000000000000000000000000000000000000000000000000000000000000000000000000000000000000000000000000000000000000000000000000000000000000000000000000000000000000000000000000000000000000000000000000000000000000000000000000000000000000000000000000000000000000000000000000000000000000000000000000000000000000000000000000000000000000000000000000000000000000000000000000000000000000000000000000000000000000000000000000000000000000000000000000000000000000000000000000000000000000000000000000000000000000000000000000000000000000000000000000000000000000000000000000000000000000000000000000000000000000000000000000000000000000000000000000000000000000000000000000000000000000000000000000000000000000000000000000000000000000000000000000000000000000000000000000000000000000000000000000000000000000000000000000000000000000000000000000000005600000000000000000000000000000000000000000000000000000000000000000000000000000000000000000000000000000000000000000000000000000000000000000000000000000000000000000000000000000000000000000000000000000000000000000000000000000000000000000000000000000000000000000000000000000000000000000000000000000000000000000000000000000000000000000000000000000000000000000000000000000000000000000000000000000000000000000000000000000000000000000000000000000000000000000000000000000000000000000000
#043380:26
#043360:0000000000130023
#043320:00000053
#044360:0000130000530000
#044320:00003323
#0443b1:00000013
#044371:0000000000000053
#0453b1:23
#049371:00001333
#0493b1:0000000000330023
#050361:00001333
#050321:0000000000330023
#051351:135353535353230000000000000000000000000000000000000000000000000000000000000000000000000000000000
#051341:005300530053005300530053000000000000000000000000000000000000000000000000000000000000000000000000000000000000000000000000000000000000000000000000000000000000000000000000000000000000000000000000
#0513b1:000000000000000000000000000000000000000000000000000000000000135353535353230000000000000000000000
#0513a1:000000000000000000000000000000000000000000000000000000000000000000000000000000000000000000000000000000000000000000000000005300530053005300530053000000000000000000000000000000000000000000000000
#0513b1:000000000000000000000000000000000000000000000000000000000000000000000000000000135353535353230000
#0513a1:000000000000000000000000000000000000000000000000000000000000000000000000000000000000000000000000000000000000000000000000000000000000000000000000000000000000005300530053005300530053000000000000
#052321:135353535353230000000000000000000000000000000000000000000000000000000000000000000000000000000000
#052331:005300530053005300530053000000000000000000000000000000000000000000000000000000000000000000000000000000000000000000000000000000000000000000000000000000000000000000000000000000000000000000000000
#052381:000000000000000000000000000000000000000000000000000000000000135353535353230000000000000000000000
#052391:000000000000000000000000000000000000000000000000000000000000000000000000000000000000000000000000000000000000000000000000005300530053005300530053000000000000000000000000000000000000000000000000
#052381:000000000000000000000000000000000000000000000000000000000000000000000000000000135353535353230000
#052391:000000000000000000000000000000000000000000000000000000000000000000000000000000000000000000000000000000000000000000000000000000000000000000000000000000000000005300530053005300530053000000000000
#054351:0000000013530000
#054321:00000023
#054380:0000000000130000
#0543b0:00000023
#055380:1600000000260000
#0553b0:00000000005300000000000000000000
#055321:00000000000000000000160000530000
#056321:26
#056380:16260000
#0563b0:0053000000000000
#056321:0000162600000000
#056380:0000001626000000
#056321:0000000000000000000000000000000016000053000026000000000000000000
#058381:000000000000000000000000000000000000000000000000000000000000000000000000000000000000000000000000000000000000000000000000000000000000000000000000000000000000000000000000000000000000000000000000000000000000000000000000000000000000000000000000000000000000000000000000000000000000000000000000000000000000000000000000000000000000000000000000000000000000000000000000000000000000000000000000000000000000000000000000000000000000000000000000000000000000000000000000000000000000000000000000000000000000000000000000000000000000000000000000000000000000000000000000000000000000000000000000000000000000000000000000000000000000000000000000000000000000000000000000000000000000000000000000000000000000000000000000000000000000000000000000000000000000000000000000000000000000000000000000000000000000000000000000000000000000000000000000000000000000000000000000000000000000000000000000000000000000000000000000000000000000000000000000000000000000000000000000000000000000000000000000000000000000000000000000000000000000000000000000000000000000000000000000000000000000000000000000000000000000000000000000000000000000000000000000000000000000000000000000000000000000000000000000000000000000000000000000000000000000000000000000000000000000000000000000000000000000000000000000000000000000000000000000000000000000000000000000000000000000000000000000000000000000000000000000000000000000000000000000000000000000000000000000000000000000000000000000000000000000000000000000000000000000000000000000000000000000000000000000000000000000000000000000000000000000000000000000000000000000000000000000000000000000000000000000000000000000000000000000000000000000000000000000000000000000000000000000000000000000000000000000000000000000000000000000000000000000000000000000000000000000000000000000000000000000000000000000000000000000000000000000000000000000000000000000000000000000000000000000000000000000000000000000000000000000000000000000000000000000000000000000150000000000000000000000000000000000000000000000000000000000000000000000000000000000000000000000000000000000000000000000000000000000000000000000000000000000000000000000000000000000000000000000000000000000000000000000000000000000000000000000000000000000000000000000000000000000000000000000000000000000000000000000000000000000000000000000000000000000000000000000000000000000000000000000000000000000000000000000000000000000000000000000000000000000000000000000000000000000000000000055000000000000000000000000000000000000000000000000000000000000000000000000000000000000000000000000000000000000000000000000000000000000000000000000000000000000000000000000000000000000000000000000000000000000000000000000000000000000000000000000000000000000000000000000000000000000000000000000000000000000000000000000000000000000000000000000000000000000000000000000000000000000000000000000000000000000000000000000000000000000000000000000000000000000000000000000000000000000000000000000000000000000000000000000000000000000000000000000000000000000000000000000000000000000000000000000000000000000000000000000000000000000000000000000000000000000000000000000000000000000000000000000000000000000000000000000000000000000000000000000000000000000000000000000000000000000000000000000000000000000000000000000000000000000000000000000000000000000000000000000000000000000000000000000000000000000000000000000000000000000000000000000000000000000000000000000000000000000000000000000000000000000000000000000000000000000000000000000000000000000000000000000000000000000000000000000000000000000000000000000000000000000000000000000000000000000000000000000000000000000000000000000000000000000000000000000000000000000000000000000000000000000000000000000000000000000000000000000000000000000000000000000000000000000000000000000000000000000000000000000000000000000000000000000000000000000000000000000000000000000000000000000000000000000000000000000000000000000000000000000
#0583a1:0000000000230000
#058330:000000000000000000000000000000000000000000000000000000000000000000000000000000000000000000000000000000000000000000000000000000000000000000000000000000000000000000000000000000000000000000000000000000000000000000000000000000000000000000000000000000000000000000000000000000000000000000000000000000000000000000000000000000000000000000000000000000000000000000000000000000000000000000000000000000000000000000000000000000000000000000000000000000000000000000000000000000000000000000000000000000000000000000000000000000000000000000000000000000000000000000000000000000000000000000000000000000000000000000000000000000000000000000000000000000000000000000000000000000000000000000000000000000000000000000000000000000000000000000000000000000000000000000000000000000000000000000000000000000000000000000000000000000000000000000000000000000000000000000000000000000000000000000000000000000000000000000000000000000000000000000000000000000000000000000000000000000000000000000000000000000000000000000000000000000000000000000000000000000000000000000000000000000000000000000000000000000000000000000000000000000000000000000000000000000000000000000000000000000000000000000000000000000000000000000000000000000000000000000000000000000000000000000000000000000000000000000000000000000000000000000000000000000000000000000000000000000000000000000000000000000000000000000000000000000000000000000000000000000000000000000000000000000000000000000000000000000000000000000000000000000000000000000000000000000000000000000000000000000000000000000000000000000000000000000000000000000000000000000000000000000000000000000000000000000000000000000000000000000000000000000000000000000000000000000000000000000000000000000000000000000000000000000000000000000000000000000000000000000000000000000000000000000000000000000000000000000000000000000000000000000000000000000000000000000000000000000000000000000000000000000000000000000000000000000000000000000000000000000000000000000000000000000000000000000000000000000000000000000000000000000000000000000000000000000000000000000000000000000000000000000000000000000000000000000000000000000000000000000000000000000000000000000000000000000000000000000000000000000000000000000000000000000000000000000000000000000000000000000000000000000000000000000000000000000000000000000000000000000000000000000000000000000000000000000000000000000000000000000000000000000000000000000000000000000000000000000000000000000000000155700000000000000000000000000000000000000000000000000000000000000000000000000000000000000000000000000000000000000000000000000000000000000000000000000000000000000000000000000000000000000000000000000000000000000000000000000000000000000000000000000000000000000000000000000000000000000000000000000000000000000000000000000000000000000000000000000000000000000000000000000000000000000000000000000000000000000000000000000000000000000000000000000000000000000000000000000000000000000000057230000000000000000000000000000000000000000000000000000000000000000000000000000000000000000000000000000000000000000000000000000000000000000000000000000000000000000000000000000000000000000000000000000000000000000000000000000000000000000000000000000000000000000000000000000000000000000000000000000000000000000000000000000000000000000000000000000000000000000000000000000000000000000000000000000000000000000000000000000000000000000000000000000000000000000000000000000000000000000000000000000000000000000000000000000000000000000000000000000000000000000000000000000000000000000000000000000000000000000000000000000000000000000000000000000000000000000000000000000000000000000000000000000000000000000000000000000000000000000000000000000000000000000000000000000000000000000000000000000000000000000000000000000000000000000000000000000000000000000000000000000000000000000000000000000000000000000000000000000000000000000000000000000000000000000000000000000000000000000000000
#0583a1:00000014
#058361:000000000000000000000000000000000000000000000000000000000000000000000000000000000000000000000000000000000000000000000000000000000000000000000000000000000000000000000000000000000000000000000000000000000000000000000000000000000000000000000000000000000000000000000000000000000000000000000000000000000000000000000000000000000000000000000000000000000000000000000000000000000000000000000000000000000000000000000000000000000000000000000000000000000000000000000000000000000000000000000000000000000000000000000000000000000000000000000000000000000000000000000000000000000000000000000000000000000000000000000000000000000000000000000000000000000000000000000000000000000000000000000000000000000000000000000000000000000000000000000000000000000000000000000000000000000000000000000000000000000000000000000000000000000000000000000000000000000000000000000000000000000000000000000000000000000000000000000000000000000000000000000000000000000000000000000000000000000000000000000000000000000000000000000000000000000000000000000000000000000000000000000000000000000000000000000000000000000000000000000000000000000000000000000000000000000000000000000000000000000000000000000000000000000000000000000000000000000000000000000000000000000000000000000000000000000000000000000000000000000000000000000000000000000000000000000000000000000000000000000000000000000000000000000000000000000000000000000000000000000000000000000000000000000000000000000000000000000000000000000000000000000000000000000000000000000000000000000000000000000000000000000000000000000000000000000000000000000000000000000000000000000000000000000000000000000000000000000000000000000000000000000000000000000000000000000000000000000000000000000000000000000000000000000000000000000000000000000000000000000000000000000000000000000000000000000000000000000000000000000000000000000000000000000000000000000000000000000000000000000000000000000000000000000000000000000000000000000000000000000000000000000000000000000000000000000000000000000000000000000000000000000000000000000000000000000000000000000000000000000000000000000000000000000000000000000000000000000000000000000000000000000000000000000000000000000000000000000000000000000000000000000000000000000000000000000000000000000000000000000000000000000000000000000000000000000000000000000000000000000000000000000000000000000000000000000000000000000000000000000000000000000000000000000000000000000000000000000000000000000000000000000000000000000000000000000000000000000000000000000000000000000000000000000000000000000000000000000000000000000000000000000000000000000000000000000000000000000000000000000000000000000000000000000000000000000000000000000000000000000000000000000000000000000000000000000000000000000000000000000000000000000000000000000000000000000000000000000000000000000000000000000000000000000000000000000000000000000000000000000000000000000000000000000000000000000000000000000000000000000000005800000000000000000000000000000000000000000000000000000000000000000000000000000000000000000000000000000000000000000000000000000000000000000000000000000000000000000000000000000000000000000000000000000000000000000000000000000000000000000000000000000000000000000000000000000000000000000000000000000000000000000000000000000000000000000000000000000000000000000000000000000000000000000000000000000000000000000000000000000000000000000000000000000000000000000000000000000000000000000000580000000000000000000000000000000000000000000000000000000000000000000000000000000000000000000000000000000000000000000000000000000000000000000000000000000000000000000000000000000000000000000000000000000000000000000000000000000000000000000000000000000000000000000000000000000000000000000000000000000000000000000000000000000000000000000000000000000000000000000000000000000000000000000000000000000000000000000000000000000000000000000000000000000000000000000000000000000000000000000000
#058381:000000000000000000000000000000000000000000000000000000000000000000000000000000000000000000000000000000000000000000000000000000000000000000000000000000000000000000000000000000000000000000000000000000000000000000000000000000000000000000000000000000000000000000000000000000000000000000000000000000000000000000000000000000000000000000000000000000000000000000000000000000000000000000000000000000000000000000000000000000000000000000000000000000000000000000000000000000000000000000000000000000000000000000000000000000000000000000000000000000000000000000000000000000000000000000000000000000000000000000000000000000000000000000000000000000000000000000000000000000000000000000000000000000000000000000000000000000000000000000000000000000000000000000000000000000000000000000000000000000000000000000000000000000000000000000000000000000000000000000000000000000000000000000000000000000000000000000000000000000000000000000000000000000000000000000000000000000000000000000000000000000000000000000000000000000000000000000000000000000000000000000000000000000000000000000000000000000000000000000000000000000000000000000000000000000000000000000000000000000000000000000000000000000000000000000000000000000000000000000000000000000000000000000000000000000000000000000000000000000000000000000000000000000000000000000000000000000000000000000000000000000000000000000000000000000000000000000000000000000000000000000000000000000000000000000000000000000000000000000000000000000000000000000000000000000000000000000000000000000000000000000000000000000000000000000000000000000000000000000000000000000000000000000000000000000000000000000000000000000000000000000000000000000000000000000000000000000000000000000000000000000000000000000000000000000000000000000000000000000000000000000000000000000000000000000000000000000000000000000000000000000000000000000000000000000000000000000000000000000000000000000000000000000000000000000000000000000000000000000000000000000000000000000000000000000000000000000000000000000000000000000000000000000000000000000000000000000000000000000000000000000000000000000000000000000000000000000000000000000000000000000000000000000000000000000000000000000000000000000000000000000000000000000000000000000000000000000000000000000000000000000000000000000000000000000000000000000000000000000000000000000000000000000000000000000000000000000000000000000000000000000000000000000000000000000000000000000000000000000000000000000000000000000000000000000000000000000000000000000000000000000000000000000000000000000000000000000000000000000000000000000000000000000000000000000000000000000000000000000000000000000000000000000000000000000000000000000000000000000000000000000000000000000000000000000000000000000000000000000000000000000000000000000000000000000000000000000000000000000000000000000000000000000000000000000000000000000000000000000000000000000000000000000000000000000000000000000000000000000000000000000000000000000000000000000000000000000000000000000000000000000000000000000000000000000000000000000000000000000000000000000000000000000000000000000000000000000000000000000000000000000000000000000000000000000000000000000000000000000000000000000000000000000000000000000000000000000000000000000000000000000000000000000000000000000000000000000000000000000000000000000000000000000000000000000000000000000000000000000000000000000000000000000000000000000000000000000000000000000000000005600000000000000000000000000000000000000000000000000000000000000000000000000000000000000000000000000000000000000000000000000000000000000000000000000000000000000000000000000000000000000000000000000000000000000000000000000000000000000000000000000000000000000000000000000000000000000000000000000000000000000000000000000000000000000000000000000000000000000000000000000000000000000000000000000000000000000000000000000000000000000000000000000000000000000000000000000000000000000000000
#059381:26
#058320:000000000000000000000000000000000000000000000000000000000000000000000000000000000000000000000000000000000000000000000000000000000000000000000000000000000000000000000000000000000000000000000000000000000000000000000000000000000000000000000000000000000000000000000000000000000000000000000000000000000000000000000000000000000000000000000000000000000000000000000000000000000000000000000000000000000000000000000000000000000000000000000000000000000000000000000000000000000000000000000000000000000000000000000000000000000000000000000000000000000000000000000000000000000000000000000000000000000000000000000000000000000000000000000000000000000000000000000000000000000000000000000000000000000000000000000000000000000000000000000000000000000000000000000000000000000000000000000000000000000000000000000000000000000000000000000000000000000000000000000000000000000000000000000000000000000000000000000000000000000000000000000000000000000000000000000000000000000000000000000000000000000000000000000000000000000000000000000000000000000000000000000000000000000000000000000000000000000000000000000000000000000000000000000000000000000000000000000000000000000000000000000000000000000000000000000000000000000000000000000000000000000000000000000000000000000000000000000000000000000000000000000000000000000000000000000000000000000000000000000000000000000000000000000000000000000000000000000000000000000000000000000000000000000000000000000000000000000000000000000000000000000000000000000000000000000000000000000000000000000000000000000000000000000000000000000000000000000000000000000000000000000000000000000000000000000000000000000000000000000000000000000000000000000000000000000000000000000000000000000000000000000000000000000000000000000000000000000000000000000000000000000000000000000000000000000000000000000000000000000000000000000000000000000000000000000000000000000000000000000000000000000000000000000000000000000000000000000000000000000000000000000000000000000000000000000000000000000000000000000000000000000000000000000000000000000000000000000000000000000000000000000000000000000000000000000000000000000000000000000000000000000000000000000000000000000000000000000000000000000000000000000000000000000000000000000000000000000000000000000000000000000000000000000000000000000000000000000000000000000000000000000000000000000000000000000000000000000000000000000000000000000000000000000000000000000000000000000000000000000000000000000000000000000000000000000000000000000000000000000000000000000000000000000000000000000000000000000000000000000000000000000000000000000000000000000000000000000000000000000000000000000000000000000000000000000000000000000000000000000000000000000000000000000000000000000000000000000000000000000000000000000000000000000000000000000000000000000000000000000000000000000000000000000000000000000000000000000000000000000000000000000000000000000000000000000000000000000000000000000000000000000000000000000000000000000000000000000000000000000000000000000000000000000000000000000000000000000000000000000000000000000000000000000000000000000000000000000000000000000000000000000000000000000000000000000000000000000000000000000000000000000000000000000000000000000000000000000000000000000000000000000000000000000000000000000000000000000000000000000000000000000000000000000000000000000000000000000000000000000000000000000000000000000000000000000000000000000000000000000000145600000000000000000000000000000000000000000000000000000000000000000000000000000000000000000000000000000000000000000000000000000000000000000000000000000000000000000000000000000000000000000000000000000000000000000000000000000000000000000000000000000000000000000000000000000000000000000000000000000000000000000000000000000000000000000000000000000000000000000000000000000000000000000000000000000000000000000000000000000000000000000000000000000000000000000000000000000000000000000000
#059320:26
#059320:0000000000130023
#059360:00000053
#0603b0:00133323
#060370:0000005300530000
#060321:00000013
#060361:0000000000000053
#061321:23
#0633b1:0000000000130023
#063371:00000053
#064321:00133323
#064361:0000005300530000
#0643b0:00000013
#064370:0000000000000053
#0653b0:23
#065350:00001323000000000000000000000000
#065381:00000013230000000000000000000000
#065320:00130000
#065360:0000002300000000
#0653b1:0000001300000000
#065371:0023
#065320:0013
#065360:0000000000230000
#065370:0000000000000013
#0663b0:23
#066361:13
#066321:0023000000000000
#0663b1:000000000000135353530000000000000000000000000000
#066391:000000000000000000000000005300530053000000000000000000000000000053005300530053005300000000000000
#066381:000000000000000000000000000000000000005300530053005300530053000000000000000000000000530053005300
#0663a1:000000000000000000005353535353530000000000000000
#066371:000000000000000000000000000000000000000000000000000000000000005300530053005300530000000000000000
#066361:000000000000000000000000000000000000000000000000000000000000000000000000000000000053005300530053
#067381:23
#067371:0000000000130000
#0673b1:00000023
#068361:0000000000130000
#068321:00000023
#070381:00000000000000000000001400002400
#072331:000000000000001a
#072351:0000000000000000000000000000000000000000000000000000000000000056
#073341:58
#073361:0000005400000000540000000000000000000000000000000000000000000000
#073351:0056000000000000
#073371:0000000000000052000000002200000000000000000000000000000000000000
