This file was generated by Ched 2.6.4.0.
#TITLE ""
#ARTIST ""
#DESIGNER ""
#DIFFICULTY 0
#PLAYLEVEL
#SONGID ""
#WAVE ""
#WAVEOFFSET 0
#JACKET ""
#REQUEST "ticks_per_beat 480"
#00002: 4
#BPM01: 128
#00008: 01
#TIL00: ""
#HISPEED 00
#MEASUREHS 00
#0011a:14
#00218:14
#00214:00140000
#0021a:0014
#00212:00000014
#00318:14
#00310:41
#0041a:14
#00414:00140000
#00418:0014
#00412:00000014
#00514:00142400
#00518:24000014
#00614:00142400
#00618:24000014
#00712:14
#00814:14
#00818:00140000
#00812:0014
#0081a:00000014
#01014:14
#01018:0014000000000000
#0111a:1414
#01114:00140014
#01110:41
#01218:1414
#01212:00140014
#01518:1414
#01512:00140014
#0161a:1414
#01614:00140014
#0191a:14
#01914:00140000
#01918:0014
#01910:41
#02012:14
#02018:00140000
#02014:0014
#02118:1414
#02114:00140000
#0211a:00000014
#02112:00000014
#02214:1414
#02218:00140014
#02512:14
#0251a:14
#02518:0014
#02514:00000014
#02614:0014
#02618:00000014
#02712:14
#0271a:0014
#02718:00140000
#0271f:11
#02814:14
#02818:00140000
#02812:0014
#0281a:00000014
#02914:14
#0291a:0014
#02918:00140000
#03012:14
#03018:00140000
#03014:0014
#0301a:00000014
#03118:00142400
#03114:24000014
#03218:00142400
#03214:24000014
#0331a:14
#03312:0014
#03314:00140000
#03418:14
#03414:00140000
#0341a:0014
#03412:00000014
#03814:00140014
#03818:0014
#0381a:24
#03918:00140000
#0391a:24
#03912:24
#0391f:21
#0401a:14
#04012:14
#04014:00140000
#04010:41
#04118:00000014
#04112:0014
#0411a:00140000
#04114:14
#04212:14
#04218:00140000
#04214:0014
#0421a:00000014
#04314:00140000
#04312:24
#0431a:24
#04412:14
#0441a:14
#04418:00140000
#04514:00000014
#0451a:0014
#04512:00140000
#04518:14
#0461a:14
#04614:00140000
#04618:0014
#04612:00000014
#0471a:14
#04718:00000014
#04714:0000000000000014
#04812:00140000
#04816:0014
#0481a:00000014
#04818:14
#05014:00001414
#05018:0000000000140014
#05114:14
#0511a:00140000
#05110:41
#05217:00000014
#05418:00000014
#05414:3434000000000000
#05618:00140014
#05614:0014
#05718:00000014
#05712:0014
#0571a:00140000
#05714:14
#05812:14
#05818:00140000
#05814:0014
#0581a:00000014
#05914:00140000
#05912:24
#0591a:24
#05910:41
#0601a:14
#06018:00140000
#06012:14
#06114:00000014
#0611a:0014
#06112:00140000
#06118:14
#0621a:14
#06214:00140000
#06218:0014
#06212:00000014
#06316:00140000
#0631a:24
#0641a:14
#06416:00140000
#06518:14
#06512:00140000
#0651a:0014
#06514:00000014
#0661a:00140000
#06716:00140000
#06712:24
#06812:14
#06816:00140000
#06914:14
#0691a:00140000
#06912:0014
#06918:00000014
#07014:14141400
#07018:0014001400000000
#07118:0014
#07114:00140014
#0721a:14
#07214:00140000
#07218:0014
#04918:00001414
#04914:0000000000140014
#05314:0000000024343434
#05514:24
#00558:14
#00554:0014
#00658:14
#00654:0014
#03154:14
#03158:0014
#03254:14
#03258:0014
#0385a:14
#0475a:14
#0515a:00640000
#0535a:00140000
#05257:00000024
#05452:00180000
#05458:00000014
#05654:14
#0665a:00640000
#07158:14
#0275a:0024
#02758:00540000
#0295a:0024
#02958:00540000
#03352:0024
#03354:00640000
#001340:00140000
#001320:00000024
#003340:00140000
#003320:00000024
#007380:00140000
#0073a0:00000024
#009340:14240000
#009380:00001424
#010340:00143424
#0133a0:1434
#013380:00340024
#014320:1434
#014340:00340024
#0173a0:14
#017380:00342400
#017320:00000014
#018340:0054000034002400
#023320:14
#023340:00240000
#0233a0:0014
#023380:00000024
#024340:14
#024320:00240000
#024380:0014
#0243a0:00000024
#026380:14240000
#027380:00140024
#0273a0:0054
#029380:00140024
#0293a0:0054
#033340:00140024
#033320:0034
#0353a0:14
#035390:00340000
#035380:0034
#035370:00000034
#036370:34
#036380:00340000
#036390:0034
#0363a0:00000034
#0373a0:3434
#037380:00340034
#0383a0:24
#039340:0014
#039320:00000024
#040380:0014
#0403a0:00000024
#043380:0014
#0433a0:00000024
#044340:0014
#044320:00000024
#047320:00142400
#049320:14240000
#0503a0:14240000
#0513a0:00140000
#052370:00000054
#0533a0:00240000
#053340:0000000014343434
#054340:3434000000000000
#054320:00280000
#055340:1400000000340000
#056340:24
#0593a0:0014
#059380:00000024
#060320:0014
#060340:00000024
#063320:0014
#063340:00000024
#064320:0014
#064340:00000024
#0663a0:14340000
#066360:00000024
#0673a0:0014
#067380:00000024
#0683a0:0014
#068380:00000024
#070380:0000000000140000
#071380:24
#072320:00000014
#073320:0000002400000000
