This file was generated by Ched 2.7.0.0.
#TITLE ""
#ARTIST ""
#DESIGNER ""
#DIFFICULTY 0
#PLAYLEVEL
#SONGID ""
#WAVE ""
#WAVEOFFSET 0
#JACKET ""
#REQUEST "ticks_per_beat 480"
#00002: 4
#BPM01: 202
#00008: 01
#TIL00: ""
#HISPEED 00
#MEASUREHS 00
#00912:0016
#00918:26
#01118:0016
#01112:26
#01318:1616
#01412:1616
#0171a:14
#01710:41
#01814:14
#01918:14
#02012:14
#0211a:14
#02214:14
#02318:14
#0251a:14
#02614:14
#0271a:14
#02814:14
#02918:14
#02910:41
#03012:14
#03118:14
#03212:14
#03612:14
#03718:14
#03814:14
#0391a:14
#04018:0016
#04012:26
#04212:0016
#04218:26
#04412:16
#04418:0016
#04512:1616
#04518:00160000
#04618:16
#04612:0016
#04718:16
#04712:0016
#04812:0016
#04818:26
#04810:41
#05018:0016
#05012:26
#05218:16
#05212:0016
#05318:1616
#05312:00160000
#05412:16
#05418:0016
#05512:16
#05518:0016
#06412:14
#06410:41
#06518:14
#06614:14
#0671a:14
#0741a:0014
#0741f:11
#07414:24
#07514:14
#07612:0014
#07618:24
#07718:14
#0781a:0014
#07814:24
#07914:14
#08012:0014
#08018:24
#08118:14
#08418:16
#08410:0041
#08612:16
#08712:0016
#08818:16000016
#08812:0016
#08912:16
#08918:0016
#09012:16
#09018:0016
#09112:16
#09118:0026
#09218:16
#09212:0016
#09312:16000016
#09318:0016
#09618:16
#09612:0016
#09712:16
#09718:0016
#09418:16000016
#09412:0016
#09512:16
#09518:0026
#09812:16
#09818:0026
#02412:24
#08312:0026
#0831f:0021
#08518:0026
#09918:26
#09912:0026
#10012:26
#11418:00240000
#12112:0000002600000000
#10610:0041
#010380:1626
#012320:1626
#015380:1626
#016320:1626
#0333a0:14003434
#0343a0:00343400
#0353a0:34240000
#041320:1626
#043380:1626
#049380:1626
#051320:1626
#056320:14
#057320:24
#058380:14
#059380:24
#060340:14
#061340:24
#0623a0:14
#0633a0:24
#068320:14
#069340:24
#0703a0:14
#071380:3400002400000000
#084320:0016
#085320:26
#086380:0016
#087380:26
#100380:0016
#102380:00260000
#102320:0014
#103320:0024
#104380:0014
#105380:0024
#106340:0014
#107340:0024
#1083a0:0014
#1093a0:0024
#110320:0000000014000034
#111320:0000340000340000
#112320:34342400
#114380:00140000
#115380:00000000000000000000000000340000
#116380:0034
#117380:00340000
#118380:0034000000000000
#121380:24
#121320:0000001600000000
#124320:0000003626000000
