This file was generated by Ched 2.7.0.0.
#TITLE ""
#ARTIST ""
#DESIGNER ""
#DIFFICULTY 0
#PLAYLEVEL
#SONGID ""
#WAVE ""
#WAVEOFFSET 0
#JACKET ""
#REQUEST "ticks_per_beat 480"
#00002: 4
#BPM01: 202
#00008: 01
#TIL00: ""
#HISPEED 00
#MEASUREHS 00
#0081b:00000013
#00812:24242413
#00818:23232300
#00916:13
#00912:000000000013000000000000
#00918:0013
#00913:000000000000001300000000
#00919:000013
#00914:00000013
#0091a:000000000013
#00915:000000000000000000000013
#0091b:13
#01017:000000000013000000000000
#0101b:13000013
#01012:000000001300230000130000
#01117:13
#0111b:001300
#01115:000000000013000000000000
#0111a:0013
#01114:000000000000001300000000
#01119:000013
#01113:00000013
#01118:000000000013
#01112:130000000000000000000013
#01212:00000013
#01219:0000000000000013
#0121b:000000000013000000000000
#01216:000013230000
#01217:13000013
#01318:00000013
#01315:0000000000000013
#0131b:23130000
#01314:0000001300000000
#01316:23130000
#01312:0023
#01317:0023
#0141b:23002313
#01418:0013001300000013
#01415:00230000
#01412:2323
#01515:13
#0151b:13
#01518:0013
#01512:0013
#01619:00000013000000000000001300000000
#0161b:0000001323000000
#01614:00000013000000000000001300000000
#01616:0000001323000000
#01612:2300000000000013
#01617:2300000000000013
#0241a:24000014000014001400000000000000
#02412:24000014000014001400000000000000
#02418:0000000000131300
#02415:00000000000000000000001300000000
#02517:13
#02518:0000001300000013
#02515:00001313
#02512:1300000000130000
#0281b:13131313
#02818:0013001300130013
#02812:24242424
#0291b:1300001300000000
#02918:00000000000000001300001300000000
#02912:0000000000130013
#02915:00000000000000130000000013000000
#02917:0000000000000013
#02916:13
#02910:41
#03017:13
#03012:1300001300000000
#03015:00000000000000001300001300000000
#0301b:0000000000130013
#03018:00000000000000130000000013000000
#03016:0000000000000013
#03212:13131313
#03215:0013001300130013
#0321a:24000024000024002400000024000000
#03318:00001313
#03315:000013
#0331b:00000000000000000000000000000013
#03312:0013
#0331a:24
#03412:0013000000000000
#03415:00130000
#03418:0000001300000000
#0341b:0013
#03419:00000013
#03416:0013
#03414:00000013
#03517:13
#0351b:00130023
#03512:13000023
#03516:00130000
#03617:13
#03619:00000013000000000000000000000000
#0361b:0000001300000000
#03616:0013
#03614:00000000000000000000001300000000
#03612:0000000000000013
#03718:0000000000130013
#03715:00000013
#03717:13
#03719:00000013000000000000000000000000
#0371b:0000001313000000
#03712:0013
#03918:2300001300000000
#0391b:00000000000000000013000000000000
#03915:0000001300000000
#03912:23000000000000000013000000000000
#05616:1400140000140014
#05612:0014001400000000
#0561a:00001414
#0571b:13000013
#05715:000013130000
#05718:000000000013000000000000
#06019:1313000000000000
#06014:0000001300000000
#0601b:0000000000130000
#06012:0000000000000013
#06119:0013000000000000
#06114:0000001300000000
#0611b:0000000000130000
#06112:0000000000000013
#06412:0000001300000000
#06418:2613
#06415:0000000000130000
#0641b:0000001300001300
#06417:0000000000000013
#06410:41
#0651b:0013000000130000
#06517:0000001300000000
#06518:00000013
#06515:0000000000000013
#06612:1300001300000000
#0661b:0000130000130000
#06617:0000001300000000
#06616:0000000000130000
#0671b:0013000000000000
#06719:00130000
#06717:0000001300000000
#06712:0000000000130000
#06715:00000013
#06718:0000000000000013
#0831b:00132300
#08312:00130000
#08317:000000000000000000000000000000000013000000000000
#08316:000000000000240000000024
#0831f:0021
#02616:13
#02615:0000001300000013
#02618:00001313
#0261b:1300000000130000
#02717:13
#02718:0000001300000013
#02715:00001313
#02712:1300000000130000
#03116:13
#0311b:1300001300000000
#03118:00000000000000001300001300000000
#03112:0000000000130013
#03115:00000000000000130000000013000000
#03117:0000000000000013
#03812:1323
#03816:00000013000000000000000000000000
#03817:00000000000000000000001300000000
#0381b:2313
#03818:0000002300000000
#03815:0000000000000023
#04012:000000000013001300000013
#04017:0013
#0401b:130000001313
#04016:23000013
#0411b:000000000013000000000000
#04116:000013230000
#04117:13
#04114:00000013
#04119:00000013
#0421b:000013130013
#04216:000000000013000000000013
#04212:130000000000001300130000
#04217:230013
#04317:000000000013000000000000
#04312:000013230000
#0431b:1300000000001313
#04316:00000013
#04419:0013000000000000
#04412:0000131323000000
#04417:00132300
#04414:0000000000130000
#0441b:2300000000001313
#04416:23000013
#04514:0013001300000000
#04517:00130000
#04515:00000013
#04518:0000000000000013
#04516:2323
#0451b:2323
#04512:00230000
#0461b:1300001300000013
#04612:1300001300000013
#04618:0013
#04615:0013
#04714:00000014000000000000001300000000
#04719:00000013000000000000000000000000
#04712:0000001423000000
#04717:0000001300000000
#04718:00000000000000000000001400000000
#0471a:0000000000000014
#04716:2400000024000013
#0471b:23
#05112:1300000000001313
#05117:00000013
#05116:000000000013000000000000
#0511b:000013230000
#05214:0013000000000000
#0521b:0000131323000000
#05216:00132300
#05219:0000000000130000
#05212:2300000000001313
#05217:23000013
#05319:0013001300000000
#05316:00130000
#05318:00000013
#05315:0000000000000013
#05317:2323
#05312:2323
#0531b:00230000
#05412:1300001300000013
#0541b:1300001300000013
#05415:0013
#05418:0013
#05518:00000014000000000000000000000000
#05514:00000013000000000000001400000000
#0551a:0000001400000000
#05516:2400001324000000
#05519:00000000000000000000001300000000
#05512:2300000000000014
#05517:0000000000000013
#0551b:0023
#05816:1400140000140014
#0581a:0014001400000000
#05812:00001414
#05912:13000013
#05918:0000001313000000
#05915:00000000000000130000000000000000
#06816:13
#06814:00000013000000000000000000000000
#06812:0000001300000000
#06817:0013
#06819:00000000000000000000001300000000
#0681b:0000000000000013
#06916:13
#06914:00000013000000000000000000000000
#06912:0000001313000000
#06915:0000000000130013
#06918:00000013
#0691b:0013
#07119:0000000000000000000000000013000000130000001300000013000000130000
#0711a:00000000000023131313131313131313
#0711b:2300000000000000000000000000001300000013000000130000001300000013
#07114:0000000000000000000000000013000000130000001300000013000000130000
#07113:00000000000023131313131313131313
#07112:0000000000000000000000000000001300000013000000130000001300000013
#07115:23
#0731a:00000012
#07314:00000012
#0741a:120000000000000000120012
#0741c:000000120012000000000000
#07416:000012220000
#07414:220000000012
#0741f:11
#07518:000000120000000000000012
#07512:001200
#0751a:000000000012000000220000
#0751c:000000000000001200000000
#07516:000012
#07514:220000220012
#07612:220000120012000000000000
#07618:000012220000
#07614:000000000000000000120012
#0761a:000000000012
#07716:000000120000000000000012
#0771c:001200
#07714:000000000012000000220000
#07712:000000000000001200000000
#07718:000012
#0771a:220000220012
#07818:000000120012000000000000
#07812:000012220000
#07816:000000000000000000120012
#0781c:220000000012
#07918:000000120012000000220012
#07913:000012000012
#0791b:000000000000001200000000
#07916:000000221200
#0791c:22
#08015:000000120012000000120000
#08019:000000001200220000120000
#08016:22
#11212:130000130000000000240014
#11216:000000000000001400001400
#1121a:000000241400
#1121b:13130000
#0721a:13131313131300000000000000000000
#07219:0013000000130000001300000000000000000000000000000000000000000000
#0721b:0000001300000013000000130000000000000000000000000000000000000000
#07213:13131313131300000000000000000000
#07214:0013000000130000001300000000000000000000000000000000000000000000
#07212:0000001300000013000000130000000000000000000000000000000000000000
#08712:23132313
#0871b:00132313
#08715:0000001300130000
#08718:0000000000000013
#08818:0013000000000000
#08812:23132300
#0881b:23130023
#08815:0000001300000000
#08814:0000000000130000
#08819:0000000000000013
#08817:0023
#08816:00000023
#0891b:00131300
#08916:00131300
#08912:2300001300001313
#08917:2300000000000013
#09012:1300000000000013
#09017:13
#09015:0000001323000000
#09018:00000000000000130000000000000000
#0901b:00000000000000000000001300000000
#09016:00000000000000000000002400002400
#0911b:1300001300000000
#09112:00000013000000001300000013000000
#09116:24000024000024001400000000001300
#0911a:0000000000140000
#09217:13
#09214:0014000000000014
#09216:00140014
#09218:0000001400140000
#0921a:0014
#09212:0023
#09312:14130013
#09314:0000001300000000
#09316:0013
#09317:00130000
#0931b:2313
#0941b:1323
#09418:0013000000000000
#09415:00130000
#09412:0000001300002300
#09416:00002424
#09514:0000001300000000
#0951b:23231313
#09516:2414
#09512:0000230000140000
#09517:0000000000000013
#09616:13140014
#09618:0014000000000014
#09614:0000001400140000
#09612:0014
#0961b:0023
#09718:00130000
#09715:0000001300000000
#0971b:0013
#09712:2313
#0971a:14
#09818:1313131326000000
#09815:00130013001300130000002600000000
#09812:0000000000000026
#10218:0000131313000000
#10215:00000000001300130000000000000000
#10216:000000000000000000000013
#10212:23
#11316:001400001400000000000000
#1131a:241400240000
#11312:000000240014000000000000
#11319:0000000000001414
#11313:0000000000001414
#11419:14
#11413:14
#11418:00260000
#11412:00260000
#1001b:0013
#10016:0013
#10019:00000000000000000000001300000000
#10017:2300000000000013
#10012:2300000000000013
#10112:13000023
#10117:13
#10114:00000013000000000000000000000000
#10116:0000001313000000
#1011b:0000001313000000
#1031b:13000000000000000000000000000013
#10315:001300000000000000000000
#1031a:001300000000
#10314:00130000
#10319:001300
#10313:000000000013000000000000
#10318:0013
#10316:0000000000000013
#10416:13
#10417:00130000
#10418:0000001300000000
#10415:00000000000000130000000000000000
#10618:13001300130000130000000013000000
#10615:00130013000013000000130000001300
#10612:00002313
#10610:0041
#1071b:13132300
#10712:13002313
#10718:0013001300001300
#10715:0000130000130013
#1081b:1300130023130000
#10812:1323
#10818:0013001300000000
#10815:00130000
#10819:00000013
#10814:0000000000001313
#10919:2313000000000000
#1091b:00132300
#10912:0000131323000000
#10914:23
#11018:0000000000132300
#11015:00000000000000000000001300000000
#11012:23333333333333330000000000001300
#1101b:0000000023000013
#11017:23
#11115:13002300000000130000000013002300
#11118:00130000000013002300000000130000
#1111b:0000130000130000
#11112:0000130000130000
#12412:0000001414000000
#12416:00000000000000140000000000000000
#08516:000000230000240013002400
#0851b:00230000
#08512:230000000000230000000023
#0191b:0013
#01916:0013
#01912:13
#01917:13
#0231b:0013
#02316:0013
#02312:13
#02317:13
#0481b:000000000013001300000013
#04816:0013
#04812:130000001313
#04817:23000013
#04810:41
#04912:000000000013000000000000
#04917:000013230000
#04916:13
#04919:00000013
#04914:00000013
#05012:000013130013
#05017:000000000013000000000013
#0501b:130000000000001300130000
#05016:230013
#0701b:1323
#07017:00000013000000000000000000000000
#07016:00000000000000000000001300000000
#07012:2313
#07015:0000002300000000
#07018:0000000000000023
#06312:26
#0811b:23
#08112:23
#06212:00002323
#06218:00000000000000000023000000230000
#06215:0000000000230023
#0621b:00000000000000000000002300000023
#08214:232323000000
#08212:0025
#08219:232323250000
#09918:26
#09912:0023
#09917:0023
#09914:00000000000000000000002300000000
#09919:00000000000000000000002300000000
#09916:0000000000000023
#0991b:0000000000000023
#10512:23
#10514:00000023000000000000000000000000
#10516:0000002323000000
#10517:00000023
#1211a:000000000000000000000000000000000000000000000000000000000000000000000000000000000000000000000000000000000000240000000000000000000000000000000000002400000000000000000000000000000000000000000000000000000000000000000000000000000000000000000000000000000000000000000000000000000000000000000000000000000000000000000000000000000000000000000000000000000000000000000000000000000000000000000000
#12112:000000000000000000000000000000000000000000000000000000000000000000000000000000000000000000000000000000000000240000000000000000000000000000000000002400000000000000000000000000000000000000000000000000000000000000000000000000000000000000000000000000000000000000000000000000000000000000000000000000000000000000000000000000000000000000000000000000000000000000000000000000000000000000000000
#08416:000024000024000000000000
#0841b:230023230000
#08412:002300230000000000002300
#08417:000000000000000000000023
#08410:0041
#08617:000000000000000000000023
#08616:002400002400000000000000
#0861b:232300230000
#08612:000000230023000000002300
#0181b:2333
#01816:00233300
#0201b:0023
#02016:0023
#02012:23
#02017:23
#0221b:2333
#02216:00233300
#01717:0033
#01712:0033
#01710:41
#02117:0033
#02112:0033
#06458:46
#06452:36
#0105b:53
#0095b:53
#00956:13
#01257:63
#01152:63
#01157:13
#0155b:53
#01555:53
#01558:0053
#01552:0053
#02552:53
#02557:53
#02656:63
#0265b:63
#02757:53
#02752:53
#0285b:00005353
#02858:0000000000230023
#0295b:53
#02956:53
#03057:53
#03052:53
#03156:63
#0315b:63
#03252:00006363
#03255:0000000000230023
#0335a:14
#03358:00000053
#0335b:00000000000000000000000000000023
#03852:53
#0385b:0053
#03856:00000023000000000000000000000000
#03857:00000000000000000000002300000000
#03958:0000005300001300
#0395b:00000000000000000023000000000000
#03955:0000006300001300
#03952:00000000000000000023000000000000
#04157:53
#0405b:53
#04056:13
#0435b:63
#04252:63
#04257:13
#0455b:0013
#04652:53
#0465b:53
#04658:0053
#04655:0053
#05452:63
#0545b:63
#05455:0063
#05458:0063
#05352:0013
#05652:0034003400000000
#05656:0000000000340034
#0575b:53
#05755:0053
#0585a:0044004400000000
#05856:0000000000440044
#05952:63
#05958:0063
#06652:53
#06657:0000005300000000
#0665b:0000000000530000
#06757:0000001300000000
#03657:13
#03656:0013
#03757:13
#06856:13
#06857:0013
#06956:13
#0715a:00000000000053535353535353535353
#07159:0000000000000000000000000023000000230000002300000023000000230000
#0715b:0000000000000000000000000000002300000023000000230000002300000023
#07154:0000000000000000000000000023000000230000002300000023000000230000
#07153:00000000000063636363636363636363
#07152:0000000000000000000000000000002300000023000000230000002300000023
#0725a:53535353535300000000000000000000
#07259:0023000000230000002300000000000000000000000000000000000000000000
#0725b:0000002300000023000000230000000000000000000000000000000000000000
#07253:63636363636300000000000000000000
#07254:0023000000230000002300000000000000000000000000000000000000000000
#07252:0000002300000023000000230000000000000000000000000000000000000000
#08252:0015
#08259:0015
#08356:0014
#0835b:00135300
#08352:00130000
#08357:000000000000000000000000000000000023000000000000
#08957:13
#0895b:0063
#0875b:0013
#08752:13
#08852:13
#08856:00000013
#08857:0013
#09057:63
#09052:63
#09156:0000000064000023
#0915a:0000000000240000
#09152:00000063
#09556:0054
#09552:0000000000240000
#0955b:13000053
#09557:0000000000000023
#09352:14000013
#09357:00000013
#0935b:0063
#0945b:0013
#09452:00000013
#0975a:14
#0975b:0053
#09752:0053
#09758:00000013
#09755:00000013
#09958:16
#10052:13
#10057:13
#1015b:0053
#10258:0053
#10358:0053
#10456:53
#10952:0013
#1095b:0013
#11458:00560000
#11452:00660000
#1215a:000000000000000000000000000000000000000000000000000000000000000000000000000000000000000000000000000000000000000000000000000000000000000000000000005400000000000000000000000000000000000000000000000000000000000000000000000000000000000000000000000000000000000000000000000000000000000000000000000000000000000000000000000000000000000000000000000000000000000000000000000000000000000000000000
#08552:1363
#08556:000000142300
#0845b:0053
#0865b:0063
#02057:23000033
#02052:23000033
#0205b:0023
#02056:0023
#01957:23000033
#01952:23000033
#0195b:0023
#01956:0023
#0235b:0023
#02356:0023
#02352:23000033
#02357:23000033
#04956:63
#04852:63
#04857:13
#05152:53
#0505b:53
#05056:13
#0705b:63
#07057:00000023000000000000000000000000
#07056:00000000000000000000002300000000
#07052:0063
#0093b0:13
#009370:000000000023000000000000
#0103b0:13
#010370:002300
#011320:13
#011360:002300
#012370:13
#0123b0:002300
#0153b0:13
#015380:0000002300000000
#015351:13
#015321:0000002300000000
#015381:0013
#0153b1:0000000000000023
#015320:0013
#015350:0000000000000023
#017320:130000000000000000000053330000000000000000000000
#017360:000000000000000000000000005300000000230000000000
#017371:000000000000130000000053330000000000000000000000
#0173b1:000000000000000000000000005300000000230000000000
#0183b1:130000000000000000000053330000000000000000000000
#018371:000000000000000000000000005300000000230000000000
#018360:000000000000130000000053330000000000000000000000
#018320:000000000000000000000000005300000000230000000000
#019320:13
#019360:00230000
#019371:13
#0193b1:00230000
#0193b1:0013
#019371:00000023
#019360:0013
#019320:00000023
#020320:13
#020360:00230000
#020371:13
#0203b1:00230000
#0203b1:0013
#020371:00000023
#020360:0013
#020320:00000023
#021320:130000000000000000000053330000000000000000000000
#021360:000000000000000000000000005300000000230000000000
#021371:000000000000130000000053330000000000000000000000
#0213b1:000000000000000000000000005300000000230000000000
#0223b1:130000000000000000000053330000000000000000000000
#022371:000000000000000000000000005300000000230000000000
#022360:000000000000130000000053330000000000000000000000
#022320:000000000000000000000000005300000000230000000000
#023320:13
#023360:00230000
#023371:13
#0233b1:00230000
#0233b1:0013
#023371:00000023
#023360:0013
#023320:00000023
#025320:13
#025360:00230000
#025371:13
#0253b1:00230000
#0263b1:13
#026371:00230000
#026360:13
#026320:00230000
#027320:13
#027360:00230000
#027371:13
#0273b1:00230000
#0283b1:00001333
#028381:0000000000530053
#0293b1:33
#029371:00230000
#029360:13
#029320:00230000
#030320:13
#030360:00230000
#030371:13
#0303b1:00230000
#0313b1:13
#031371:00230000
#031360:13
#031320:00230000
#032320:00001333
#032350:0000000000530053
#033320:23
#033380:00000013
#0333b0:00000000000000000000000000000053
#034380:0023000000000000
#036320:13
#036340:00000033000000000000000000000000
#036360:0000002300000000
#0363b0:0013
#036390:00000000000000000000003300000000
#036370:0000000000000023
#037320:13
#037340:00000033000000000000000000000000
#037360:0000002300000000
#038320:1300002300000000
#038360:00000053000000000000000000000000
#0383b0:0000000013000023
#038370:00000000000000000000005300000000
#039380:0000001300002300
#0393b0:00000000000000000053000000000000
#039351:0000001300002300
#039321:00000000000000000053000000000000
#0403b1:13
#040371:000000000023000000000000
#041371:13
#0413b1:002300
#042321:13
#042361:002300
#0433b1:13
#043371:002300
#0463b1:13
#046381:00230000
#046320:13
#046350:00230000
#046380:0013
#0463b0:00000023
#046351:0013
#046321:00000023
#048321:13
#048361:000000000023000000000000
#049361:13
#049321:002300
#0503b1:13
#050371:002300
#051321:13
#051361:002300
#054321:13
#054351:00230000
#0543b0:13
#054380:00230000
#054350:0013
#054320:00000023
#054381:0013
#0543b1:00000023
#0573b1:13
#057381:002300
#057351:0013
#057321:00000023
#059321:13
#059351:0000002300000000
#059381:0013
#0593b1:00000023
#060321:1353535353535353230000000000000000000000000000000000000000000000
#060331:00530053005300530053005300530053000000000000000000000000000000000000000000000000000000000000000000000000000000000000000000000000
#060390:0000000000000000135353535353535323000000000000000000000000000000
#060380:00000000000000000000000000000000005300530053005300530053005300530000000000000000000000000000000000000000000000000000000000000000
#060341:0000000000000000000000000000000013535353535353532300000000000000
#060351:00000000000000000000000000000000000000000000000000000000000000000053005300530053005300530053005300000000000000000000000000000000
#0603b0:0000000000000000000000000000000000000000000000001353535353535353
#0603a0:00000000000000000000000000000000000000000000000000000000000000000000000000000000000000000000000000530053005300530053005300530053
#0613b0:23
#061321:1353535353535353230000000000000000000000000000000000000000000000
#061331:00530053005300530053005300530053000000000000000000000000000000000000000000000000000000000000000000000000000000000000000000000000
#061390:0000000000000000135353535353535323000000000000000000000000000000
#061380:00000000000000000000000000000000005300530053005300530053005300530000000000000000000000000000000000000000000000000000000000000000
#061341:0000000000000000000000000000000013535353535353532300000000000000
#061351:00000000000000000000000000000000000000000000000000000000000000000053005300530053005300530053005300000000000000000000000000000000
#0613b0:0000000000000000000000000000000000000000000000001353535353535353
#0613a0:00000000000000000000000000000000000000000000000000000000000000000000000000000000000000000000000000530053005300530053005300530053
#0623b0:23
#062321:1353535323000000000000000000000000000000000000000000000000000000
#062331:00530053005300530000000000000000000000000000000000000000000000000000000000000000000000000000000000000000000000000000000000000000
#062390:0000000013535353230000000000000000000000000000000000000000000000
#062380:00000000000000000053005300530053000000000000000000000000000000000000000000000000000000000000000000000000000000000000000000000000
#062341:0000000000000000135353532300000000000000000000000000000000000000
#062351:00000000000000000000000000000000005300530053005300000000000000000000000000000000000000000000000000000000000000000000000000000000
#0623b0:0000000000000000000000001353535323000000000000000000000000000000
#0623a0:00000000000000000000000000000000000000000000000000530053005300530000000000000000000000000000000000000000000000000000000000000000
#062321:00000000000000001323000000000000
#062380:00000000000000000013230000000000
#062351:00000000000000000000132300000000
#0623b0:00000000000000000000001323000000
#062321:00000000000000000000000013230000
#062380:00000000000000000000000000132300
#062351:00000000000000000000000000001323
#0623b0:00000000000000000000000000000013
#0633b0:23
#063321:1656565656565656565656565656565656565656565656565656565656565656
#063331:00560056005600560056005600560056005600560056005600560056005600560056005600560056005600560056005600560056005600560056005600560056
#064321:26
#064321:0000000000000013
#065361:0033000000000000
#065321:0000002300000000
#066321:13
#066361:00230000
#066371:0000001300000023
#0663b1:0000000000330000
#066320:0000000000000013
#067360:0033000000000000
#067340:00330000
#067320:0000002300000000
#0683b0:13
#068390:00000033000000000000000000000000
#068370:0000002300000000
#068320:0013
#068340:00000000000000000000003300000000
#068360:0000000000000023
#0693b0:13
#069390:00000033000000000000000000000000
#069370:0000002300000000
#0703b0:1300002300000000
#070370:00000053000000000000000000000000
#070320:0000000013000023
#070360:00000000000000000000005300000000
#0713a0:00000000000013535353535353535353
#071390:0000000000000000000000000053000000530000005300000053000000530000
#0713b0:0000000000000000000000000000005300000053000000530000005300000053
#0723a0:53535353535323000000000000000000
#072390:0053000000530000005300000000000000000000000000000000000000000000
#0723b0:0000005300000053000000530000000000000000000000000000000000000000
#071331:00000000000013535353535353535353
#071341:0000000000000000000000000053000000530000005300000053000000530000
#071321:0000000000000000000000000000005300000053000000530000005300000053
#072331:53535353535323000000000000000000
#072341:0053000000530000005300000000000000000000000000000000000000000000
#072321:0000005300000053000000530000000000000000000000000000000000000000
#0833b1:000000000000130000000023
#083371:000000000000000000000000000000000053000000000000
#0843b1:0013
#084371:000000000023
#085321:000000130023
#085361:000053
#0863b1:0013
#086371:000000000023
#0893b1:0013
#089371:00000023
#090321:13
#090361:00230000
#090370:13
#0903b0:00230000
#091360:00001424
#0913a0:0000000000540000
#091321:00000013
#091361:0000000000000053
#092321:23
#0933b1:0013
#093371:00000023
#095361:00001424
#095321:0000000000540000
#0953b0:00000013
#095370:0000000000000053
#0963b0:23
#097320:0013
#097350:00000023
#0973b1:0013
#097381:00000023
#1013b1:0013
#102371:23
#102381:0013
#1023b1:000000000000000000000023
#103381:0013
#1033b1:0000000000000023
#104361:13
#104321:00230000
#1043b1:0013
#1053b1:0023
#105360:0013
#105320:00000023
#110320:13333333333333330000000000000000
#110360:0023
#114380:00160000
#115380:0000000000000000000000000000000000000000000000000000003300000000
#116380:000000000000000000000000000000000000000000000000000000000000000000000000000000000000000000000000000000000000000000000000000000000000000000000000000000000000000000000000000000000000000000000000000000000000000000000000000000000000000000000000000000000000000000000000000000000000000000000000000000000000000000000000000000000000000000000000000000000000000000000000000000000000000000000000000000000000000000000000000000000000000000000000000000000000000000000000000000000000000000000000000000000000000000000000000000000000000000000000000000000000000000000000000000000000000000000000000000000000000000000000000000000000000000000000000000000000000000000000000000000000000000000000000000000000000000000000000000000000000000000000000000000000000000000000000000000000000000000000000000000000000000000000000000000000000000000000000000000000000000000000000000000000000000000000000000000000000000000000000000000000000000000000000000000000000000000000000000000000000000000053340000000000000000000000000000000000000000000000000000000000000000000000000000000000000000000000000000000000000000000000000000000000000000000000000000000000000000000000000000000000000000000000000000000000000000000000000000000000000000000000000000000000000000000000000000000000000000000000000000000000000000000000000000000000000000000000000000000000000000000000000000000000000000000000000000000000000000000000000000000000000000000000000000000000000000000000000000000000000000000000000000000000000000000000000000000000000000000000000000000000000000000000000000000000000000000000000000000000000000000000000000000000000000000000000000000000000000000000000000000000000000000000000000000000000000000000000000000000000000000000000000000000000000000000000000000000000000000000000000000000000000000000000000000000000000000000000000000000000000000000000000000000000000000000000000000000000000000000000000000000000000000000000000000000000000000000000000000000000000000000
#117380:000000000000000000000000000000000000000000000000000000000000000000000000000000000000000000000000000000000000000000000000000000000000000000000000000000000000000000000000000000000000000000000000000000000000000000000000000000000000000000000000000000000000000000000000000000000000000000000000000000000000000000000000000000000000000000000000000000000000000000000000000000000000000000000000000000000000000000000000000000000000000000000000000000000000000000000000000000000000000000000054350000000000000000000000000000000000000000000000000000000000000000000000000000000000000000000000000000000000000000000000000000000000000000000000000000000000000000000000000000000000000000000000000000000000000000000000000000000000000000000000000000000000000000000000000000000000000000000000000000000000000000000000000000000000000000000000000000000000000000000000000000000000000000000000000000000000000000000000000000000000000000000000000000000000000000000000000000000000000000000000000000000000000000000000000000000000000000000000000000000000000000000000000000000000000000000000000000000000000000000000000000000000000000000000000000000000000000000000000000000000000000000000000000000000000000000000000000000000000000000000000000000000000000000000000000000000000000000000000000000000000000000000000000000000000000000000000000000000000000000000000000000000000000000000000000000000000000000000000000000000000000000000000000000000000000000000000000000000000000000000000000000000000000000000000000000000000000000000000000000000000000000000000000000000000000000000000000000000000000000000000000000000000000000000000000000000000000000000000000000000000000000000000000000000000000000000000000000000000000000000000000000000000000000000000000000000000000000000000000000000000000000000000000000000000000000000000000000000000000000000000000000000000000000000000000000000000000000000000000000000000000000000000000000000000000000000000000000000000000000000
#118380:000000000000000000000000000000000000000000000000000000000000000000000000000000000000000000000000000000000000000000000000000000000000000000000000000000000000000000000000000000000000000000000000000000000000000000000000000000000000000000000055360000000000000000000000000000000000000000000000000000000000000000000000000000000000000000000000000000000000000000000000000000000000000000000000000000000000000000000000000000000000000000000000000000000000000000000000000000000000000000000000000000000000000000000000000000000000000000000000000000000000000000000000000000000000000000000000000000000000000000000000000000000000000000000000000000000000000000000000000000000000000000000000000000000000000000000000000000000000000000000000000000000000000000000000000000000000000000000000000000000000000000000000000000000000000000000000000000000000000000000000000000000000000000000000000000000000000000000000000000000000000000000000000000000000000000000000000000000000000000000000000000000000000000000000000000000000000000000000000000000000000000000000000000000000000000000000000000000000000000000000000000000000000000000000000000000000000000000000000000000000000000000000000000000000000000000000000000000000000000000000000000000000000000000000000000000000000000000000000000000000000000000000000000000000000000000000000000000000000000000000000000000000000000000000000000000000000000000000000000000000000000000000000000000000000000000000000000000000000000000000000000000000000000000000000000000000000000000000000000000000000000000000000000000000000000000000000000000000000000000000000000000000000000000000000000000000000000000000000000000000000000000000000000000000000000000000000000000000000000000000000000000000000000000000000000000000000000000000000000000000000000000000000000000000000000000000000000000000000000000000000000000000000000000000000000000000000000000000000000000000000000000000000000000000000000000000000000000000000000000000
#121380:26
#114321:00160000
#115351:0000000000000000000000000000000000000000000000000000003300000000
#116351:000000000000000000000000000000000000000000000000000000000000000000000000000000000000000000000000000000000000000000000000000000000000000000000000000000000000000000000000000000000000000000000000000000000000000000000000000000000000000000000000000000000000000000000000000000000000000000000000000000000000000000000000000000000000000000000000000000000000000000000000000000000000000000000000000000000000000000000000000000000000000000000000000000000000000000000000000000000000000000000000000000000000000000000000000000000000000000000000000000000000000000000000000000000000000000000000000000000000000000000000000000000000000000000000000000000000000000000000000000000000000000000000000000000000000000000000000000000000000000000000000000000000000000000000000000000000000000000000000000000000000000000000000000000000000000000000000000000000000000000000000000000000000000000000000000000000000000000000000000000000000000000000000000000000000000000000000000000000000000000053000000000000000000000000000000000000000000000000000000000000000000000000000000000000000000000000000000000000000000000000000000000000000000000000000000000000000000000000000000000000000000000000000000000000000000000000000000000000000000000000000000000000000000000000000000000000000000000000000000000000000000000000000000000000000000000000000000000000000000000000000000000000000000000000000000000000000000000000000000000000000000000000000000000000000000000000000000000000000000000000000000000000000000000000000000000000000000000000000000000000000000000000000000000000000000000000000000000000000000000000000000000000000000000000000000000000000000000000000000000000000000000000000000000000000000000000000000000000000000000000000000000000000000000000000000000000000000000000000000000000000000000000000000000000000000000000000000000000000000000000000000000000000000000000000000000000000000000000000000000000000000000000000000000000000000000000000000000000000000000000
#116341:0034
#117341:000000000000000000000000000000000000000000000000000000000000000000000000000000000000000000000000000000000000000000000000000000000000000000000000000000000000000000000000000000000000000000000000000000000000000000000000000000000000000000000000000000000000000000000000000000000000000000000000000000000000000000000000000000000000000000000000000000000000000000000000000000000000000000000000000000000000000000000000000000000000000000000000000000000000000000000000000000000000000000000054000000000000000000000000000000000000000000000000000000000000000000000000000000000000000000000000000000000000000000000000000000000000000000000000000000000000000000000000000000000000000000000000000000000000000000000000000000000000000000000000000000000000000000000000000000000000000000000000000000000000000000000000000000000000000000000000000000000000000000000000000000000000000000000000000000000000000000000000000000000000000000000000000000000000000000000000000000000000000000000000000000000000000000000000000000000000000000000000000000000000000000000000000000000000000000000000000000000000000000000000000000000000000000000000000000000000000000000000000000000000000000000000000000000000000000000000000000000000000000000000000000000000000000000000000000000000000000000000000000000000000000000000000000000000000000000000000000000000000000000000000000000000000000000000000000000000000000000000000000000000000000000000000000000000000000000000000000000000000000000000000000000000000000000000000000000000000000000000000000000000000000000000000000000000000000000000000000000000000000000000000000000000000000000000000000000000000000000000000000000000000000000000000000000000000000000000000000000000000000000000000000000000000000000000000000000000000000000000000000000000000000000000000000000000000000000000000000000000000000000000000000000000000000000000000000000000000000000000000000000000000000000000000000000000000000000000000000000000000000000000
#117331:00350000
#118331:000000000000000000000000000000000000000000000000000000000000000000000000000000000000000000000000000000000000000000000000000000000000000000000000000000000000000000000000000000000000000000000000000000000000000000000000000000000000000000000055000000000000000000000000000000000000000000000000000000000000000000000000000000000000000000000000000000000000000000000000000000000000000000000000000000000000000000000000000000000000000000000000000000000000000000000000000000000000000000000000000000000000000000000000000000000000000000000000000000000000000000000000000000000000000000000000000000000000000000000000000000000000000000000000000000000000000000000000000000000000000000000000000000000000000000000000000000000000000000000000000000000000000000000000000000000000000000000000000000000000000000000000000000000000000000000000000000000000000000000000000000000000000000000000000000000000000000000000000000000000000000000000000000000000000000000000000000000000000000000000000000000000000000000000000000000000000000000000000000000000000000000000000000000000000000000000000000000000000000000000000000000000000000000000000000000000000000000000000000000000000000000000000000000000000000000000000000000000000000000000000000000000000000000000000000000000000000000000000000000000000000000000000000000000000000000000000000000000000000000000000000000000000000000000000000000000000000000000000000000000000000000000000000000000000000000000000000000000000000000000000000000000000000000000000000000000000000000000000000000000000000000000000000000000000000000000000000000000000000000000000000000000000000000000000000000000000000000000000000000000000000000000000000000000000000000000000000000000000000000000000000000000000000000000000000000000000000000000000000000000000000000000000000000000000000000000000000000000000000000000000000000000000000000000000000000000000000000000000000000000000000000000000000000000000000000000000000000000000000000000
#118321:0036000000000000
#121321:26
#1213a1:000000000000000000000000000000000000000000000000000000000000000000000000000000000000000000000000000000000000000000000000000000000000000000000000001400000000000000000000000000000000000000000000000000000000000000000000000000000000000000000000000000000000000000000000000000000000000000000000000000000000000000000000000000000000000000000000000000000000000000000000000000000000000000000000
#124361:0000002400000000
