This file was generated by Ched 2.7.0.0.
#TITLE ""
#ARTIST ""
#DESIGNER ""
#DIFFICULTY 0
#PLAYLEVEL
#SONGID ""
#WAVE ""
#WAVEOFFSET 0
#JACKET ""
#REQUEST "ticks_per_beat 480"
#00002: 4
#BPM01: 202
#00008: 01
#TIL00: ""
#HISPEED 00
#MEASUREHS 00
#0081b:00000013
#00814:2424
#00818:00240000
#00915:13
#0091b:000000000000333333333333
#01018:000000000014000000130000
#01014:000014240000
#01112:13
#01118:000000000033333333333333
#01215:0000000000000013
#01214:000014240000
#0121b:00000013
#01218:000000000014000000000000
#01318:0000001300001300
#01315:0000000000000013
#01312:00132300
#0131b:23
#01415:00260013
#01418:0000000000000013
#0141b:2323
#01412:2323
#01515:13
#01518:0013
#02419:00000014
#02413:24000014
#0251b:13000013
#02512:0000001300000000
#02518:0013
#02515:0000000000130013
#02815:0013000000000000
#02812:0000001300000000
#0281b:2313
#02818:0000230000130000
#03318:000014
#03312:0014
#03314:00000014
#0331a:24
#0341b:0013000000000000
#03415:00130000
#03418:0000001300001300
#03412:0013
#03515:13
#0351b:00130000
#03512:00130000
#03518:00000023
#03615:13000000000000000000001300000000
#03618:00000013000000001300000000000000
#03612:0000001300000000
#0361b:0000000000000013
#03715:1300000000130013
#03718:00000013000000000000000013000000
#03712:0000001300000000
#0371b:0013
#05614:0014000000000000
#0561a:14140000
#05612:00001414
#05618:0000000000140000
#06412:0000001300000000
#06418:0013
#06415:0000000000130000
#0641b:00000013
#06410:41
#0651b:0000000000130000
#06515:00000013
#06518:0000000000000013
#06612:13
#0661b:0000001300000000
#0671b:0000000000130000
#06715:00000013
#06718:0000000000000013
#06712:00330000
#08318:00130000
#08312:0024
#0831a:000000000000000000000024
#0831f:0021
#01618:00000014000000000000000000001400
#01614:00000000000014000000001400000000
#01612:24
#0161a:0024
#02615:0000001300000013
#02618:13001313
#02612:0000000000130000
#04515:0013000000001300
#04518:0000230000000013
#04512:0000001300000000
#0451b:2323
#04612:13
#0461b:0013
#04718:00000014000000000000000000000000
#04712:2400001400000000
#04714:00000000000000000000001400000000
#0471a:0000000024000014
#04918:000000000014000000000000
#04914:000014240000
#0491a:00000014
#05215:00000013
#05218:0000000000000013
#0521a:24140000
#05216:0000001400000000
#05212:0024
#05318:0013000000001300
#0531b:0000001300000000
#05315:0000230000000013
#05312:2323
#1121a:1324
#11212:00130024
#11215:13
#1121b:00130000
#11214:0014
#11218:00000014
#08712:00130000
#08718:0000001300000000
#0871b:00000013
#08715:0000000023000013
#0871a:24
#08812:00130023
#08818:2300001300000013
#0881b:0000000000130000
#08815:0023
#0891b:00130000
#08915:2300001300000000
#08918:0013
#09015:13
#09018:0000001300000000
#09012:0024
#09016:00000000000000000000002400000000
#0901a:0000000000000024
#09214:0014000000000014
#09218:00140014
#09212:0000001400140000
#09216:0024
#0931a:14
#09315:00130000
#09318:0000001300000000
#09312:0013
#0941b:13
#09415:0013000000000000
#09418:00132400
#09412:0000001300000000
#09414:00000024
#1021b:00130000
#10212:00130000
#11318:00140014
#11314:1400000014000014
#1131a:2424
#11312:00240000
#11418:14
#11415:00260000
#10112:0014
#1011a:14
#10119:00000014000000000000000000000000
#10118:0000001400000000
#11017:0000000000000013
#11012:24343434343434340000000000001300
#11113:00130000
#11118:00130000
#11119:0000000000130000
#11114:0000000000130000
#01918:0013
#01915:13
#02318:0013
#02315:13
#0271b:13000013
#02712:0000001300000000
#02718:0013
#02715:0000000000130013
#02912:13000013
#0291b:0000001300000000
#02915:0013
#02918:0000000000130013
#02910:41
#03218:0013000000000000
#0321b:0000001300000000
#03212:2313
#03215:0000230000130000
#03018:0000001300000013
#03015:13001313
#0301b:0000000000130000
#03112:13000013
#0311b:0000001300000000
#03115:0013
#03118:0000000000130013
#0391b:2300001300000000
#03912:2300001300000000
#05114:000000000014000000000000
#05118:000014240000
#05112:00000014
#05116:0000000000000014
#0541b:13
#05412:0013
#05514:00000014000000000000000000000000
#0551a:2400001400000000
#05518:00000000000000000000001400000000
#05512:0000000024000014
#05712:1313
#05718:0013000000130000
#05715:00130013
#0571b:0000001300000013
#0581a:0014000000000000
#05814:14140000
#05818:00001414
#05812:0000000000140000
#0591b:1313
#05915:0013000000130000
#05918:00130013
#05912:0000001300000013
#0621b:1323
#06215:0013000000230000
#06218:00130023
#06212:0000001300000023
#06812:13
#06818:00000013000000000000000000001300
#06815:00000000000013000000001300000000
#0681b:0013
#06915:0000001300130013
#06918:00000013000000000000000013000000
#06912:13
#0691b:0013
#07117:0000000000000000000000000014000000140000001400000014000000140000
#07118:00000000000024141414141414141414
#07119:0000000000000000000000000000001400000014000000140000001400000014
#07112:23
#0711b:23
#07218:14141414141400000000000000000000
#07217:0014000000140000001400000000000000000000000000000000000000000000
#07219:0000001400000014000000140000000000000000000000000000000000000000
#07318:00000013
#07418:000000000013000000000000
#0741f:11
#07415:23
#07412:000000000000003333003333
#07518:000013230000
#07515:000000000013000000230000
#07615:000000000013000000000000
#07618:23
#0761b:000000000000003333003333
#07715:000000000000000013000000230000000000000000130000
#07718:000000000013000000000000
#0771b:00000023
#07812:00132300
#07818:0000001300000000
#0781b:23000013
#07815:0000000000000013
#07912:0013000000000000
#07918:2300130000000013
#07915:0000001300002300
#0791b:0023
#08018:0000000000000013
#08015:13
#08012:0000003300000000
#0911a:24001414
#09118:0000000000140014
#09116:00000024000000000000000000000000
#09112:0000002400000000
#09618:0014000000000014
#09614:00140014
#0961a:0000001400140000
#09616:0024
#09712:14
#09718:00130000
#09715:0000001300000000
#0971b:0013
#09812:1326
#09818:0013000000000026
#09815:00000000130000000000002600000000
#0981b:0000001300000000
#10012:0014
#10013:00000000000000000000001400000000
#10014:0000000000000014
#10018:26
#10418:0013
#10415:23
#10515:13
#10518:0023
#1091b:13
#10915:13
#10912:0024
#1091a:0024
#10812:0013
#10818:0013
#10815:23
#1081b:23
#09512:00241414
#09514:0000000000140014
#09518:24
#0951a:00240000
#04114:000000000014000000000000
#04118:000014240000
#04112:00000014
#04418:00000013
#04415:0000000000000013
#04412:24140000
#04416:0000001400000000
#0441a:0024
#04318:000000000014000000000000
#04314:000014240000
#0431a:00000014
#04316:0000000000000014
#08115:23
#0381a:24
#03814:0000002400000000
#03818:0024
#03812:0000000000000023
#0381b:0000000000000023
#04812:24
#0481a:000000000000343434343434
#04810:41
#08214:002400240000
#08218:242400
#09912:2600000000000026
#09918:0026
#09915:00000000000000000000002600000000
#12118:000000000000000000000000000000000000000000000000000000000000000000000000000000000000000000000000000000000000000000000000000000000000000000000000002600000000000000000000000000000000000000000000000000000000000000000000000000000000000000000000000000000000000000000000000000000000000000000000000000000000000000000000000000000000000000000000000000000000000000000000000000000000000000000000
#12112:0000000000000000002600000000000000000000000000000000000000000000
#08516:00240000
#08512:240000000000000000002434
#0851a:0024
#08412:000000000024
#08418:000000000000000000000024
#0841a:343434343434000000000000
#08410:0041
#02018:0023
#02015:23
#01812:23
#0181b:0023
#02212:23
#0221b:0023
#0401a:24
#04012:240000000000343434343434
#05016:24
#05012:000000000000343434343434
#06314:28
#0701a:24
#07014:0000002400000000
#07018:0024
#07012:0000000000000023
#0701b:0000000000000023
#0861a:000000000024
#08614:000000000000000000000024
#08612:343434343434000000000000
#10318:0023
#10615:23
#10610:0041
#10718:0023
#10712:0023
#04216:24
#0421a:000000000034343434343434
#0601b:00333333003333330000000000000000
#06012:00000000000000000033333300333333
#0611b:00333333003333330000000000000000
#06112:00000000000000000033333300333333
#01710:41
#01555:53
#01558:0053
#0255b:53
#02658:63
#0285b:0053
#02858:0000000000230000
#04652:53
#0465b:0053
#05352:0013
#06652:53
#0665b:0000005300000000
#03655:13
#03658:0013
#03755:13
#00955:13
#01152:13
#08254:0014
#08352:0014
#08358:00130000
#08955:13
#08958:0053
#08755:0013
#0875a:14
#08858:13
#09055:53
#0935a:14
#09355:00000013
#09352:0053
#09952:16
#10152:0064
#11455:00660000
#12158:000000000000000000000000000000000000000000000000000000000000000000000000000000000000000000000000000000000000000000000000000000000000000000000000005600000000000000000000000000000000000000000000000000000000000000000000000000000000000000000000000000000000000000000000000000000000000000000000000000000000000000000000000000000000000000000000000000000000000000000000000000000000000000000000
#08552:14
#0855a:0014
#0205b:00000043
#02058:0023
#02055:23
#0195b:00000043
#01958:0023
#01955:23
#01058:13
#0125b:13
#02358:0023
#02355:23
#0235b:00000043
#0275b:53
#02952:63
#03252:0063
#03255:0000000000230000
#03055:53
#03152:63
#0335a:14
#0395b:0000005300000000
#03952:0000005300000000
#03958:00000013
#03955:00000013
#0405a:14
#04052:14
#04852:14
#04956:14
#05056:14
#05156:14
#0545b:63
#05452:0063
#05654:0014000000000000
#05658:0000000000140000
#0585a:0014000000000000
#05852:0000000000140000
#06454:18
#06755:0000001300000000
#06852:13
#0685b:0013
#06952:13
#07157:0000000000000000000000000024000000240000002400000024000000240000
#07158:00000000000054646464646464646464
#07159:0000000000000000000000000000002400000024000000240000002400000024
#07258:64646464646400000000000000000000
#07257:0024000000240000002400000000000000000000000000000000000000000000
#07259:0000002400000024000000240000000000000000000000000000000000000000
#08055:53
#0915a:00005454
#09158:0000000000240024
#09458:0014
#09454:00000014
#09558:14
#09552:00006464
#09554:0000000000240024
#09752:14
#0975b:0063
#09758:00000013
#10058:16
#10458:0023
#10555:23
#10552:00330000
#10558:0023
#10655:23
#10652:00330000
#10952:00331400
#1095a:0014
#1095b:23
#10955:23
#10958:00330000
#10852:0023
#10858:0023
#02453:14
#08456:0014
#08656:0014
#0455b:0013
#04256:14
#04156:14
#04356:14
#0093b0:000000000013333333333333
#010380:23
#011380:000000001333333333333333
#0123b0:23
#015350:13
#015320:0000002300000000
#015380:0013
#0153b0:0000000000000023
#017320:13
#017350:00230000
#0173b0:0013
#017380:00000023
#018320:13
#018350:00230000
#0183b0:0013
#018380:00000023
#019350:13
#019320:00230000
#019380:0013
#0193b0:00000023
#020350:13
#020320:00230000
#020380:0013
#0203b0:00000023
#021320:13
#021350:00230000
#0213b0:0013
#021380:00000023
#022320:13
#022350:00230000
#0223b0:0013
#022380:00000023
#023350:13
#023320:00230000
#023380:0013
#0233b0:00000023
#0253b0:13
#025380:00230000
#026380:13
#0263b0:00230000
#0273b0:13
#027380:00230000
#0283b0:00001323
#028380:0000000000530000
#029320:13
#029350:00230000
#030350:13
#030320:00230000
#031320:13
#031350:00230000
#032320:00001323
#032350:0000000000530000
#039320:0000001300000000
#039350:00000023
#0393b1:0000001300000000
#039381:00000023
#040321:000000000014343434343434
#041361:24
#0423a1:000000001434343434343434
#043361:24
#046321:13
#046351:0000002300000000
#0463b1:0013
#046381:0000000000000023
#0483a1:000000000014343434343434
#049361:24
#050321:000000000014343434343434
#051361:24
#0543b1:13
#054381:0000002300000000
#054321:0013
#054351:0000000000000023
#0603b1:13333333003333332300000000000000
#060381:00330000
#060320:00000000000000001333333300333333
#060350:00000033
#061320:23
#0613b1:13333333003333332300000000000000
#061381:00330000
#061320:00000000000000001333333300333333
#061350:00000033
#062320:23
#063340:1858585858585858585858585858585858585858585858585858585858585858
#063330:00580058005800580058005800580058005800580058005800580058005800580058005800580058005800580058005800580058005800580058005800580058
#064340:28
#064320:0000000000000013
#065350:0033000000000000
#065320:0000002300000000
#066320:13
#066350:00230000
#0663b0:0000001300000000
#066380:0000000000230000
#066350:0000000000000013
#067320:0033330000000000
#067350:0000002300000000
#071380:00000000000014545454545454545454
#071370:0000000000000000000000000054000000540000005400000054000000540000
#071390:0000000000000000000000000000005400000054000000540000005400000054
#072380:54545454545424000000000000000000
#072370:0054000000540000005400000000000000000000000000000000000000000000
#072390:0000005400000054000000540000000000000000000000000000000000000000
#074320:000000000000133333003333
#074350:00000033
#075320:23
#0763b0:000000000000133333003333
#076380:00000033
#0773b0:23
#080350:13
#080320:0000003323000000
#0833a0:000000000000000000000014
#0843a0:343434343434000000000000
#084360:0024
#085320:000000000000000000001434
#086320:343434343434000000000000
#086360:0024
#089380:0013
#0893b0:0000000000000023
#090350:13
#090320:00230000
#0913a0:00001434
#091380:0000000000540054
#0923a0:24
#093320:0013
#093350:00000023
#095320:00001434
#095340:0000000000540054
#096320:24
#0973b0:0013
#097380:00000023
#101320:0014
#102360:24
#102380:0013
#1023b0:00000023
#103350:13
#103320:00230000
#103380:0013
#1033b0:00000023
#104350:13
#104320:00230000
#104380:0013
#1043b0:00000023
#105350:13
#105320:00230000
#105380:0013
#1053b0:00000023
#106350:13
#106320:00230000
#106320:0013
#106350:00000023
#106381:0013
#1063b1:00000023
#1073b1:13
#107381:00230000
#107350:13
#107320:00230000
#107380:0013
#1073b0:00000023
#107321:0013
#107351:00000023
#108351:13
#108321:00230000
#1083b0:13
#108380:00230000
#108320:0013
#108350:00000023
#108381:0013
#1083b1:00000023
#1093b1:13
#109381:00230000
#109350:13
#109320:00230000
#110320:14343434343434340000000000000000
#110360:0024
#114350:00160000
#115360:0000000000000000000000000000000000000000000000000000003400000000
#116360:000000000000000000000000000000000000000000000000000000000000000000000000000000000000000000000000000000000000000000000000000000000000000000000000000000000000000000000000000000000000000000000000000000000000000000000000000000000000000000000000000000000000000000000000000000000000000000000000000000000000000000000000000000000000000000000000000000000000000000000000000000000000000000000000000000000000000000000000000000000000000000000000000000000000000000000000000000000000000000000000000000000000000000000000000000000000000000000000000000000000000000000000000000000000000000000000000000000000000000000000000000000000000000000000000000000000000000000000000000000000000000000000000000000000000000000000000000000000000000000000000000000000000000000000000000000000000000000000000000000000000000000000000000000000000000000000000000000000000000000000000000000000000000000000000000000000000000000000000000000000000000000000000000000000000000000000000000000000000000000000000000000000000000000000000000000000000000000000000000000000000000000000000000000000000000000000000000000000000000000000000000000000000000000000000000000000000000000000000000000000000000000000000000000000000000000000000000000000000000000000000000000000000000000000000000000000000000000000000000000000000000000000000000000000000000000000000000000000000000000000000000000000000000000000000000000000000000000000000000000000000000000000000000000000000000000000000000000000000000000000000000000000000000000000000000000000000000000000000000000000000000000000000000000000000000000000000000000000000000000000000000000000000000000000000000000000000000000000000000000000000000000000000000000000000000000000000000000000000000000000000000000000000000000000000000000000000000000000000000000000000000000000000000000000000000000000000000000000000000000000000000000000000000000000000000000000000000000000000000000000000000000000000000000000000000000000000000000000000000000054000000000000000000000000000000000000000000000000000000000000000000000000000000000000000000000000000000000000000000000000000000000000000000000000000000000000000000000000000000000000000000000000000000000000000000000000000000000000000000000000000000000000000000000000000000000000000000000000000000000000000000000000000000000000000000000000000000000000000000000000000000000000000000000000000000000000000000000000000000000000000000000000000000000000000000000000000000000000000000000000000000000000000000000000000000000000000000000000000000000000000000000000000000000000000000000000000000000000000000000000000000000000000000000000000000000000000000000000000000000000000000000000000000000000000000000000000000000000000000000000000000000000000000000000000000000000000000000000000000000000000000000000000000000000000000000000000000000000000000000000000000000000000000000000000000000000000000000000000000000000000000000000000000000000000000000000000000000000000000000000000000000000000000000000000000000000000000000000000000000000000000000000000000000000000000000000000000000000000000000000000000000000000000000000000000000000000000000000000000000000000000000000000000000000000000000000000000000000000000000000000000000000000000000000000000000000000000000000000000000000000000000000000000000000000000000000000000000000000000000000000000000000000000000000000000000000000000000000000000000000000000000000000000000000000000000000000000000000000000000000000000000000000000000000000000000000000000000000000000000000000000000000000000000000000000000000000000000000000000000000000000000000000000000000000000000000000000000000000000000000000000000000000000000000000000000000000000000000000000000000000000000000000000000000000000000000000000000000000000000000000000000000000000000000000000000000000000000000000000000000000000000000000000000000000000000000000000000000000000000000000000000000000000000000000000000000000000000000000000000000
#116350:0036
#117350:000000000000000000000000000000000000000000000000000000000000000000000000000000000000000000000000000000000000000000000000000000000000000000000000000000000000000000000000000000000000000000000000000000000000000000000000000000000000000000000000000000000000000000000000000000000000000000000000000000000000000000000000000000000000000000000000000000000000000000000000000000000000000000000000000000000000000000000000000000000000000000000000000000000000000000000000000000000000000000000000000000000000000000000000000000000000000000000000000000000000000000000000000000000000000000000000000000000000000000000000000000000000000000000000000000000000000000000000000000000000000000000000000000000000000000000000000000000000000000000000000000000000000000000000000000000000000000000000000000000000000000000000000000000000000000000000000000000000000000000000000000000000000000000000000000000000000000000000000000000000000000000000000000000000000000000000000000000000000000000056000000000000000000000000000000000000000000000000000000000000000000000000000000000000000000000000000000000000000000000000000000000000000000000000000000000000000000000000000000000000000000000000000000000000000000000000000000000000000000000000000000000000000000000000000000000000000000000000000000000000000000000000000000000000000000000000000000000000000000000000000000000000000000000000000000000000000000000000000000000000000000000000000000000000000000000000000000000000000000000000000000000000000000000000000000000000000000000000000000000000000000000000000000000000000000000000000000000000000000000000000000000000000000000000000000000000000000000000000000000000000000000000000000000000000000000000000000000000000000000000000000000000000000000000000000000000000000000000000000000000000000000000000000000000000000000000000000000000000000000000000000000000000000000000000000000000000000000000000000000000000000000000000000000000000000000000000000000000000000000000000000000000000000000000000000000000000000000000000000000000000000000000000000000000000000000000000000000000000000000000000000000000000000000000000000000000000000000000000000000000000000000000000000000000000000000000000000000000000000000000000000000000000000000000000000000000000000000000000000000000000000000000000000000000000000000000000000000000000000000000000000000000000000000000000000000000000000000000000000000000000000000000000000000000000000000000000000000000000000000000000000000000000000000000000000000000000000000000000000000000000000000000000000000000000000000000000000000000000000000000000000000000000000000000000000000000000000000000000000000000000000000000000000000000000000000000000000000000000000000000000000000000000000000000000000000000000000000000000000000000000000000000000000000000000000000000000000000000000000000000000000000000000000000000000000000000000000000000000000000000000000000000000000000000000000000000000000000000000000000000000000000000000000000000000000000000000000000000000000000000000000000000000000000000000000000000000000000000000000000000000000000000000000000000000000000000000000000000000000000000000000000000000000000000000000000000000000000000000000000000000000000000000000000000000000000000000000000000000000000000000000000000000000000000000000000000000000000000000000000000000000000000000000000000000000000000000000000000000000000000000000000000000000000000000000000000000000000000000000000000000000000000000000000000000000000000000000000000000000000000000000000000000000000000000000000000000000000000000000000000000000000000000000000000000000000000000000000000000000000000000000000000000000000000000000000000000000000000000000000000000000000000000000000000000000000000000000000000000000000000000000000000000000000000000000000000000000000000000000000000000000000000000000000000000000000000000000000000000000000000000000000000000000000000000000000000000000000000000000000000
#117340:00380000
#118340:000000000000000000000000000000000000000000000000000000000000000000000000000000000000000000000000000000000000000000000000000000000000000000000000000000000000000000000000000000000000000000000000000000000000000000000000000000000000000000000000000000000000000000000000000000000000000000000000000000000000000000000000000000000000000000000000000000000000000000000000000000000000000000000000000000000000000000000000000000000000000000000000000000000000000000000000000000000000000000000058000000000000000000000000000000000000000000000000000000000000000000000000000000000000000000000000000000000000000000000000000000000000000000000000000000000000000000000000000000000000000000000000000000000000000000000000000000000000000000000000000000000000000000000000000000000000000000000000000000000000000000000000000000000000000000000000000000000000000000000000000000000000000000000000000000000000000000000000000000000000000000000000000000000000000000000000000000000000000000000000000000000000000000000000000000000000000000000000000000000000000000000000000000000000000000000000000000000000000000000000000000000000000000000000000000000000000000000000000000000000000000000000000000000000000000000000000000000000000000000000000000000000000000000000000000000000000000000000000000000000000000000000000000000000000000000000000000000000000000000000000000000000000000000000000000000000000000000000000000000000000000000000000000000000000000000000000000000000000000000000000000000000000000000000000000000000000000000000000000000000000000000000000000000000000000000000000000000000000000000000000000000000000000000000000000000000000000000000000000000000000000000000000000000000000000000000000000000000000000000000000000000000000000000000000000000000000000000000000000000000000000000000000000000000000000000000000000000000000000000000000000000000000000000000000000000000000000000000000000000000000000000000000000000000000000000000000000000000000000000000000000000000000000000000000000000000000000000000000000000000000000000000000000000000000000000000000000000000000000000000000000000000000000000000000000000000000000000000000000000000000000000000000000000000000000000000000000000000000000000000000000000000000000000000000000000000000000000000000000000000000000000000000000000000000000000000000000000000000000000000000000000000000000000000000000000000000000000000000000000000000000000000000000000000000000000000000000000000000000000000000000000000000000000000000000000000000000000000000000000000000000000000000000000000000000000000000000000000000000000000000000000000000000000000000000000000000000000000000000000000000000000000000000000000000000000000000000000000000000000000000000000000000000000000000000000000000000000000000000000000000000000000000000000000000000000000000000000000000000000000000000000000000000000000000000000000000000000000000000000000000000000000000000000000000000000000000000000000000000000000000000000000000000000000000000000000000000000000000000000000000000000000000000000000000000000000000000000000000000000000000000000000000000000000000000000000000000000000000000000000000000000000000000000000000000000000000000000000000000000000000000000000000000000000000000000000000000000000000000000000000000000000000000000000000000000000000000000000000000000000000000000000000000000000000000000000000000000000000000000000000000000000000000000000000000000000000000000000000000000000000000000000000000000000000000000000000000000000000000000000000000000000000000000000000000000000000000000000000000000000000000000000000000000000000000000000000000000000000000000000000000000000000000000000000000000000000000000000000000000000000000000000000000000000000000000000000000000000000000000000000000000000000000000000000000000000000000000000000000000000000000000000000000000000000000000000000000000000000000000000000000000000000000000000000000000000000000000000000000000000
#118320:003c000000000000
#121320:2c
#121380:000000000000000000000000000000000000000000000000000000000000000000000000000000000000000000000000000000000000000000000000000000000000000000000000001600000000000000000000000000000000000000000000000000000000000000000000000000000000000000000000000000000000000000000000000000000000000000000000000000000000000000000000000000000000000000000000000000000000000000000000000000000000000000000000
#124350:00000000000036362600000000000000
