This file was generated by Ched 2.7.0.0.
#TITLE ""
#ARTIST ""
#DESIGNER ""
#DIFFICULTY 0
#PLAYLEVEL
#SONGID ""
#WAVE ""
#WAVEOFFSET 0
#JACKET ""
#REQUEST "ticks_per_beat 480"
#00002: 4
#BPM01: 202
#00008: 01
#TIL00: ""
#HISPEED 00
#MEASUREHS 00
#0081b:00002313
#00812:24262813
#00817:23
#00819:00230000
#00916:140000000000000000000013
#00913:000000000013000000000000
#00918:0013
#00914:000000000000001300000000
#00919:000013
#00915:00000013
#0091a:000000000013
#0091b:13130000
#00912:00130000
#01012:000000001318230000130000
#0101b:13000013
#01019:0000000000130013
#01212:13000013
#01219:0000000000000013
#0121b:000000001300230000130000
#01216:000000000018000000000000
#01215:00000000000000000013001300000000
#01218:0000000000130000
#01316:23000013
#01312:0013130023000013
#0131b:2300001300131300
#01317:00132300
#0141b:23002313
#01415:00000013000016000000160000001600
#01418:0013230000000000
#01412:23002313
#0161b:23000013000000000000000000000000
#01617:0000001300000000
#01616:00000013000000000000000000000000
#01612:2300001300000000
#01615:00000000000000000013001300000013
#01618:0000000023130013
#0191b:13
#01917:14
#01912:0013
#01915:0014
#0241a:00000014000014000000000000000000
#02412:25000014000014001300000000000000
#0241b:0013
#02418:0000000000131313
#02415:00000000000000000000001300000013
#02416:00001400001400000000000000000000
#02419:25
#0251b:1300001300000013
#02518:00001313
#02515:0000000000130000
#02512:0013130000000000
#02517:00000013000000000000000000000000
#0281b:13000000000013000013001300000000
#02815:0013001300130013
#02818:00000013000000000000000000000013
#02812:24242424
#0291b:1300001313000013
#02912:1300130000131300
#02915:00001300000000160000001600000000
#02916:0000000000000013
#02918:00000013000000000000000000000000
#02910:41
#03212:130000132c001400
#03215:00001300130000000000001300000000
#03218:00000026000000000000130000000000
#03216:0000000000000014
#0321a:2400002400002400
#0331a:2412
#03314:000014
#03312:00121212
#0331c:00000000120000000000000000000012
#03318:00000012
#03412:0012000000000000
#03414:00120000
#03416:0000001200001200
#0341c:0012
#0341a:00000012
#03418:0012
#03518:1200000000000013
#03516:00120000
#03514:12
#03512:00120000
#03515:00000000000000000000000000130013
#0351b:00000023
#03718:0000000000130013
#03715:00000013
#0371b:1313
#03712:00000013000000001300000000000000
#03717:00000013000000000000000000000000
#03716:13
#03918:0000001400000000
#0391c:00000000000000000012000000000000
#03914:0000001400000000
#03912:23000000000000000012000000000000
#0391b:23
#05612:0014001400140014
#0561a:0014001400140014
#05616:14141414
#0651b:0013000000001300
#0651a:0000001400000000
#06516:0000000000140000
#06514:00000014
#06512:1300000000000014
#06518:00000013000000001400000000000000
#06515:00130000
#06519:0000000000000013
#06612:1300000000130000
#06616:0000001300000000
#0661b:0000001300000000
#06617:1300000000130000
#06618:00001313
#06712:0013000023001300
#06714:13130000
#06716:0000001300000000
#06718:00000000000000000013001300000013
#06715:0000000000130013
#0831a:00122400
#08314:00120000
#08316:000000000000000000000000240000000014000000000000
#08312:000000000000000000000028
#0831f:0021
#0431b:00002313
#04315:00000000000000000013001300001700
#04314:000000000018000000000000
#04317:001300
#04312:13
#04316:001300000000
#04318:0000000000130000
#04415:0013000000000000
#04417:23130000
#04412:23130000
#04414:0000001800000018
#04418:0000000000130000
#04416:00002313
#0441b:00002313
#04514:0018001800180000
#04512:24002413
#04515:0000000000000016
#0451b:00000013
#0451a:00240000
#0461b:1300001300000013
#04612:1300001300000013
#04618:0013130013000000
#04615:00000013000000001300000000000000
#04619:0000000000130000
#0461a:00000013
#04614:0000000000130000
#04613:00000013
#0731a:00000012
#07314:00000012
#0741a:120000120012000000000000
#07418:000012220000
#07416:000000000000000000120012
#07414:220000000012
#0741f:11
#07516:000000120000000012000000
#07512:001200
#07518:000000000012000000001200
#0751a:000000000000001200000012
#07514:2222
#0751c:00000022
#07818:220000121212220000000000
#07816:000000000000000000121212
#0791c:00120000
#07912:001200
#0791b:000000000012000000000000
#0791a:000000000000001200000000
#07914:000012
#07915:000000000012
#07918:000000000000000000000012
#07913:0022
#07919:00000022
#07916:22
#08017:000000121212220000000000
#08012:00000012
#0801c:00000012
#08016:22
#11212:140000140000000000280018
#11216:000000140000000000140000280014001800000014000000
#1121a:14140000
#07114:0000000000000000000000000014000000140000001400000014000000140000
#07113:00000000000024141414141414141414
#07112:2300000000000000000000000000001400000014000000140000001400000014
#07118:0000000000000000000000000014000000140000001400000014000000140000
#07119:00000000000024141414141414141414
#0711a:0000000000000000000000000000001400000014000000140000001400000014
#0711b:23
#08712:23162316
#08715:0013001600160016
#0871b:00000013
#08718:00130013000000002600000000000000
#08815:0016001600000000
#08812:23162326
#0881b:00130023
#08816:0000000000140014
#08818:2626
#0891b:0000130000000013
#08916:0000130000000013
#08912:2313
#08915:00001600000016000000161616000000
#08917:0013
#08918:26
#09018:0000001300000000
#09015:00000000000000132600000000000000
#09012:14001400140000000000000000130013
#0901a:1414140000000000
#0901b:00000000000000000000001300000000
#09016:00000000000000000000002400002400
#09112:00000000001300001400000014000000
#0911b:0013000013001300
#09117:0000000000130013
#09116:24000024000024000000000000000000
#09212:14142400
#09214:0000000000140000
#09216:00000014
#09218:0000000000000014
#0921b:13130000
#09217:0013001300000000
#0931a:14
#0931b:0000130000131300
#09319:0000001300000000
#09312:24001313
#09316:0000130000130013
#09317:0013
#09415:00001300001300130000160000001600
#09418:0000131326000000
#09417:13
#09412:00002326
#0941b:00000023
#09519:0000001300000000
#09514:0000001300000000
#09512:23001313
#09516:0000230000130013
#0951a:00001414
#09518:26
#0951b:00230000
#09714:0000001300000000
#0971b:0013
#09712:1413
#09719:0000001300000000
#09716:00140000
#09718:0000000000130000
#09715:0000000000130000
#0971a:24
#09818:1300130026000026
#0981b:00001300000013000000002300000000
#09815:00130000001300000000000000000016
#09812:00000013000000132300002600000000
#1021b:00130000
#10215:00000000001300000000000000000000
#10218:0000001300000000
#10212:23000000000000130000000000000000
#10216:000000000000140000000013
#11316:281418001400000000000000
#11312:0000002800182c0000000000
#11319:0000000000001414
#11313:0000000000001414
#11419:14
#11413:14
#11414:0014000000000000
#11418:00000014000000000000000000000000
#11412:002c0000
#1011b:0000001313000000
#10112:13000023
#10114:00000013000000000000000000000000
#10119:00000013000000000000000000000000
#10116:00000000000000130000000000000000
#10117:00000013
#10312:18000000000000000000000000001318
#10313:001300000000000000000000
#10314:001800000000
#10315:00130000
#10316:001800
#10317:000000000013000000000000
#1031b:0013
#10412:13001313
#1041b:00130000
#10418:0000001300000000
#10415:00000000000000130000000000000000
#10618:13000000130000130000000000000000
#10615:00130000000013000000130016001300
#1061b:0013000013000000
#10612:00000013000000002300000013000000
#10610:0041
#1071b:13132300
#10712:13002313
#10718:0013001300000000
#10715:0000160000131613
#1081b:13132300
#10812:13000000231c0000
#10818:0013001300000000
#10815:00160000
#10819:00000013
#10814:0000000000001318
#10914:2318000000000000
#1091b:00132300
#10912:0000131c23000000
#10919:23
#11017:00230000000000000000130023000000
#11012:23000000000000000000001300001300
#1101b:0000000000000013
#11013:0023000000000000
#11018:00000023000000000000000000000000
#11014:00230000
#11019:00000000002300000000000000000000
#11015:0000002300000000
#1101a:00000000000000230000000000000000
#11016:0023
#11116:1323000000001323
#1111b:00130000130000000000130000130000
#11117:0000001323000000
#11112:00000000130000130000130000000000
#01116:141300
#0111a:000000000013000000000000
#01115:0013
#01119:000000000000001300000000
#01114:000013
#01118:00000013
#01113:000000000013
#01117:000000000000000000000013
#01112:13
#0111b:00130000
#01512:13130000
#0151b:13130000
#01515:0000001313000000
#01518:00001300000000130000000000000000
#01514:0000000000131313
#01519:0000000000131313
#01712:13
#0171b:0033
#01717:0033
#01710:41
#0181b:13
#01812:2333
#01816:00233300
#0231b:13
#02317:14
#02312:0013
#02315:0014
#02612:1300001300000013
#02615:00001313
#02618:0000000000130000
#0261b:1313130000000000
#02616:00000013000000000000000000000000
#0271b:1300001300000013
#02712:1313130000000000
#02718:00001313
#02715:0000000000130000
#02717:00000013000000000000000000000000
#03012:1300001313000013
#0301b:1300130000131300
#03015:00000013000000160000001600000000
#03017:0000000000000013
#03018:0013000000000000
#0311b:1300001313001300
#03112:13000000130000000013001300000000
#03118:00000013000000000000000000000013
#03115:00001300000000160000160000001300
#03812:13130000
#03816:0014002400000000
#03815:00000000000000000014001400140014
#03817:0000000024141424
#0381b:23130000
#04013:000000000016000000000000
#04018:0013
#04014:000000000000001600000000
#04019:000013
#04015:00000016
#0401a:000000000013
#04016:000000000000000000000016
#0401b:13130000
#04012:26160000
#04114:000000000018000000000000
#0411b:13000013
#04116:001300
#04112:00002313
#04115:0000000000130013
#04117:001300000000
#04212:13
#04217:000000000016000000000000
#04215:00001316
#04216:240000001300001600000000
#04214:000000000000000013000016
#04213:000000000013
#04218:00160000
#04718:00000014000000000000001400000000
#04716:00000000000014140000000000001414
#04714:00000014000000000000001400000000
#0471a:2424
#04712:2424
#04817:000000000016000000000000
#04815:00001316
#04816:000000000000001600000000
#04814:000000000000000013000016
#04813:000000000013
#04812:13130000
#04818:26160000
#04810:41
#04914:000000000018000000000000
#04912:13000013
#04917:001300
#0491b:00002313
#04918:0000000000130013
#04916:001300000000
#0501b:13
#05013:000000000016000000000000
#05018:0013
#05014:000000000000001600000000
#05019:000013
#05015:00000016
#0501a:000000000013
#05016:240000000000000000000016
#05017:001300
#05012:00160000
#0531b:00000013
#05315:0000000000000016
#05312:00240013
#05314:0018001800180000
#0531a:2424
#05412:1300001300000013
#0541b:1300001300000013
#05415:0013130013000000
#05418:00000013000000001300000000000000
#05414:0000000000130000
#05413:00000013
#05419:0000000000130000
#0541a:00000013
#05514:00000014000000000000001400000000
#05518:00000014000000000000001400000000
#05512:2400000024000014
#0551a:24000000000000002400000000000014
#05516:0000001400000000
#05716:1414141414000000
#05712:0014000000160000
#0571a:0000001400000000
#05718:00000016
#05912:00000000140000140000000014001400
#0591a:2400000000000014
#05916:0000001414000000
#06915:0000000000130013
#06918:00000013
#0691b:00000013000000001300000000000000
#06912:1313
#06916:00000013000000000000000000000000
#06917:13
#06418:0000001313001300
#06415:00000000000000130000000000001300
#06412:2800000000130000
#0641b:0000000000130000
#06410:41
#07213:14141414141400000000000000000000
#07214:0014000000140000001400000000000000000000000000000000000000000000
#07212:0000001400000014000000140000000000000000000000000000000000000000
#07219:14141414141400000000000000000000
#07218:0014000000140000001400000000000000000000000000000000000000000000
#0721a:0000001400000014000000140000000000000000000000000000000000000000
#0701b:13130000
#07016:0014002400000000
#07017:00000000000000000014001400140014
#07015:0000000024141424
#07012:23130000
#07614:000000120012000000000000
#07616:220012220000
#07618:000000000000000000120012
#0761a:000000000012
#07718:000000120000000012000000
#0771c:001200
#07716:000000000012000000001200
#07714:000000000000001200000012
#0771a:2222
#07712:00000022
#05114:000000000000000000001800000000000000000000170000
#05116:001300
#0511b:13
#05118:00000000000000000013001300000000
#05117:001300000000
#05115:0000000000130000
#05112:00002313
#06219:0013000000130000
#06214:0000001300000013
#08514:0018001800000000
#08516:000000230000240014002800
#0851b:00230000
#08512:2324
#08515:000000000000000000000024
#0961a:14142400
#09618:0000000000140000
#09616:0013001300001400
#09614:0000000000000014
#09612:13130000
#09915:00000013000000000000000000000016
#09918:00001300130000000000002600000000
#09912:26000000000000002600002300002600
#0991b:0023
#10015:0013130000000000
#10018:26000013000000000000000000000000
#1001b:0013
#10016:0013
#10019:00000000000000000000001300000000
#10014:00000000000000000000001300000000
#10012:0000000000000013
#10017:00000000000000000000000000000013
#12412:00000000000000160000000000000000
#12418:0000001616000000
#11812:0019161316191613
#11818:00161616
#11815:0000001900000019
#1181b:0023000000130000
#11918:16161616
#1191b:0013000000130000
#11915:0000001900000019
#11912:1619161316191613
#12018:16161616
#1201b:0013000000130000
#12015:0000001900000019
#12012:1619161316191613
#0361b:13000000000013000000001300000000
#03612:00000013000000001300000000001300
#03617:0013
#06812:13000000000013000000001300000000
#0681b:13000013000000001300000000001300
#06816:0013
#0581a:0014001400140014
#05812:0014001400140014
#05816:14141414
#02112:13
#0211b:0033
#02117:0033
#0221b:13
#02212:2333
#02216:00233300
#05218:0013000000000000
#05216:23130000
#0521b:23130000
#05214:0000001800000018
#05215:0000000000130000
#05217:00002313
#05212:00002313
#0811a:24
#08112:24
#08215:23
#08214:002300000000
#08213:002300
#08212:0026
#08218:2326
#08219:002300000000
#0821a:002300
#10512:23
#10514:00000023000000000000000000000000
#10516:0000002323002400
#1051b:0000002323000000
#10517:23
#10519:00000023000000000000000000000000
#12118:000000000000000000000000000000000000000000000000000000000000000000000000000000000000000000000000000000000000260000000000000000000000000000000000002600000000000000000000000000000000000000000000000000000000000000000000000000000000000000000000000000000000000000000000000000000000000000000000000000000000000000000000000000000000000000000000000000000000000000000000000000000000000000000000
#12112:000000000000000000000000000000000000000000000000000000000000000000000000000000000000000000000000000000000000260000000000000000000000000000000000002600000000000000000000000000000000000000000000000000000000000000000000000000000000000000000000000000000000000000000000000000000000000000000000000000000000000000000000000000000000000000000000000000000000000000000000000000000000000000000000
#08418:002400000000
#08415:000000000028000000000000
#08417:24
#08413:002800000000000000000000
#08414:00280000
#08419:002400
#08412:000000000000000000002328
#0841a:0024
#08410:0041
#02017:24
#02015:0024
#0201b:23
#02012:0023
#06312:24242424
#06314:0024002400240024
#06318:00240000002400000024000000240000
#0631a:00000024000000240000002400000024
#08614:002428000000000000000000
#08613:000000242800000000000000
#08615:28
#08612:000000000024000000002328
#0861a:0024
#11515:0000000000000000000000000000000000000000000000000000002900000000
#11618:0026
#1171b:00230000
#0195b:23
#01957:24000043
#01952:0023
#01955:0024
#0195a:00000044
#0105b:53
#0335a:14
#0335c:00000000000000000000000000000022
#03358:00000052
#03958:0000005400001400
#0395c:00000000000000000022000000000000
#03954:0000006400001400
#03952:00000000000000000022000000000000
#05652:0034003400000000
#0565a:0000000000440044
#06652:6300000000230000
#06656:0000006300000000
#06657:63
#06756:0000001300000000
#00956:14
#07154:0000000000000000000000000024000000240000002400000024000000240000
#07153:00000000000064545454545454545454
#07152:0000000000000000000000000000002400000024000000240000002400000024
#07158:0000000000000000000000000024000000240000002400000024000000240000
#07159:00000000000054646464646464646464
#0715a:0000000000000000000000000000002400000024000000240000002400000024
#08356:000000000000000000000000140000000024000000000000
#0835a:00125400
#08354:00120000
#08958:16
#08758:0016
#08752:13
#08852:13000016
#08858:0016
#0935b:00000013
#0935a:44
#09352:34005353
#09356:0000000000230023
#09452:0013
#0945b:00000013
#09552:13006363
#09556:0000000000230023
#0955a:00004444
#0975b:00005343
#09752:34005333
#0975a:44
#09758:0000000000230000
#09755:0000000000230000
#1015b:0053
#10157:00000023
#10256:0054
#1035b:0053
#10452:53
#10952:0013
#1095b:0013
#11452:006c0000
#12158:000000000000000000000000000000000000000000000000000000000000000000000000000000000000000000000000000000000000160000000000000000000000000000000000005600000000000000000000000000000000000000000000000000000000000000000000000000000000000000000000000000000000000000000000000000000000000000000000000000000000000000000000000000000000000000000000000000000000000000000000000000000000000000000000
#12152:000000000000000000000000000000000000000000000000000000000000000000000000000000000000000000000000000000000000160000000000000000000000000000000000001600000000000000000000000000000000000000000000000000000000000000000000000000000000000000000000000000000000000000000000000000000000000000000000000000000000000000000000000000000000000000000000000000000000000000000000000000000000000000000000
#08552:1364
#08556:000000142400
#0845a:0054
#00852:34363800
#01156:14
#01252:63
#0135b:13
#01352:0013
#02057:24000043
#0205a:00000044
#0205b:23
#02055:0024
#02052:0023
#0235b:23
#02357:24000043
#02352:0023
#02355:0024
#0235a:00000044
#02552:00130000
#0265b:00130000
#02952:00130000
#0305b:00130000
#03152:00130000
#03252:00000054
#03256:0000000000000024
#0415b:53
#04157:002300000000
#04052:16
#04352:63
#04356:002300000000
#04457:13
#04456:0013
#04256:14
#04952:63
#04956:002300000000
#04858:16
#05056:14
#06452:18
#05752:0034000000360000
#0575a:0000004400000000
#05758:00000046
#07253:54545454545400000000000000000000
#07254:0024000000240000002400000000000000000000000000000000000000000000
#07252:0000002400000024000000240000000000000000000000000000000000000000
#07259:64646464646400000000000000000000
#07258:0024000000240000002400000000000000000000000000000000000000000000
#0725a:0000002400000024000000240000000000000000000000000000000000000000
#08258:0046
#08252:0036
#02752:00130000
#0515b:53
#05157:002300000000
#09055:0016
#09156:14
#0915b:00005353
#09157:0000000000230023
#09152:00003434
#0925b:53530000
#09257:0023002300000000
#09252:34341400
#09256:00000044
#0965a:44441400
#09656:0023002300003400
#09652:63630000
#09858:0000000046000046
#09852:00000000000000000000003600000000
#09952:3600000036000036
#09958:00000000000000000000004600000000
#10058:46
#10556:0053
#11057:00000013
#11156:0013000000000013
#11157:0013
#11352:001c
#1185b:0023000000230000
#11858:00565656
#11855:0000002900000029
#11852:0029562356295623
#11958:56565656
#1195b:0023000000230000
#11955:0000002900000029
#11952:5629562356295623
#12058:56565656
#1205b:0023000000230000
#12055:0000002900000029
#12052:5629562356295623
#0365b:53000000000000000000006300000000
#03652:00000053000000006300000000000000
#03756:53
#0375b:53
#03757:00000053000000000000000000000000
#03752:00000053000000000000000000000000
#06852:63000000000000000000005300000000
#0685b:00000063000000005300000000000000
#06952:63
#06956:00000063000000000000000000000000
#06957:63
#0695b:00000063000000000000000000000000
#0585a:0044004400000000
#05852:0000000000340034
#0595a:54000014
#05956:0054
#05952:00000014
#04552:3434
#0455a:00440000
#05256:13
#05257:0013
#0535a:4444
#05352:00340000
#0865a:0054
#0103b0:13
#010370:002300
#012320:13
#012360:002300
#0173b0:1300000000000000000000000000005333000000000000000000000000000000
#017360:0000000000000000000000000000000000530000000000002300000000000000
#017371:0000000000000000130000000000005333000000000000000000000000000000
#017321:0000000000000000000000000000000000530000000000002300000000000000
#018321:1300000000000000000000000000005333000000000000000000000000000000
#018371:0000000000000000000000000000000000530000000000002300000000000000
#018360:0000000000000000130000000000005333000000000000000000000000000000
#0183b0:0000000000000000000000000000000000530000000000002300000000000000
#0193b0:13
#019360:00230000
#019371:14
#019321:00240000
#019321:0013
#019371:00000023
#019350:0014
#0193a0:00000024
#0203b0:13
#020360:00230000
#020371:14
#020321:00240000
#020321:0013
#020371:00000023
#020350:0014
#0203a0:00000024
#0213b0:1300000000000000000000000000005333000000000000000000000000000000
#021360:0000000000000000000000000000000000530000000000002300000000000000
#021371:0000000000000000130000000000005333000000000000000000000000000000
#021321:0000000000000000000000000000000000530000000000002300000000000000
#022321:1300000000000000000000000000005333000000000000000000000000000000
#022371:0000000000000000000000000000000000530000000000002300000000000000
#022360:0000000000000000130000000000005333000000000000000000000000000000
#0223b0:0000000000000000000000000000000000530000000000002300000000000000
#0233b0:13
#023360:00230000
#023371:14
#023321:00240000
#023321:0013
#023371:00000023
#023350:0014
#0233a0:00000024
#032320:00000014
#032360:0000000000000054
#033320:24
#033380:00000012
#0333c0:00000000000000000000000000000052
#034380:0022000000000000
#0363b0:13
#036370:00000023000000000000000000000000
#036321:00000013000000000000000000000000
#036361:0000002300000000
#036321:0013
#036361:00000000000000000000002300000000
#0363b0:00000000000000000000001300000000
#036370:0000000000000023
#0373b0:1300002300000000
#037370:00000033000000000000000000000000
#037361:1300002300000000
#037321:00000033000000000000000000000000
#039381:0000001400002400
#0393c1:00000000000000000052000000000000
#039340:0000001400002400
#039320:00000000000000000052000000000000
#0413b0:132300
#041370:005300000000
#043320:132300
#043360:005300000000
#049320:132300
#049360:005300000000
#0513b0:132300
#051370:005300000000
#0593a0:14
#059360:00240000
#059360:0014
#0593a0:00000024
#060320:13
#060340:00330000000000000000000000000000
#060360:0023000000000000
#0603b1:0013000000000000
#060391:00000033000000000000000000000000
#060371:00230000
#060320:00132300
#060340:00000000003300330000000000000000
#060360:0000003300000000
#060371:0013
#060391:00000000000000000033000000000000
#0603b1:0000000000230000
#060360:0000000000130000
#060340:00000000000000000000003300000000
#060320:00000023
#0603b1:00000013
#060391:00000000000000000000000000330033
#060371:0000000000000033
#0613b1:23
#061320:13
#061340:00330000000000000000000000000000
#061360:0023000000000000
#0613b1:0013000000000000
#061391:00000033000000000000000000000000
#061371:00230000
#061320:00132300
#061340:00000000003300330000000000000000
#061360:0000003300000000
#061371:0013
#061391:00000000000000000033000000000000
#0613b1:0000000000230000
#061360:0000000000130000
#061340:00000000000000000000003300000000
#061320:00000023
#0613b1:00000013
#061391:00000000000000000000000000330033
#061371:0000000000000033
#0623b1:23
#062320:13
#062330:00330000000000000000000000000000
#062340:0033000000000000
#062350:00000033000000000000000000000000
#062360:00230000
#0623b1:00130000
#0623a1:00000000003300000000000000000000
#062391:0000003300000000
#062381:00000000000000330000000000000000
#062371:0023
#062320:0013
#062330:00000000000000000033000000000000
#062340:0000000000330000
#062350:00000000000000000000003300000000
#062360:00000023
#0623b1:00000013
#0623a1:00000000000000000000000000330000
#062391:0000000000000033
#062381:00000000000000000000000000000033
#063371:23
#063320:14240000000000000000000000000000
#063381:00142400000000000000000000000000
#063340:00001424000000000000000000000000
#0633a1:00000014240000000000000000000000
#063320:00000000142400000000000000000000
#063381:00000000001424000000000000000000
#063340:00000000000014240000000000000000
#0633a1:00000000000000142400000000000000
#063320:00000000000000001424000000000000
#063381:00000000000000000014240000000000
#063340:00000000000000000000142400000000
#0633a1:00000000000000000000001424000000
#063320:00000000000000000000000014240000
#063381:00000000000000000000000000142400
#063340:00000000000000000000000000001424
#0633a1:00000000000000000000000000000014
#0643a1:24
#066321:13
#066361:00230000
#066370:13
#0663b0:00230000
#066360:0000001300000023
#066320:0000000000330000
#0663b1:0000000000000013
#067391:33330000
#067371:0033000000000000
#0673b1:0000002300000000
#068321:13
#068361:00000023000000000000000000000000
#0683b0:00000013000000000000000000000000
#068370:0000002300000000
#0683b0:0013
#068370:00000000000000000000002300000000
#068321:00000000000000000000001300000000
#068361:0000000000000023
#069321:1300002300000000
#069361:00000033000000000000000000000000
#069370:1300002300000000
#0693b0:00000033000000000000000000000000
#071330:00000000000014545454545454545454
#071340:0000000000000000000000000054000000540000005400000054000000540000
#071320:0000000000000000000000000000005400000054000000540000005400000054
#072330:54545454545424000000000000000000
#072340:0054000000540000005400000000000000000000000000000000000000000000
#072320:0000005400000054000000540000000000000000000000000000000000000000
#071391:00000000000014545454545454545454
#071381:0000000000000000000000000054000000540000005400000054000000540000
#0713a1:0000000000000000000000000000005400000054000000540000005400000054
#072391:54545454545424000000000000000000
#072381:0054000000540000005400000000000000000000000000000000000000000000
#0723a1:0000005400000054000000540000000000000000000000000000000000000000
#0833a1:000000000000140000000024
#083361:000000000000000000000000000000000054000000000000
#0843a1:0014
#084361:000000000024
#085321:000000140024
#085361:000054
#0863a1:0014
#086361:000000000024
#0913b1:00001333
#091371:0000000000530053
#0923b1:33332300
#092371:0053005300000000
#093321:00001333
#093361:0000000000530053
#094321:23
#095321:00001333
#095361:0000000000530053
#096321:33332300
#096361:0053005300000000
#097321:00001323
#097351:0000000000530000
#0973b0:00001323
#097380:0000000000530000
#1013b0:0013
#101370:00000053
#1023b0:23
#102360:0014
#1023a0:000000000000000000000024
#1033b0:0013
#103370:0000000000000023
#104320:13
#104370:00230000
#1043b0:0013
#104370:00000023
#105360:0013
#106320:23
#114320:001c0000
#115320:0000000000000000000000000000000000000000000000000000003300000000
#116320:000000000000000000000000000000000000000000000000000000000000000000000000000000000000000000000000000000000000000000000000000000000000000000000000000000000000000000000000000000000000000000000000000000000000000000000000000000000000000000000000000000000000000000000000000000000000000000000000000000000000000000000000000000000000000000000000000000000000000000000000000000000000000000000000000000000000000000000000000000000000000000000000000000000000000000000000000000000000000000000000000000000000000000000000000000000000000000000000000000000000000000000000000000000000000000000000000000000000000000000000000000000000000000000000000000000000000000000000000000000000000000000000000000000000000000000000000000000000000000000000000000000000000000000000000000000000000000000000000000000000000000000000000000000000000000000000000000000000000000000000000000000000000000000000000000000000000000000000000000000000000000000000000000000000000000000000000000000000000000000000000000000000000000000000000000000000000000000000000000000000000000000000000000000000000000000000000000000000000000000000000000000000000000000000000000000000000000000000000000000000000000000000000000000000000000000000000000000000000000000000000000000000000000000000000000000000000000000000000000000000000000000000000000000000000000000000000000000000000000000000000000000000000000000000000000000000000000000000000000000000000000000000000000000000000000000000000000000000000000000000000000000000000000000000000000000000000000000000000000000000000000000000000000000000000000000000000000000000000000000000000000000000000000000000000000000000000000000000000000000000000000000000000000000000000000000000000000000000000000000000000000000000000000000000000000000000000000000000000000000000000000000000000000000000000000000000000000000000000000000000000000000000000000000000000000000000000000000000000000000000000000000000000000000000000000000000000000000000000000000053360000000000000000000000000000000000000000000000000000000000000000000000000000000000000000000000000000000000000000000000000000000000000000000000000000000000000000000000000000000000000000000000000000000000000000000000000000000000000000000000000000000000000000000000000000000000000000000000000000000000000000000000000000000000000000000000000000000000000000000000000000000000000000000000000000000000000000000000000000000000000000000000000000000000000000000000000000000000000000000000000000000000000000000000000000000000000000000000000000000000000000000000000000000000000000000000000000000000000000000000000000000000000000000000000000000000000000000000000000000000000000000000000000000000000000000000000000000000000000000000000000000000000000000000000000000000000000000000000000000000000000000000000000000000000000000000000000000000000000000000000000000000000000000000000000000000000000000000000000000000000000000000000000000000000000000000000000000000000000000000000000000000000000000000000000000000000000000000000000000000000000000000000000000000000000000000000000000000000000000000000000000000000000000000000000000000000000000000000000000000000000000000000000000000000000000000000000000000000000000000000000000000000000000000000000000000000000000000000000000000000000000000000000000000000000000000000000000000000000000000000000000000000000000000000000000000000000000000000000000000000000000000000000000000000000000000000000000000000000000000000000000000000000000000000000000000000000000000000000000000000000000000000000000000000000000000000000000000000000000000000000000000000000000000000000000000000000000000000000000000000000000000000000000000000000000000000000000000000000000000000000000000000000000000000000000000000000000000000000000000000000000000000000000000000000000000000000000000000000000000000000000000000000000000000000000000000000000000000000000000000000000000000000000000000000000000000000000000000000000000
#117320:000000000000000000000000000000000000000000000000000000000000000000000000000000000000000000000000000000000000000000000000000000000000000000000000000000000000000000000000000000000000000000000000000000000000000000000000000000000000000000000000000000000000000000000000000000000000000000000000000000000000000000000000000000000000000000000000000000000000000000000000000000000000000000000000000000000000000000000000000000000000000000000000000000000000000000000000000000000000000000000000000000000000000000000000000000000000000000000000000000000000000000000000000000000000000000000000000000000000000000000000000000000000000000000000000000000000000000000000000000000000000000000000000000000000000000000000000000000000000000000000000000000000000000000000000000000000000000000000000000000000000000000000000000000000000000000000000000000000000000000000000000000000000000000000000000000000000000000000000000000000000000000000000000000000000000000000000000000000000000000056390000000000000000000000000000000000000000000000000000000000000000000000000000000000000000000000000000000000000000000000000000000000000000000000000000000000000000000000000000000000000000000000000000000000000000000000000000000000000000000000000000000000000000000000000000000000000000000000000000000000000000000000000000000000000000000000000000000000000000000000000000000000000000000000000000000000000000000000000000000000000000000000000000000000000000000000000000000000000000000000000000000000000000000000000000000000000000000000000000000000000000000000000000000000000000000000000000000000000000000000000000000000000000000000000000000000000000000000000000000000000000000000000000000000000000000000000000000000000000000000000000000000000000000000000000000000000000000000000000000000000000000000000000000000000000000000000000000000000000000000000000000000000000000000000000000000000000000000000000000000000000000000000000000000000000000000000000000000000000000000000000000000000000000000000000000000000000000000000000000000000000000000000000000000000000000000000000000000000000000000000000000000000000000000000000000000000000000000000000000000000000000000000000000000000000000000000000000000000000000000000000000000000000000000000000000000000000000000000000000000000000000000000000000000000000000000000000000000000000000000000000000000000000000000000000000000000000000000000000000000000000000000000000000000000000000000000000000000000000000000000000000000000000000000000000000000000000000000000000000000000000000000000000000000000000000000000000000000000000000000000000000000000000000000000000000000000000000000000000000000000000000000000000000000000000000000000000000000000000000000000000000000000000000000000000000000000000000000000000000000000000000000000000000000000000000000000000000000000000000000000000000000000000000000000000000000000000000000000000000000000000000000000000000000000000000000000000000000000000000000000000000000000000000000000000000000000000000000000000000000000000000000000000000000000000000000000000000000000000000000000000000000000000000000000000000000000000000000000000000000000000000000000000000000000000000000000000000000000000000000000000000000000000000000000000000000000000000000000000000000000000000000000000000000000000000000000000000000000000000000000000000000000000000000000000000000000000000000000000000000000000000000000000000000000000000000000000000000000000000000000000000000000000000000000000000000000000000000000000000000000000000000000000000000000000000000000000000000000000000000000000000000000000000000000000000000000000000000000000000000000000000000000000000000000000000000000000000000000000000000000000000000000000000000000000000000000000000000000000000000000000000000000000000000000000000000000000000000000000000000000000000000000000000000000000000000000000000000000000000000000000000000000000000000000000000000000000000000000000000000
#118320:0039565356595653
#119320:5659565356595653
#120320:5659565356595653
#121320:26
#1183b1:0013000000530000
#118381:00565656
#118351:0000005900000059
#119381:56565656
#1193b1:0053000000530000
#119351:0000005900000059
#120381:56565656
#1203b1:0053000000530000
#120351:0000005900000059
#121381:26
#121381:000000000000000000000000000000000000000000000000000000000000000000000000000000000000000000000000000000000000000000000000000000000000000000000000001600000000000000000000000000000000000000000000000000000000000000000000000000000000000000000000000000000000000000000000000000000000000000000000000000000000000000000000000000000000000000000000000000000000000000000000000000000000000000000000
#124321:0000002600000000
