This file was generated by Ched 2.7.0.0.
#TITLE ""
#ARTIST ""
#DESIGNER ""
#DIFFICULTY 0
#PLAYLEVEL
#SONGID ""
#WAVE ""
#WAVEOFFSET 0
#JACKET ""
#REQUEST "ticks_per_beat 480"
#00002: 4
#BPM01: 202
#00008: 01
#TIL00: ""
#HISPEED 00
#MEASUREHS 00
#00814:00240014
#00818:2424
#0131a:14140000
#01314:00001414
#01418:1424
#01414:00140000
#01512:14140000
#01518:00001414
#01614:1424
#01618:00140000
#0171a:14
#01710:41
#01918:14
#0211a:14
#02318:14
#0251a:14
#02514:0014
#02518:00000014
#02612:14
#02618:0014
#02614:00000014
#0271a:14
#02714:0014
#02718:00000014
#02812:14000034
#0281a:00140000
#02814:0014
#02918:0014
#02914:00000014
#02910:41
#0301a:14
#03014:0014
#03018:00000014
#03112:14
#03118:0014
#03114:00000014
#0321a:14000034
#03212:00140000
#03218:0014
#03312:00001414
#03418:00141400
#03514:14140000
#03614:00140014
#0361a:2424
#03712:00140014
#03718:2424
#04018:00140000
#04014:0014
#0401a:00000014
#04012:24
#04114:14
#04118:00140000
#04112:0014
#0421a:14
#04214:00140000
#04218:0014
#04212:00000014
#04318:14
#04314:00140000
#0431a:0014
#04814:00140000
#04818:0014
#04812:00000014
#0481a:24
#04810:41
#04918:14
#04914:00140000
#0491a:0014
#05012:14
#05018:00140000
#05014:0014
#0501a:00000014
#05114:14
#05118:00140000
#05112:0014
#05612:14
#05618:00140000
#05614:0014
#0561a:00000014
#05712:14
#05718:00140000
#05714:0014
#0571a:00000014
#06418:0014
#06412:25
#06410:41
#06514:14
#0651a:0014
#06612:14
#06618:0014
#06714:14
#0671a:0014
#07014:14
#07018:0014
#0741a:1414
#07414:00140014
#0741f:11
#0751a:1414
#07514:00140000
#07612:1414
#07618:00140014
#07712:1414
#07718:00140000
#0781a:1414
#07814:00140000
#07912:1414
#07918:00140000
#08018:1414
#08014:00140014
#08318:00000014
#08312:0024
#0831f:0021
#08414:1414
#0841a:00140000
#08418:00000014
#08410:0041
#08512:14
#0851a:0014
#08514:00000014
#08618:1414
#08612:00140000
#08614:00000014
#0871a:14
#09114:00000014
#0911a:0024
#0921a:14
#09214:00140000
#09218:0014
#09212:00000014
#09318:14000014
#09312:0024
#09412:14
#09418:00140000
#09414:0014
#0941a:00000014
#09514:14
#0951a:00002414
#09614:14140000
#09618:0014
#09612:00000014
#09718:14
#09712:00002414
#09818:14140026
#09812:0026
#10114:00000014
#10218:1414
#10214:00140000
#1041a:0014
#10618:0014
#10610:0041
#1081a:0014
#01812:24
#02014:24
#02212:24
#02413:24
#02419:24
#07114:24
#07118:0000002600000000
#08118:24
#09912:26000026
#09918:0026
#10018:26
#10314:0024
#10512:0024
#10913:0024
#10919:0024
#10714:0024
#11412:00260000
#12118:0000002600000000
#01012:00343400
#0091a:00343400
#01212:00343400
#0111a:00343400
#06812:00343400
#0691a:00343400
#11212:34
#11218:00000034
#11112:0000340000340000
#11012:0000000000000034
#11318:34340000
#1241a:0000003400000000
#0175a:54
#01852:54
#01958:64
#0195a:0014
#02054:64
#02052:0014
#0215a:54
#02358:64
#0235a:0014
#02252:54
#02459:14
#02453:14
#02952:14
#02854:0054
#03258:0064
#0335a:14
#03958:14
#06452:15
#07158:0000001600000000
#10258:0064
#1045a:0054
#10354:0064
#10552:0054
#10558:14
#10953:0014
#10959:0014
#10958:14
#10654:14
#10658:0064
#1085a:0054
#10754:0064
#0093a0:14343400
#009380:00000024
#010320:14343400
#010340:00000024
#0113a0:14343400
#011380:00000024
#012320:14343400
#012340:00000024
#0173a0:14
#017380:0024
#018320:14
#018340:0024
#019380:14
#0193a0:0024
#020340:14
#020320:0024
#0213a0:14
#021380:0024
#022320:14
#022340:0024
#023380:14
#0233a0:0024
#028340:0014
#028320:00000034
#029320:24
#032380:0014
#0323a0:00000034
#0333a0:24
#038380:14
#0383a0:0034
#039380:24
#044320:14
#044340:0024
#0453a0:14
#045380:0024
#046380:14
#0463a0:0024
#046321:14
#046341:0024
#047341:14
#047321:0024
#0473a0:14
#047380:0024
#0523a0:14
#052380:0024
#053320:14
#053340:0024
#054340:14
#054320:0024
#0543a1:14
#054381:0024
#055381:14
#0553a1:0024
#055320:14
#055340:0024
#058320:14240000
#058380:00001424
#059340:14240000
#0593a0:00001424
#060320:15
#060330:00350035
#060340:0035
#061320:35
#061330:00350035
#061340:0035
#062320:35
#062330:00350035
#062340:0035
#063320:35
#064320:25
#068320:14343400
#068340:00000024
#0693a0:14343400
#069380:00000024
#087320:0014
#088340:24
#0883a0:0014
#089380:24
#089380:0014
#0903a0:24
#089321:0014
#090341:24
#090341:0014
#091321:24
#0903a0:0014
#091380:24
#102380:0014
#1033a0:24
#103340:0014
#104320:24
#1043a0:0014
#105380:24
#105320:0014
#106340:24
#106380:0014
#1073a0:24
#107340:0014
#108320:24
#1083a0:0014
#109380:24
#110320:0000000014000034
#111320:0000340000340000
#112320:34
#112340:00240000
#112380:00001434
#113380:34340000
#1133a0:0024
#114320:00160000
#115320:00000000000000000000000000360000
#116320:0036
#117320:00360000
#118320:0036000000000000
#121320:26
#121380:0000001600000000
#1243a0:0000003424000000
