This file was generated by Ched 2.7.0.0.
#TITLE ""
#ARTIST ""
#DESIGNER ""
#DIFFICULTY 0
#PLAYLEVEL
#SONGID ""
#WAVE ""
#WAVEOFFSET 0
#JACKET ""
#REQUEST "ticks_per_beat 480"
#00002: 4
#BPM01: 132
#00008: 01
#TIL00: ""
#HISPEED 00
#MEASUREHS 00
#0021a:0014
#00210:0041
#00314:0014
#00418:0014
#00512:0014
#0061a:0014
#00714:0014
#01012:14
#01010:41
#01112:14
#0121a:14
#0131a:14
#01414:14
#01514:14
#01618:14
#01718:14
#01710:41
#0211a:0014
#02512:16160000
#02918:0016
#02912:16
#02812:16
#02818:0016
#02618:16
#02612:0016
#03412:0014
#0341f:11
#03418:26
#03518:14
#03512:0014
#0361a:14
#03614:0014
#0371a:14
#03714:0014
#04018:16
#04012:0016
#04418:00001616
#04410:0041
#04912:16
#04718:0016
#04712:16
#04812:16
#04818:0016
#04512:0016
#04618:16
#04612:0016
#02718:1616
#02418:26260000
#02410:41
#03318:0026
#03312:00000026
#03914:24
#03818:24
#04312:00002626
#0431f:0021
#05312:2626
#05318:00260000
#03010:00000041
#000330:0014
#001330:0024
#008380:0014
#009380:0000002400000000
#018320:15
#018340:00000035
#019340:35
#019320:00000035
#020320:35
#020340:00000035
#021340:25
#022320:14
#023320:24
#030320:1626
#031380:1626
#032320:16
#033320:26
#041380:16
#042380:26
#049380:0016
#050380:26
#050320:0016
#051320:26
#051380:0016
#052380:0026
