This file was generated by Ched 2.7.0.0.
#TITLE ""
#ARTIST ""
#DESIGNER ""
#DIFFICULTY 0
#PLAYLEVEL
#SONGID ""
#WAVE ""
#WAVEOFFSET 0
#JACKET ""
#REQUEST "ticks_per_beat 480"
#00002: 4
#BPM01: 132
#00008: 01
#TIL00: ""
#HISPEED 00
#MEASUREHS 00
#00014:00130000
#00017:0000001300000000
#0011a:0000000014140000
#0011b:00000000000000000000000000130000
#00115:00000013
#00112:151515151515151515151515000000000000000000130000
#00118:00000000000000000000000000000013
#00113:001300130013001300130013001300130013001300130013000000000000000000000000000000000000000000000000
#00215:13000000230000000000001300130000
#0021b:00130000000000000000000000000000
#00212:00001300000000002300000000000013
#00218:00000013000013000000000000001300
#00210:0041
#00417:13130000
#0041b:00001300000013002300000000000013
#00418:00000000000000000000001300130000
#00415:0000000000000013
#00812:1313000013000000
#0081b:1313000013000000
#00819:00130000
#00814:00000000001300000000000000000000
#00817:0000001300000000
#00815:00000016
#00912:23000013
#00914:00000023000000000000000000001300
#00917:13
#00919:000000000000000000130000000000000000000000000000000000000000000033000000000000000000130000000000
#00916:0000002300000000
#0091a:0000000000330000
#00918:000000000000000000000000000000000033000000000000
#01019:00000013000000000000001300000000
#01017:0000001313000000
#01012:00000000000013000013000000000000
#01014:00000013000000000000001300000000
#01016:2300000000000013
#0101b:00130000000000000000000000001300
#01010:41
#01116:13
#0111b:00130000000000001300000013000000
#01119:00000013000000000000000000001300
#01117:0000001300000000
#01112:0000001313000000
#01114:00000013000000000000000000000000
#01115:00000013
#01113:0000000000000013
#00318:00000000000000000000000000130000
#00315:0000000000000013
#0031b:00000000000000000000001300000000
#00616:13130000
#00612:00001300000013000000001300000000
#0061b:00000013
#00615:00000000000000002300000000130013
#00618:0000000000000013
#00515:00000000000000000000000000130000
#00518:0000000000000013
#00512:00000000000000000000001300000000
#00718:00000000000000000000000000130000
#00715:0000000000000013
#00712:13000013
#0071b:00000000000000000000001300000000
#0121b:00000013000013000013001300000000
#01212:00130013000000000000001300001300
#01216:0013
#01217:13
#01312:00130013000000001300000000000000
#0131b:00000013000013001300000000000000
#01317:13000023
#01315:0000000000230000
#01319:0000000000000023
#01418:0013001300000000
#01415:0000000000130013
#01412:0013
#0141b:13
#01518:0000001300130013
#0151b:13000013000000001300000013000000
#01515:0000130000000000000000000000001300000000000000000000000000000000
#01512:00000013000000000000000000000000
#01612:13132313
#0161b:13130013
#01617:0013001300000000
#01616:0000000000130013
#0171b:1300130013000013
#01715:00130000000000001300000000000000
#01718:0013001300000000
#01712:00000013000013000000130000000000
#01714:00000013
#01716:0000000000000013
#01719:00000013
#01710:41
#01812:14000014000014000014000014000000
#02112:0000001300000024
#02118:0013000000130000
#02115:00131313
#0211a:24242424
#02218:1300000000000013
#02219:0013000000001300
#0221a:0000130000130000
#0221b:0000001313000000
#02216:00000000000000140000000000000000
#02615:00001300001300000000000000001300
#02618:00000000000013000000130000130000
#0261b:0013
#0261a:24
#02612:0024
#02712:1300001300130013
#02715:00131313
#02718:0000000000130013
#0271b:00000013
#0271a:24
#0191a:14000014000014000014000014000000
#02012:14000014000014000014000014000000
#02018:0000000000000013
#02015:00000000000000000000000000000013
#0281b:1300001300130013
#02818:00131313
#02815:1300000000130013
#02812:00000013
#02912:13131300
#02918:13
#02916:0000001300130000
#02917:00131313
#0291b:0000001300130000
#0311b:13130000
#03112:0000131300000000
#03115:00130000000000000000000023000000
#03118:0013000000002300
#0341b:00131313
#0341f:11
#03416:28
#0351b:13131313
#03516:0013
#03512:00000000000000000000001300000000
#03817:00130000
#03812:00131313
#0381b:00000013
#03819:0013
#03814:28
#03918:0000000014141414
#03914:28000000000000000014001400140014
#0391b:00130000
#03912:00130000
#04018:14
#0401a:0000001400000024
#04012:0014000000140000
#04016:00141414
#04415:00000013000000001400000014000000
#04417:0000001300000000
#04418:0013000000000000
#0441b:00130000
#04412:1300001300000000
#0441a:00002424
#04410:0041
#04512:00131300
#04515:00001300000000000000130000130000
#04518:00000013000000000000000000001300
#04516:0000001300000000
#0451b:1300001323000000
#04618:00001300001300000000000013001300
#04612:2313
#04615:00000000000013000000000000130013
#0461b:1323
#04715:0013001300001313
#04718:00000000000000000000000000130013
#04717:00130000
#0471b:13
#04712:13131300
#04719:0033003300000000
#0501b:0000130000130013
#05015:00001313
#05018:00000000000013000013000013000000
#05012:0000130000130013
#04818:0013001300000000
#0481b:13131313
#04817:0000000000000013
#04816:00130013
#04812:1300000000000013
#04814:0033003300000000
#05115:13000000000000000000000000130013
#0511b:00000000230000000000001300000000
#05118:1300000013000013
#05112:00230000
#05314:14
#05313:00150000
#05312:0016
#05318:24252600
#05218:0000001300000000
#04114:1300000000000013
#04113:0013000000001300
#04112:0000131313130000
#04116:00000000000000140000000000000000
#02412:24141313
#02416:0000000000000013
#0241b:0000000000000013
#02417:24140000
#02419:00000000000000000000003300000000
#02410:41
#0251b:00001313
#02517:0000000000000013
#02512:0000000000000013
#0251a:24140000
#02515:24140000
#03612:28131313
#03712:13131313
#0231b:00130000
#02316:0013
#02312:00130000
#02317:0000001300000000
#04317:00221414
#04312:00002424
#0431f:0021
#03019:0000001500000000
#03012:0000002500001300
#03015:25
#03014:0025000000000000
#03013:00250000
#03010:00000041
#04912:0013000000000015
#0491b:13
#04917:0013000000250000
#04916:13132500
#04918:00000025
#04919:0000000000000025
#03214:00000000000000120000000000000000
#03219:0000001200000000
#03216:00000000001200000000000000000000
#0321b:00000012000000000000000000000000
#03316:0028
#03312:00000028
#00258:0000001300000000
#00252:0013
#00655:0013
#00852:0013
#0085b:0013
#01152:0013
#0135b:0013
#01352:00000063000000000000000000000000
#01657:0023002300000000
#0165b:53530000
#01656:0000000000230023
#01652:00006363
#02152:0000000000000064
#02256:00000000000000240000000000000000
#02352:34000013
#0235b:00630013
#02356:0063
#02357:0000002300000000
#0285b:13
#02952:13636300
#02956:0000002300230000
#02957:00636363
#0295b:0000002300230000
#0315b:00530000
#03152:0000006300000000
#03155:00000013
#03158:00000013
#03356:0018
#03352:00000018
#03456:18
#03652:18
#03854:18
#03954:18
#04058:14
#0405a:0000000000000054
#0435a:0000000000140014
#04357:00005454
#04352:00001414
#0505b:0000000000000053
#05058:0000005300005300
#05052:0000530000000063
#0475b:2313
#04757:00630000
#04852:2300000013000023
#0485b:00000053
#04857:0000000000000023
#04856:00530053
#0455b:0013
#04652:13
#0465b:0013
#04156:00000000000000240000000000000000
#0425a:44
#01552:00000063000000000000000000000000
#01555:0000000000000000000000000000002300000000000000000000000000000000
#0155b:13
#05158:23
#0515b:00430000
#05155:23
#05152:00330000
#01852:14000014000014000014000014000000
#0195a:14000014000014000014000014000000
#02052:14000014000014000014000014000000
#00152:555555555555555555555555000000000000000000000000
#00153:002300230023002300230023002300230023002300230023000000000000000000000000000000000000000000000000
#02452:54540000
#02457:54540000
#0245a:0014001400000000
#02455:0014001400000000
#0255a:64640000
#02555:64640000
#02552:0014001400000000
#02557:0014001400000000
#01252:00000063000000000000000000000000
#0125b:00000000000000000000005300000000
#0265a:14
#02652:0014
#0275a:14
#03059:0000001500000000
#03052:0000001500000000
#04952:0023000000000015
#0495b:53
#04957:0023000000000000
#04956:53530000
#04959:0000000000000015
#04455:00006464
#0445a:00001414
#04452:0000000000140014
#05352:0036
#05353:00350000
#05354:34
#05358:44454600
#03556:0053
#03552:00000000000000000000005300000000
#0145b:13
#01452:0013
#01056:13
#000390:000000000000000000000000155555555555555555555555
#0003a0:000000000000000000000000000000000000000000000000005300530053005300530053005300530053005300530053
#001390:25
#001321:155555555555555555555555250000000000000000000000
#001331:005300530053005300530053005300530053005300530053000000000000000000000000000000000000000000000000
#0023b1:0000000000000000000000000000000013535353535323000000000000000000
#0023a1:00000000000000000000000000000000000000000000000000000000000000000053005300530053005300530000000000000000000000000000000000000000
#0033b1:1353535353532300000000000000000000000000000000000000000000000000
#0033a1:00530053005300530053005300000000000000000000000000000000000000000000000000000000000000000000000000000000000000000000000000000000
#003350:0000000000001353535353532300000000000000000000000000000000000000
#003340:00000000000000000000000000530053005300530053005300000000000000000000000000000000000000000000000000000000000000000000000000000000
#003381:0000000000000000000000001353535323000000000000000000000000000000
#003391:00000000000000000000000000000000000000000000000000530053005300530000000000000000000000000000000000000000000000000000000000000000
#003320:0000000000000000000000000000000013535353535323000000000000000000
#003330:00000000000000000000000000000000000000000000000000000000000000000053005300530053005300530000000000000000000000000000000000000000
#004320:13330000
#004360:0033002300000000
#004340:00000000003300000000000000000000
#004320:0000000000000000000000000000000013535353535323000000000000000000
#004330:00000000000000000000000000000000000000000000000000000000000000000053005300530053005300530000000000000000000000000000000000000000
#005320:1353535353532300000000000000000000000000000000000000000000000000
#005330:00530053005300530053005300000000000000000000000000000000000000000000000000000000000000000000000000000000000000000000000000000000
#005381:0000000000001353535353532300000000000000000000000000000000000000
#005391:00000000000000000000000000530053005300530053005300000000000000000000000000000000000000000000000000000000000000000000000000000000
#005350:0000000000000000000000001353535323000000000000000000000000000000
#005340:00000000000000000000000000000000000000000000000000530053005300530000000000000000000000000000000000000000000000000000000000000000
#0053b1:0000000000000000000000000000000013535353535323000000000000000000
#0053a1:00000000000000000000000000000000000000000000000000000000000000000053005300530053005300530000000000000000000000000000000000000000
#0063b1:13330000
#006371:0033002300000000
#006391:00000000003300000000000000000000
#006381:0000000000000000000000000000000013535353535323000000000000000000
#006391:00000000000000000000000000000000000000000000000000000000000000000053005300530053005300530000000000000000000000000000000000000000
#0073b1:1353535353532300000000000000000000000000000000000000000000000000
#0073a1:00530053005300530053005300000000000000000000000000000000000000000000000000000000000000000000000000000000000000000000000000000000
#007320:0000000000001353535353532300000000000000000000000000000000000000
#007330:00000000000000000000000000530053005300530053005300000000000000000000000000000000000000000000000000000000000000000000000000000000
#007381:0000000000000000000000001353535323000000000000000000000000000000
#007391:00000000000000000000000000000000000000000000000000530053005300530000000000000000000000000000000000000000000000000000000000000000
#007350:0000000000000000000000000000000013535353535323000000000000000000
#007340:00000000000000000000000000000000000000000000000000000000000000000053005300530053005300530000000000000000000000000000000000000000
#0093b0:000000000000000000130000000033000000000000000000
#0093a0:0000000000330000
#009390:000033
#009380:000000000000000000000000000000000033000000000000
#009370:00000023
#012320:00000013000000000000000000000000
#012360:0000002300000000
#0123b0:00000000000000000000001300000000
#012370:0000000000000023
#013320:00000013000000000000000000000000
#013360:0000002300000000
#014320:1323000000000000
#014350:00000013000023000000000000000000
#0143b0:0000000013230000
#014380:00000000000000000000001300002300
#015320:00000013000000000000000023000000
#015350:0000000000000000000000000000005300000000000000000000000000000000
#0163b0:13332300
#016370:0033005300000000
#016321:00001333
#016361:0000000000330053
#017321:23
#018381:16000035000034000033000000000000
#018371:000000000000000000000000000000000000000000000000000000000000000000000000000000000000000000000000000000000000000000000000000000000000000000000000000000000000000000000000000000000000000000000000000000000000000000000000000000000000000000000000000000000000000000000000000000000000000000000000000000000000000000000000000000000000000000000000000000000000000000000000000000000000000000000000000000000000000000000000000000000000000000000000000000000000000000000000000000000000000000000000000000000000000000000000000000000000000000000000000000000000000000000000000000000000000000000000000000000000000000000000000000000000000000000000000000000000000000000000000000000000000000000000000000000000000000000000000000000000000000000056000000000000000000000000000000000000000000000000000000000000000000000000000000000000000000000000000000000000000000000000000000000000000000000000000000000000000000000000000000000000000000000000000000000000000000000000000000000000000000000000000000000000000000000000000000000000000000000000000000000000000000000000000000000000000000000000000000000000000000000000000000000000000000000000000000000000000000000000000000000000000000000000000000000000000000000000000000000000000000000000000000000000000000000000000000000000000000000000000000000000000000000000000000000000000000000000000000000000000000000000000000000000000000000000000000000000000000000000000000000000000000000000000000000000000000000000000000000000000000000055000000000000000000000000000000000000000000000000000000000000000000000000000000000000000000000000000000000000000000000000000000000000000000000000000000000000000000000000000000000000000000000000000000000000000000000000000000000000000000000000000000000000000000000000000000000000000000000000000000000000000000000000000000000000000000000000000000000000000000000000000000000000000000000000000000000000000000000000000000000000000000000000000000000000000000000000000000000000000000000000000000000000000000000000000000000000000000000000000000000000000000000000000000000000000000000000000000000000000000000000000000000000000000000000000000000000000000000000000000000000000000000000000000000000000000000000000000000000000000000054000000000000000000000000000000000000000000000000000000000000000000000000000000000000000000000000000000000000000000000000000000000000000000000000000000000000000000000000000000000000000000000000000000000000000000000000000000000000000000000000000000000000000000000000000000000000000000000000000000000000000000000000000000000000000000000000000000000000000000000000000000000000000000000000000000000000000000000000000000000000000000000000000000000000000000000000000000000000000000000000000000000000000000000000000000000000000000000000000000000000000000000000000000000000000000000000000000000000000000000000000000000000000000000000000000000000000000000000000000000000000000000000000000000000000000000000000000000000000000000000230000000000000000000000000000000000000000000000000000000000000000000000000000000000000000000000000000000000000000000000000000000000000000000000000000000000000000000000000000000000000000000000000000000000000000000000000000000000000000000000000000000000000000000000000000000000000000000000000000000000000000000000000000000000000000000000000000000000000000000000000000000000000000000000000000000000000000000000000000000000000000000000000000000000000000000000000000000000000000000000000000000000000000000000000000000000000000000000000000000000000000000000000000000000000000000000000000000000000000000000000000000000000000000000000000000000000000000000000000000000000000000000000000000000000000000000000000000000000000000000000000000000000000000000000000000000000000000000000000000000000000000000000000000000000000000000000000000000000000000000000000000000000000000000000000000000000000000000000000000000000000000000000000000000000000000000000000000000000000000000
#019331:16000035000034000033000000000000
#019321:000000000000000000000000000000000000000000000000000000000000000000000000000000000000000000000000000000000000000000000000000000000000000000000000000000000000000000000000000000000000000000000000000000000000000000000000000000000000000000000000000000000000000000000000000000000000000000000000000000000000000000000000000000000000000000000000000000000000000000000000000000000000000000000000000000000000000000000000000000000000000000000000000000000000000000000000000000000000000000000000000000000000000000000000000000000000000000000000000000000000000000000000000000000000000000000000000000000000000000000000000000000000000000000000000000000000000000000000000000000000000000000000000000000000000000000000000000000000000000000056000000000000000000000000000000000000000000000000000000000000000000000000000000000000000000000000000000000000000000000000000000000000000000000000000000000000000000000000000000000000000000000000000000000000000000000000000000000000000000000000000000000000000000000000000000000000000000000000000000000000000000000000000000000000000000000000000000000000000000000000000000000000000000000000000000000000000000000000000000000000000000000000000000000000000000000000000000000000000000000000000000000000000000000000000000000000000000000000000000000000000000000000000000000000000000000000000000000000000000000000000000000000000000000000000000000000000000000000000000000000000000000000000000000000000000000000000000000000000000000055000000000000000000000000000000000000000000000000000000000000000000000000000000000000000000000000000000000000000000000000000000000000000000000000000000000000000000000000000000000000000000000000000000000000000000000000000000000000000000000000000000000000000000000000000000000000000000000000000000000000000000000000000000000000000000000000000000000000000000000000000000000000000000000000000000000000000000000000000000000000000000000000000000000000000000000000000000000000000000000000000000000000000000000000000000000000000000000000000000000000000000000000000000000000000000000000000000000000000000000000000000000000000000000000000000000000000000000000000000000000000000000000000000000000000000000000000000000000000000000054000000000000000000000000000000000000000000000000000000000000000000000000000000000000000000000000000000000000000000000000000000000000000000000000000000000000000000000000000000000000000000000000000000000000000000000000000000000000000000000000000000000000000000000000000000000000000000000000000000000000000000000000000000000000000000000000000000000000000000000000000000000000000000000000000000000000000000000000000000000000000000000000000000000000000000000000000000000000000000000000000000000000000000000000000000000000000000000000000000000000000000000000000000000000000000000000000000000000000000000000000000000000000000000000000000000000000000000000000000000000000000000000000000000000000000000000000000000000000000000000230000000000000000000000000000000000000000000000000000000000000000000000000000000000000000000000000000000000000000000000000000000000000000000000000000000000000000000000000000000000000000000000000000000000000000000000000000000000000000000000000000000000000000000000000000000000000000000000000000000000000000000000000000000000000000000000000000000000000000000000000000000000000000000000000000000000000000000000000000000000000000000000000000000000000000000000000000000000000000000000000000000000000000000000000000000000000000000000000000000000000000000000000000000000000000000000000000000000000000000000000000000000000000000000000000000000000000000000000000000000000000000000000000000000000000000000000000000000000000000000000000000000000000000000000000000000000000000000000000000000000000000000000000000000000000000000000000000000000000000000000000000000000000000000000000000000000000000000000000000000000000000000000000000000000000000000000000000000000000000000
#020381:16000035000034000033000000000000
#020371:000000000000000000000000000000000000000000000000000000000000000000000000000000000000000000000000000000000000000000000000000000000000000000000000000000000000000000000000000000000000000000000000000000000000000000000000000000000000000000000000000000000000000000000000000000000000000000000000000000000000000000000000000000000000000000000000000000000000000000000000000000000000000000000000000000000000000000000000000000000000000000000000000000000000000000000000000000000000000000000000000000000000000000000000000000000000000000000000000000000000000000000000000000000000000000000000000000000000000000000000000000000000000000000000000000000000000000000000000000000000000000000000000000000000000000000000000000000000000000000056000000000000000000000000000000000000000000000000000000000000000000000000000000000000000000000000000000000000000000000000000000000000000000000000000000000000000000000000000000000000000000000000000000000000000000000000000000000000000000000000000000000000000000000000000000000000000000000000000000000000000000000000000000000000000000000000000000000000000000000000000000000000000000000000000000000000000000000000000000000000000000000000000000000000000000000000000000000000000000000000000000000000000000000000000000000000000000000000000000000000000000000000000000000000000000000000000000000000000000000000000000000000000000000000000000000000000000000000000000000000000000000000000000000000000000000000000000000000000000000055000000000000000000000000000000000000000000000000000000000000000000000000000000000000000000000000000000000000000000000000000000000000000000000000000000000000000000000000000000000000000000000000000000000000000000000000000000000000000000000000000000000000000000000000000000000000000000000000000000000000000000000000000000000000000000000000000000000000000000000000000000000000000000000000000000000000000000000000000000000000000000000000000000000000000000000000000000000000000000000000000000000000000000000000000000000000000000000000000000000000000000000000000000000000000000000000000000000000000000000000000000000000000000000000000000000000000000000000000000000000000000000000000000000000000000000000000000000000000000000054000000000000000000000000000000000000000000000000000000000000000000000000000000000000000000000000000000000000000000000000000000000000000000000000000000000000000000000000000000000000000000000000000000000000000000000000000000000000000000000000000000000000000000000000000000000000000000000000000000000000000000000000000000000000000000000000000000000000000000000000000000000000000000000000000000000000000000000000000000000000000000000000000000000000000000000000000000000000000000000000000000000000000000000000000000000000000000000000000000000000000000000000000000000000000000000000000000000000000000000000000000000000000000000000000000000000000000000000000000000000000000000000000000000000000000000000000000000000000000000000230000000000000000000000000000000000000000000000000000000000000000000000000000000000000000000000000000000000000000000000000000000000000000000000000000000000000000000000000000000000000000000000000000000000000000000000000000000000000000000000000000000000000000000000000000000000000000000000000000000000000000000000000000000000000000000000000000000000000000000000000000000000000000000000000000000000000000000000000000000000000000000000000000000000000000000000000000000000000000000000000000000000000000000000000000000000000000000000000000000000000000000000000000000000000000000000000000000000000000000000000000000000000000000000000000000000000000000000000000000000000000000000000000000000000000000000000000000000000000000000000000000000000000000000000000000000000000000000000000000000000000000000000000000000000000000000000000000000000000000000000000000000000000000000000000000000000000000000000000000000000000000000000000000000000000000000000000000000000000000000
#021321:0000000000000014
#022361:00000000000000540000000000000000
#023321:24
#0233b1:00133323
#023371:0000005300000000
#023360:0013
#023320:00000000000000000053000023000000
#024370:14
#0243a0:0024000000000000
#024321:14
#024351:0024000000000000
#024321:00140000
#024351:0000002400000000
#024370:00140000
#0243a0:0000002400000000
#0243b0:0000000000130000
#024390:00000000000000000000003300000000
#024370:00000023
#025350:14
#025320:0024000000000000
#0253a1:14
#025371:0024000000000000
#0253a1:00140000
#025371:0000002400000000
#025350:00140000
#025320:0000002400000000
#025320:0000000000130000
#025360:00000023
#026380:00000013002300000000000000000000
#026350:00000000000000000000001300230000
#0273b0:00132300
#027390:00000000003300330000000000000000
#027370:0000003300000000
#028320:00132300
#028340:00000000003300330000000000000000
#028360:0000003300000000
#029320:00133323
#029360:0000005300530000
#029371:00133333
#0293b1:0000005300530000
#0303b1:23
#0303b1:00000013
#030381:0000000000000023
#030350:0000000000000013
#031320:23
#0313b0:00130000
#031380:0000005300002300
#031321:0000001300000000
#031351:00005323
#032331:12000022000000000000000000000000
#0323b1:0012
#032381:00000000000000000000003200002200
#032350:00000000000000000000001200002200
#034320:1300000000000000000000003300000000000000000033003353330033000000
#034360:0000530053535353330000000000000033533300000000000000000000000000
#034350:00000000000000000053005300530053000000000000000000000000000000000053005300000000000000000000000000000000000000000000000000000000
#034340:00000000003300000000000000000000
#034330:00000000000000000000000000000000000000000000000000000000000000000000000000000000000000000000000000530053000000000000000000000000
#035360:3300330033000023
#035320:00003300000033000000003300000000
#0363b0:13000000003333000000000000003300
#036370:0000530053533353330000000000000033533300000000003300000000000000
#036380:00000000000000000053005300530053000000000000000000000000000000000053005300000000000000000000000000000000000000000000000000000000
#037370:330000000000000000000000000000000000000000000000330000530000330000000000000000000000000000000000000000000000000000000000000000005300000000530000330000000000000000000000230000000000000000000000
#0373b0:0000000033000000000000000000330000003353000000000000000000000000
#037380:00000000000000000000000000000000005300530000000000000000000000000000000000000000005300005300000000000000000000000000000000000000
#037390:00000000000000000000000000000000000000000000000033000000000000000000000000000053000053000000000000000000000000000000000000000000
#0373a0:00000000000000000000000000000000000000000000000000000000000000000000000000530000530000000000000000000000000000000000000000000000
#037360:000000000000000000000000000000000053000000000000
#0403a0:0000000000000014
#041360:00000000000000540000000000000000
#0423a0:24
#042351:13
#043341:25
#043371:0014
#0433a1:00000000000000000054240000000000
#043371:00000014
#0433a1:00000000000000000000000000542400
#044351:0014
#044321:00000000000000000054240000000000
#044351:00000014
#044321:00000000000000000000000000542400
#045381:00000000000000000000001300000000
#0453b1:00000000000000000000000000230000
#046351:00000013000000000000000000000000
#046321:00000000002300000000000000000000
#0473b1:1323
#047391:0033003300000000
#047371:00330000
#048321:1323
#048341:0033003300000000
#048361:00330000
#0483b1:00000013
#048371:0000000000000053
#0493b1:33230000
#049371:0053000000000000
#048360:00000013
#048320:0000000000000053
#049360:33330000
#049320:0053000023000000
#050320:00130000
#050350:00000000005323000000000000000000
#050381:0000001300000000
#0503b1:00000000000000532300000000000000
#050381:00000000000000000000000013000053
#0503b1:00000000000000000000000000535300
#051381:53
#0513b1:00230000
#050320:0000000000000013
#050350:00000000000000000000000000000053
#051350:53
#051320:00230000
#051320:0000000000000000000000000000000013535353535323000000000000000000
#051330:00000000000000000000000000000000000000000000000000000000000000000053005300530053005300530000000000000000000000000000000000000000
#0523b0:1353535353532300000000000000000000000000000000000000000000000000
#0523a0:00530053005300530053005300000000000000000000000000000000000000000000000000000000000000000000000000000000000000000000000000000000
#052321:0000000000001353535353532300000000000000000000000000000000000000
#052331:00000000000000000000000000530053005300530053005300000000000000000000000000000000000000000000000000000000000000000000000000000000
#052371:00000000000000001200323200322200
