This file was generated by Ched 2.7.0.0.
#TITLE ""
#ARTIST ""
#DESIGNER ""
#DIFFICULTY 0
#PLAYLEVEL
#SONGID ""
#WAVE ""
#WAVEOFFSET 0
#JACKET ""
#REQUEST "ticks_per_beat 480"
#00002: 4
#BPM01: 132
#00008: 01
#TIL00: ""
#HISPEED 00
#MEASUREHS 00
#00012:00130000
#0001b:0000001300000000
#00015:0013
#00215:00000000000013000000000000130000
#00218:0000000000000013
#00210:0041
#00412:13
#00418:00000000130000000000000000130000
#00415:0013000000000013
#0041b:0000001300000000
#00812:1300001300000000
#0081b:0013000013000000
#00815:00130000
#00818:00000000001300000000000000000000
#0101b:00000013000000000000000000000000
#01018:23000000000013000013000000000000
#01015:00130000000000001300000000001300
#01012:00000000000000000000001300000000
#01010:41
#01118:1300001300001300
#01115:00130000000000001300000000001300
#0111b:00000013000000000000000000000000
#00318:0000000000000013
#00315:00000000000000000000000000130000
#00917:13
#00919:00000013000000000000000000000000
#00912:2300000000000013
#00914:00000023000000000000000000000000
#00916:0000002300000000
#0161b:13
#01618:0033130000000000
#01615:0000000000331300
#01612:0023
#01718:0013000013001300
#0171b:1300000000000013
#01715:0000001300130000
#01719:00330033000000000000000000000000
#01710:41
#02216:00000000000000140000000000000000
#02712:2300000000130000
#02715:0000000000000013
#02718:00000000000000330000000013000000
#0271b:00130000
#0271a:00000000003300000000000000000000
#02719:0000003300000000
#0281b:1300000000130000
#02818:0000000000000013
#02815:00000000000000330000000013000000
#02812:00130000
#02813:00000000003300000000000000000000
#02814:0000003300000000
#03118:0000001300000000
#03112:0000001300000000
#0311b:00000023
#03115:00000023
#0381a:00140000
#03812:26000014
#03816:0014
#05314:13
#05313:00140000
#05312:0015
#05319:23242500
#03912:00140000
#03918:26
#04014:0000001400140000
#04012:0014000000000024
#04018:00140014
#0401a:0014
#04116:00000000000000140000000000000000
#02515:2400000000130000
#0251b:0000000000000013
#02518:00000013
#0251a:24
#0231b:00130000
#02318:0000001300000000
#02312:00130000
#02315:0000001300000000
#0291b:00130000
#02917:0013
#02912:13
#00118:0000000013130000
#00115:00000000000000000000000013000013
#0011b:00000000000000000000000000130000
#00112:13
#0061b:13000000000000000000001300000000
#00615:0000130000130000
#00618:0013000023000013
#00612:00000000000013000000000000130000
#00515:0000000000000013
#00518:00000000000000000000000000130000
#0141b:13
#01412:0013
#01515:00130000000000000000130000001300
#01518:13001313
#0201a:0000000000000014
#02116:0014000000140000
#0211a:0000001400000024
#02112:24242424
#02418:0000000000130000
#02415:00000000000000000000001300000000
#0241b:00000013
#02412:2400000000000013
#02417:24
#02410:41
#0471b:0013000000001300
#04718:00000000130000000000000000000033
#04712:0013
#04715:0000001300000000
#0471a:00000000000000000000000000330000
#04719:0000000000000033
#05015:0000000000000013
#0501b:0000000000000013
#04518:00001300000000000000001300000000
#04512:0000001300000000
#04515:00130000
#0451b:0013
#04817:00000013
#04812:0013000000001300
#04815:00130000
#0481b:0013
#04818:0000001300000000
#0491b:13
#04916:1300000000240000
#04912:0000000024000024
#0491a:00000024
#04415:0013000000000000
#04418:00000013000000000000000000000000
#04412:00130000
#0441b:0000001300000000
#0441a:0000000000140014
#04414:00002424
#04410:0041
#04612:00000013000000000000000013000000
#04615:13000000000000000000000000000033
#0461b:0023
#04613:00000000000000000000000000330000
#04614:0000000000000033
#04318:0000000000140014
#04317:00220000
#04312:00002424
#0431f:0021
#02612:13
#02615:00000013000000000000000000000000
#02618:0013
#0261b:00000000000000000000001300000000
#03418:00000014000000000000000000000000
#0341f:11
#03412:26
#03614:00000014000000000000000000000000
#03618:26
#00718:0000000000000013
#00715:00000000000000000000000000130000
#01212:13
#0121b:0013
#01218:00000000000000000033001300000000
#01215:00330013000000000000000000000000
#01312:1300000000230000
#01315:00330013000000000000000023000000
#01318:0000000013000023
#03312:0026
#03318:00000026
#0301a:2400002400000000
#03016:0024000000000000
#03012:00240000
#03010:00000041
#05112:00230000
#05118:00230000
#00255:0000001300000000
#0085b:0013
#0165b:53
#01652:0063
#01658:00530000
#01655:00000063
#0215a:0000000000000054
#02256:00000000000000240000000000000000
#0235a:44
#0235b:00630013
#02358:0000002300000000
#02352:00530013
#02355:0000002300000000
#03158:0000005300000000
#03152:0000005300000000
#0315b:00000013
#03155:00000013
#03352:0016
#03358:00000016
#03452:16
#03658:16
#03852:16
#03958:16
#04156:00000000000000240000000000000000
#04052:0000000000000064
#0405a:14
#04252:34
#02752:13
#0275b:00530000
#0295b:00530000
#02957:0053
#02952:13
#0305a:0000001400000000
#00055:0053
#00152:53
#00658:0013
#0145b:13
#01452:0013
#0175b:63
#01758:0023000000000000
#0285b:13
#02852:00630000
#04752:0013
#0475b:00000053
#05055:0000000000000063
#0505b:0000000000000063
#04857:00000063
#0485b:0013
#04852:00000063
#0495b:63
#04952:0000000000000014
#04956:63
#04652:00000063000000000000000063000000
#0465b:0013
#04655:63
#05152:00130000
#05158:00130000
#0455b:0063
#04558:00000000000000000000006300000000
#04352:00001414
#04358:0000000000140014
#0445a:0000000000140014
#04454:00001414
#02652:53
#02655:00000053000000000000000000000000
#02658:0053
#0265b:00000000000000000000005300000000
#05353:00140000
#05352:0015
#05354:13
#05359:13141500
#01252:63
#0125b:0053
#01258:00000000000000000000002300000000
#01255:00000023000000000000000000000000
#01352:63
#01355:00000023000000000000000000000000
#01155:0013
#000350:0013
#001320:33
#001350:0000002300000000
#0023b0:13
#0023a0:00330000000000000000000000000000
#002390:0033000000000000
#002380:00000033000000000000000000000000
#002370:00230000
#002380:0013
#0023b0:00000000000000000000002300000000
#003320:1300002300000000
#003350:00000033000000000000000000000000
#003380:0013
#0033b0:00000000000000000000002300000000
#004350:0013
#004320:00000000000000000000002300000000
#0053b0:1300002300000000
#005380:00000033000000000000000000000000
#005350:0013
#005320:00000000000000000000002300000000
#007320:1300002300000000
#007350:00000033000000000000000000000000
#007380:0013
#0073b0:00000000000000000000002300000000
#0093b0:0000001300002300
#009361:0000001300002300
#012321:1300002300000000
#012351:00330033000000000000000000000000
#0123b1:0000000013000023
#012381:00000000000000000033003300000000
#013321:1300002300000000
#013351:00330033000000000000000000000000
#014321:00000013000000000000000000000000
#014351:0000002300000000
#014380:00000013000000000000000000000000
#0143b0:0000002300000000
#014350:00000000000000000000001300000000
#014320:0000000000000023
#0143b1:00000000000000000000001300000000
#014381:0000000000000023
#0153b1:00000013000023000000000000000000
#015320:00000013000023000000000000000000
#0163b0:1300002300000000
#016380:0033330000000000
#016320:0000000013000023
#016350:0000000000333300
#0173b0:13230000
#017390:00330033000000000000000000000000
#017380:0033000000000000
#018330:17000036000035000034000000000000
#018320:000000000000000000000000000000000000000000000000000000000000000000000000000000000000000000000000000000000000000000000000000000000000000000000000000000000000000000000000000000000000000000000000000000000000000000000000000000000000000000000000000000000000000000000000000000000000000000000000000000000000000000000000000000000000000000000000000000000000000000000000000000000000000000000000000000000000000000000000000000000000000000000000000000000000000000000000000000000000000000000000000000000000000000000000000000000000000000000000000000000000000000000000000000000000000000000000000000000000000000000000000000000000000000000000000000000000000000000000000000000000000000000000000000000000000000000000000000000000000000000057000000000000000000000000000000000000000000000000000000000000000000000000000000000000000000000000000000000000000000000000000000000000000000000000000000000000000000000000000000000000000000000000000000000000000000000000000000000000000000000000000000000000000000000000000000000000000000000000000000000000000000000000000000000000000000000000000000000000000000000000000000000000000000000000000000000000000000000000000000000000000000000000000000000000000000000000000000000000000000000000000000000000000000000000000000000000000000000000000000000000000000000000000000000000000000000000000000000000000000000000000000000000000000000000000000000000000000000000000000000000000000000000000000000000000000000000000000000000000000000056000000000000000000000000000000000000000000000000000000000000000000000000000000000000000000000000000000000000000000000000000000000000000000000000000000000000000000000000000000000000000000000000000000000000000000000000000000000000000000000000000000000000000000000000000000000000000000000000000000000000000000000000000000000000000000000000000000000000000000000000000000000000000000000000000000000000000000000000000000000000000000000000000000000000000000000000000000000000000000000000000000000000000000000000000000000000000000000000000000000000000000000000000000000000000000000000000000000000000000000000000000000000000000000000000000000000000000000000000000000000000000000000000000000000000000000000000000000000000000000055000000000000000000000000000000000000000000000000000000000000000000000000000000000000000000000000000000000000000000000000000000000000000000000000000000000000000000000000000000000000000000000000000000000000000000000000000000000000000000000000000000000000000000000000000000000000000000000000000000000000000000000000000000000000000000000000000000000000000000000000000000000000000000000000000000000000000000000000000000000000000000000000000000000000000000000000000000000000000000000000000000000000000000000000000000000000000000000000000000000000000000000000000000000000000000000000000000000000000000000000000000000000000000000000000000000000000000000000000000000000000000000000000000000000000000000000000000000000000000000000240000000000000000000000000000000000000000000000000000000000000000000000000000000000000000000000000000000000000000000000000000000000000000000000000000000000000000000000000000000000000000000000000000000000000000000000000000000000000000000000000000000000000000000000000000000000000000000000000000000000000000000000000000000000000000000000000000000000000000000000000000000000000000000000000000000000000000000000000000000000000000000000000000000000000000000000000000000000000000000000000000000000000000000000000000000000000000000000000000000000000000000000000000000000000000000000000000000000000000000000000000000000000000000000000000000000000000000000000000000000000000000000000000000000000000000000000000000000000000000000000000000000000000000000000000000000000000000000000000000000000000000000000000000000000000000000000000000000000000000000000000000000000000000000000000000000000000000000000000000000000000000000000000000000000000000000000000000000000000000000
#019370:17000036000035000034000000000000
#019360:000000000000000000000000000000000000000000000000000000000000000000000000000000000000000000000000000000000000000000000000000000000000000000000000000000000000000000000000000000000000000000000000000000000000000000000000000000000000000000000000000000000000000000000000000000000000000000000000000000000000000000000000000000000000000000000000000000000000000000000000000000000000000000000000000000000000000000000000000000000000000000000000000000000000000000000000000000000000000000000000000000000000000000000000000000000000000000000000000000000000000000000000000000000000000000000000000000000000000000000000000000000000000000000000000000000000000000000000000000000000000000000000000000000000000000000000000000000000000000000057000000000000000000000000000000000000000000000000000000000000000000000000000000000000000000000000000000000000000000000000000000000000000000000000000000000000000000000000000000000000000000000000000000000000000000000000000000000000000000000000000000000000000000000000000000000000000000000000000000000000000000000000000000000000000000000000000000000000000000000000000000000000000000000000000000000000000000000000000000000000000000000000000000000000000000000000000000000000000000000000000000000000000000000000000000000000000000000000000000000000000000000000000000000000000000000000000000000000000000000000000000000000000000000000000000000000000000000000000000000000000000000000000000000000000000000000000000000000000000000056000000000000000000000000000000000000000000000000000000000000000000000000000000000000000000000000000000000000000000000000000000000000000000000000000000000000000000000000000000000000000000000000000000000000000000000000000000000000000000000000000000000000000000000000000000000000000000000000000000000000000000000000000000000000000000000000000000000000000000000000000000000000000000000000000000000000000000000000000000000000000000000000000000000000000000000000000000000000000000000000000000000000000000000000000000000000000000000000000000000000000000000000000000000000000000000000000000000000000000000000000000000000000000000000000000000000000000000000000000000000000000000000000000000000000000000000000000000000000000000055000000000000000000000000000000000000000000000000000000000000000000000000000000000000000000000000000000000000000000000000000000000000000000000000000000000000000000000000000000000000000000000000000000000000000000000000000000000000000000000000000000000000000000000000000000000000000000000000000000000000000000000000000000000000000000000000000000000000000000000000000000000000000000000000000000000000000000000000000000000000000000000000000000000000000000000000000000000000000000000000000000000000000000000000000000000000000000000000000000000000000000000000000000000000000000000000000000000000000000000000000000000000000000000000000000000000000000000000000000000000000000000000000000000000000000000000000000000000000000000000240000000000000000000000000000000000000000000000000000000000000000000000000000000000000000000000000000000000000000000000000000000000000000000000000000000000000000000000000000000000000000000000000000000000000000000000000000000000000000000000000000000000000000000000000000000000000000000000000000000000000000000000000000000000000000000000000000000000000000000000000000000000000000000000000000000000000000000000000000000000000000000000000000000000000000000000000000000000000000000000000000000000000000000000000000000000000000000000000000000000000000000000000000000000000000000000000000000000000000000000000000000000000000000000000000000000000000000000000000000000000000000000000000000000000000000000000000000000000000000000000000000000000000000000000000000000000000000000000000000000000000000000000000000000000000000000000000000000000000000000000000000000000000000000000000000000000000000000000000000000000000000000000000000000000000000000000000000000000000000000
#020330:17000036000035000034000000000000
#020320:000000000000000000000000000000000000000000000000000000000000000000000000000000000000000000000000000000000000000000000000000000000000000000000000000000000000000000000000000000000000000000000000000000000000000000000000000000000000000000000000000000000000000000000000000000000000000000000000000000000000000000000000000000000000000000000000000000000000000000000000000000000000000000000000000000000000000000000000000000000000000000000000000000000000000000000000000000000000000000000000000000000000000000000000000000000000000000000000000000000000000000000000000000000000000000000000000000000000000000000000000000000000000000000000000000000000000000000000000000000000000000000000000000000000000000000000000000000000000000000057000000000000000000000000000000000000000000000000000000000000000000000000000000000000000000000000000000000000000000000000000000000000000000000000000000000000000000000000000000000000000000000000000000000000000000000000000000000000000000000000000000000000000000000000000000000000000000000000000000000000000000000000000000000000000000000000000000000000000000000000000000000000000000000000000000000000000000000000000000000000000000000000000000000000000000000000000000000000000000000000000000000000000000000000000000000000000000000000000000000000000000000000000000000000000000000000000000000000000000000000000000000000000000000000000000000000000000000000000000000000000000000000000000000000000000000000000000000000000000000056000000000000000000000000000000000000000000000000000000000000000000000000000000000000000000000000000000000000000000000000000000000000000000000000000000000000000000000000000000000000000000000000000000000000000000000000000000000000000000000000000000000000000000000000000000000000000000000000000000000000000000000000000000000000000000000000000000000000000000000000000000000000000000000000000000000000000000000000000000000000000000000000000000000000000000000000000000000000000000000000000000000000000000000000000000000000000000000000000000000000000000000000000000000000000000000000000000000000000000000000000000000000000000000000000000000000000000000000000000000000000000000000000000000000000000000000000000000000000000000055000000000000000000000000000000000000000000000000000000000000000000000000000000000000000000000000000000000000000000000000000000000000000000000000000000000000000000000000000000000000000000000000000000000000000000000000000000000000000000000000000000000000000000000000000000000000000000000000000000000000000000000000000000000000000000000000000000000000000000000000000000000000000000000000000000000000000000000000000000000000000000000000000000000000000000000000000000000000000000000000000000000000000000000000000000000000000000000000000000000000000000000000000000000000000000000000000000000000000000000000000000000000000000000000000000000000000000000000000000000000000000000000000000000000000000000000000000000000000000000000240000000000000000000000000000000000000000000000000000000000000000000000000000000000000000000000000000000000000000000000000000000000000000000000000000000000000000000000000000000000000000000000000000000000000000000000000000000000000000000000000000000000000000000000000000000000000000000000000000000000000000000000000000000000000000000000000000000000000000000000000000000000000000000000000000000000000000000000000000000000000000000000000000000000000000000000000000000000000000000000000000000000000000000000000000000000000000000000000000000000000000000000000000000000000000000000000000000000000000000000000000000000000000000000000000000000000000000000000000000000000000000000000000000000000000000000000000000000000000000000000000000000000000000000000000000000000000000000000000000000000000000000000000000000000000000000000000000000000000000000000000000000000000000000000000000000000000000000000000000000000000000000000000000000000000000000000000000000000000000000
#0213a0:0000000000000014
#022360:00000000000000540000000000000000
#0233a0:24
#0233b0:00133323
#023380:0000005300000000
#023321:00133323
#023351:0000005300000000
#024321:14
#024351:0024000000000000
#024370:14
#0243a0:0024000000000000
#024370:00140000
#0243a0:0000002400000000
#024321:00140000
#024351:0000002400000000
#0253a1:14
#025371:0024000000000000
#025350:14
#025320:0024000000000000
#025350:00140000
#025320:0000002400000000
#0253a1:00140000
#025371:0000002400000000
#026321:1300002300000000
#026351:00000033000000000000000000000000
#026381:0000000013000023
#0263b1:00000000000000000000003300000000
#0273b1:00130000
#0273a1:00000000003300000000000000000000
#027391:0000003300000000
#027381:00000000000000330000000000000000
#027371:0023
#028321:00130000
#028331:00000000003300000000000000000000
#028341:0000003300000000
#028351:00000000000000330000000000000000
#028361:0023
#0293b1:00130023
#029371:0033
#0303b1:00000013
#030381:0000000000000023
#030350:00000013
#030320:0000000000000023
#031320:13
#031350:0023000000000000
#031381:13
#0313b1:0023000000000000
#0313b1:00135323
#031381:0000003300000000
#031350:00135323
#031320:0000003300000000
#032370:12000032003232323200003200002200
#034320:00000000143434000000003434343400
#034360:00000000000000003434000000000000
#035360:3434000000000000
#035320:00000000340034000000003400002400
#035350:0034
#0363a0:00000000143434000000000034000000
#036360:00000000000000003434000000000000
#036380:0000000000000034
#0373a0:34000000343434340000000034002400
#037380:0034000000000000
#037370:00000000000000000034000000000000
#0393a0:0014
#039390:00000000000000000034000000000034
#039380:0000000000340034
#039370:00000000000000000000003400340000
#039360:00000034
#0403a0:24
#040320:0000000000000014
#041360:00000000000000540000000000000000
#042320:24
#0453b0:0000000013000023
#045380:00000000000000000000003300000000
#046350:1300002300000000
#046320:00000033000000000000000000000000
#046320:00000013
#046330:00000000000000000000000000330000
#046340:0000000000000033
#046350:00000000000000000000000000000033
#047360:23
#0473b0:00000013
#0473a0:00000000000000000000000000330000
#047390:0000000000000033
#047380:00000000000000000000000000000033
#048370:23
#048370:00000013
#0493b0:33
#049370:00230000
#048321:00000013
#049361:33
#049321:00230000
#050321:00130000
#050351:0000002300000000
#050380:00130000
#0503b0:0000002300000000
#0503b0:0013
#050380:0000000000230000
#050351:0013
#050321:0000000000230000
#050321:00000013
#050351:0000000000000033
#051321:53230000
#050380:00000013
#0503b0:0000000000000033
#051380:53230000
#051370:00000000000000001200003200323232
#052370:32000032000022000000000000000000
