This file was generated by Ched 2.7.0.0.
#TITLE ""
#ARTIST ""
#DESIGNER ""
#DIFFICULTY 0
#PLAYLEVEL
#SONGID ""
#WAVE ""
#WAVEOFFSET 0
#JACKET ""
#REQUEST "ticks_per_beat 480"
#00002: 4
#BPM01: 132
#00008: 01
#TIL00: ""
#HISPEED 00
#MEASUREHS 00
#00116:00000000000000000000130000001414
#0011b:00000000000000001300130000130000
#00112:1818181818181818181818181818181800000000000000001300000000000000
#00114:00140014001400140014001400140014001400140014001400140014001400140000000000000000000000000000000000000000000000000000000000000000
#00212:13000014000000002300130000000013
#0021a:00140000000000000000000000000000
#00216:0014000000000000
#00217:0000221200000000
#0021b:00000000000000000000001300000000
#00218:00000000000000000000000000130000
#00215:0000000000000013
#00210:0041
#0041a:14
#00416:13000000001414000000000000000000
#00417:0013000000000000
#00412:00000000000000000000001300000000
#00415:00000000000000000000000000130000
#00418:0000000000000013
#0041b:00000000000000002300130000000013
#00816:1414140000000000
#0081b:13000000131300000000000000000000
#00812:0013001316001c00
#00818:0016
#00912:2400002400001300
#00916:00000013000000000000000000001300
#00917:1300001300000000
#0091b:0000000000000013
#00915:000000000000001212000000
#00919:000000000000000000000000000000120012000000000000
#0091a:00000024000000000000000000000000
#0101b:0000130013000013
#01015:00000013130000001300000000000000
#01012:2300001300001300
#01016:0000000000000013
#01018:13000000000000000000001313000000
#01017:0000001300000000
#01010:41
#01112:1300001300001313
#01118:13
#0111b:0000130013000013
#01117:0000001300001300
#01115:00000013130000000000000000000000
#01116:0013
#00314:00000000001400000000000000130000
#0031a:0000000000141414
#00312:00000000000000001400001300000000
#00316:00001400000000000000000000000013
#00616:00001300001414000000000014140000
#0061a:00000000000000000000001400000014
#00612:1400000024140014
#00617:13
#00712:14001400000014001400000000140000
#00716:00000000000000000000001414001414
#0071a:00000014001400000000140000000000
#01217:13130000000000000000001300000000
#01216:00000013000000001313000000000000
#0121b:0000000000000000130000001300000013000000000000000013000000000000
#01212:1300000000000000001300000000000000000000000000001300000013000000
#0141a:0014000000000000
#01418:0000001600000000
#01419:00150000
#01412:0000000013141516
#0141b:13
#01516:13130000000000000000130000001300
#01512:0000000000000000001300000013000000000000000000001300000000000000
#0151b:13000013000013000000130000000000
#01517:00001313
#01513:00000013131313130000000000000000
#01514:0000000000000013000000130000001300000000000000000000000000000000
#0171b:13000000001300000013000000000013
#01716:00141400000000130000000000001400
#01712:00000013000013000000140000000000
#01717:00000000130000001300001300000000
#01719:00000000000000000000000000130000
#01714:00000014
#01710:41
#02115:0000001600000000
#02116:0014000000000000
#02114:0000000000180000
#02112:240024002400241c
#0211a:24242424
#02216:0014001414140014
#02212:2400141400001414
#0221a:2414000000140000
#02218:00000014000000140000001400000000
#02615:29001300000013000000000000000013
#0261b:00000000130000000000000000130000
#02612:00000000001300002900000013000000
#02617:00000013000000000000000000000000
#02618:00000000000000130000130000001300
#02616:00000000000000000000001300000000
#02718:00000000001300130000000000000000
#02716:0000000000141414
#02712:0000161616000013
#0271b:00131313
#02715:29
#0341c:00121212
#0341f:11
#03418:26
#03414:00000033
#03416:00000000000000000000000000330000
#0351c:12121212
#03513:0033
#0391c:00001200000000000012000000000000
#03916:0000000000150000
#0391b:00000000000000000000001300000000
#0391a:00000000000000000000000000140000
#03914:00000016
#03919:00000000000000000000000000000015
#03912:2c001c1200000017
#03917:0012001200000000
#03918:0014
#04012:1c001c001c001c13
#04018:0000001300000000
#0401b:0013000000000000
#04015:0000000000130000
#04415:13000016000000000000000000000000
#04418:0013001300000000
#0441b:13130000
#04412:0013001314001400
#04417:00000000000000000014000000140000
#0441a:0000000024142414
#04410:0041
#03812:2c000000130000001c1c000013000000
#0381a:00000014000000000000001400000000
#03816:00000000001400000000000000140000
#0381b:0000001300000013
#03818:00140014
#02416:2300130000140013
#0241b:0000000013000013
#02412:13131313
#02417:0013000000000000
#02418:00000000000000000000001400000000
#0241a:00000014
#02410:41
#02517:2300130000000013
#02512:0000000013001413
#0251b:13131313
#02516:0013000000140000
#02514:00000000000000000000001400000000
#03612:28121212
#03712:12121212
#02315:00130000
#02312:00000000000000130000000000000000
#02318:00130000
#0231b:00000000000000130000000000000000
#02316:140000000000000000000000000000000000000000000000000000000000000000000000000000000000000000000000000000000000000000000000000000000000000000000000000000000000000000000000000000000000000000000000141400000000000000000000000000000000000000000000000000000000000000000000000000000000000000000000000000000000000000000000000000000000000000000000000000000000000000000000000000000000000000000000
#0431a:00001414
#04317:0000221200000000
#04315:00000000000000000014000000140000
#04312:0000000024142414
#0431f:0021
#0281b:1300000000000013
#02815:00000000001300130000000000000000
#02818:0000161616000000
#02812:00131313
#02816:1400000000141414
#03113:00001300000000000000000000000012
#03119:13
#03116:00130000130000000000000000000000
#0311b:0013000000230000
#0311a:00000012
#03115:00000000000000000000000000120000
#03118:0000000000000012
#03112:0000131300000000
#03117:0000000000230000
#0291b:0000001200130000
#02912:13121314
#0291a:0000000000000014
#02917:00121300
#02916:14000014
#03014:0023000000001300
#0301b:00000000000000000000130000130000
#03017:00000015000000000000000013000000
#03015:00150000000000000000000000001300
#03019:00000000001500000000000000000000
#03012:23000000000013000000000000000013
#03016:00231300
#03018:0000002300000000
#03010:00000041
#00012:00130000
#01319:00000000000000000000000000000013
#0131b:0000131313001300
#01316:00000013000000001300240024002400
#01317:13130000000000000000000000000000
#01312:1300000000000000001300000000000000000000130000000000000000000000
#01815:14000000000000000000000000140014
#01812:00000000000000000014000013001300
#01812:00000013
#01814:00000014000000000000000000000000
#01813:0000001400000000
#0411c:0012000000000000
#0411a:00140000
#04118:0000001600000000
#04112:1c29000000121416
#04115:0029
#04515:00001316000013000000000000000000
#0451b:00001300000013000000001300000000
#04512:13000000130000002c00000000000014
#04516:00000000000000000000131300001400
#0451a:00000000000000000000000000140000
#04518:13
#04912:00001300000014000000000000150000
#0491b:1300000023000013
#0491a:00140000
#04916:13000000140000000015000000000000
#04914:00000000000000000000001500000000
#04919:0000000000230000
#04917:00000023
#04915:0000000000000023
#04813:0000000000000012
#0481c:00000012
#04817:0000001300001200
#0481b:13
#04812:13130000
#04816:00131300
#04815:0016000000000000
#0461b:00000013
#04618:00000000000000000000000000140014
#04612:2c000013001400002c00000013000000
#04616:0000001400000013
#04617:00001313000000000000000000000000
#0461a:00000000000000140000000000000000
#04712:13000013
#04714:00000000000000000000000000140014
#0471b:13130013
#04717:0000130013000013
#04715:0016000000000000
#04716:0000001300000000
#05213:0000000000000012
#0521b:0000000000000012
#01616:00142324
#0161b:00002323
#01917:14000000000000000000000000140014
#0191b:0000000000001313
#0191b:00000013
#01918:00000014000000000000000000000000
#01919:0000001400000000
#0191a:00000000000000000014000000000000
#0201b:00000000000000000000000000130000
#02016:00000000000000000000000000001414
#02015:14
#02014:00000014000000000000000000000000
#02013:0000001400000000
#02012:00000000000000000014000013000000
#0511c:00000000000000000000001200000000
#05114:00000000120000000000000000120000
#05117:0000000000000012
#0511a:00000000000000000000000000000012
#05119:00000000001200000000000000000000
#05116:0000000023000000000000001200000000000012000000000000000000000000
#0511b:00000000000000120000000000000000
#05118:0012
#05112:0023000012000000
#05019:00130000
#05012:00001300001300000000130000000000
#05016:00130000
#05018:0000001300000000
#0501b:00000000000000130000000013001300
#05017:13000000000000000013000013000000
#0501a:0000000000130000
#05014:0013
#0331b:0000001200000000
#03313:0000001200000016
#03318:00002616
#03317:0000000000160000
#03312:00001626
#00519:00000000000000000000000000130000
#00512:0000000000141414
#0051b:00000000000000000000001300000000
#00517:00000000000000000000000000000013
#00516:0014000000000000
#00518:00000000001400000000000000000000
#0051a:0014
#05312:1800241824000000
#05316:000000000000000000000000000000000000000000000000000000000000000000000000000000000000000000000000000000000000000000000000000000000000000000000000000000000000000000000000000000000000000000000000000000000000000000000000000000000000000000000000000000000000000000000000000000000000000000000000000000000000000000000000000000000000000000000000000000000000000000000000000000000000000000000000000000000000000000000000000000000000000000000000000000000000000000000000000000000000000000000000180000000000000000000000000000000000000000000000000000000000000000000000000000000000000000000000000000000000000000000000000000000000000000000000000000000000000000000000000000000000000000000000000000000000000000000000000000000000000000000000000000000000000000000000000000000000000000000000000000000000000000000000000000000000000000000000000000000000000000000000000000000000000000000000000000000000000000000000000000000000000000000000000000000000000000000000000000000000000000000000001800000000000000000000000000000000000000000000000000000000000000000000000000000000000000000000000000000000000000000000000000000000000000000000000000000000000000000000000000000000000000000000000000000000000000000000000000000000000000000000000000000000000000000000000000000000000000000000000000000000000000000000000000000000000000000000000000000000000000000000000000000000000000000000000000000000000000000000000000000000000000000000000000000000000000000000000000000000000000000000000000000000000000000000000000000000000000000000000000000000000000000000000000000000000000000000000000000000000000000000000000000000000000000000000000000000000000000000000000000000000000000000000000000000000000000000000000000000000000000000000000000000000000000000000000000000000000000000000000000000000000000000000000000000000000000000000000000000000000000000000000000000000000000000000000000000000000000000000000000000000000000000000000000000000000000000000000000000000000000000280000000000000000000000000000000000000000000000000000000000000000000000000000000000000000000000000000000000000000000000000000000000000000000000000000000000000000000000000000000000000000000000000000000000000000000000000000000000000000000000000000000000000000000000000000000000000000000000000000000000000000000000000000000000000000000000000000000000000000000000000000000000000000000000000000000000000000000000000000000000000000000000000000000000000000000000000000000000000000000000000000000000000000000000000000000000000000000000000000000000000000000000000000000000000000000000000000000000000000000000000000000000000000000000000000000000000000000000000000000000000000000000000000000000000000000000000000000000000000000000000000000000000000000000000000000000000000000000000000000000000000000000000000000000000000000000000000000000000000000000000000000000000000000000000000000000000000000000000000000000000000000000000000000000000000000000000000000000000000000000000000000000000000000000000000000000000000000000000000000000000000000000000000000000000000000000000000000000000000000000000000000000000000000000000000000000000000000000000000000000000000000000000000000000000000000000000000000000000000000000000000000000000000000000000000000000000000000000000000000000000000000000000000000000000000000000000000000000000000000000000000000000000000000000000000000000000000000000000000000000000000000000000000000000000000000000000000000000000000000000000000000000000000000000000000000000000000000000000000000000000000000000000000000000000000000000000000000000000000000000000000000000000000000000000000000000000000000000000000000000000000000000000000000000000000000000000000000000000000000000000000000000000000000000000000000000000000000000000000000000000000000000000000000000000000000000000000000000000000000000000000000000000000000000000000000000000000000000000000000000000000000000000000000000000000000000000000000000000000000000
#0531a:24
#03212:00000012000000000000000000000000
#0321a:00000000001200000000000000000000
#03217:0000001200000000
#03214:00000000000000120000000000000000
#03216:12
#0321c:12
#03218:0000001200000000000000000000000000000000000000000000000000000000
#00257:0000001200000000
#00252:0013
#00652:0014
#00656:0063000000000000
#00657:63
#0115b:0013
#0225a:0024000000240000
#02258:00000054000000540000005400000000
#02256:0000002400000024
#02252:14
#03652:18
#03852:1c
#03952:1c
#04052:1c1c1c1c
#01052:13
#02355:00630000
#0235b:00000000000000230000000013000000
#02352:00000000000000230000000013000000
#0235a:44
#02358:00530000
#02356:000000000000000000000000000000000000000000000000000000000000000000000000000000000000000000000000000000000000000000000000000000000000000000000000000000000000000000000000000000000000000000000000545400000000000000000000000000000000000000000000000000000000000000000000000000000000000000000000000000000000000000000000000000000000000000000000000000000000000000000000000000000000000000000000
#02452:53530000
#02456:53530000
#0245b:0013001300000000
#02457:0023001300000000
#01256:00000063000000000063000000000000
#01257:00530000000000000000005300000000
#01252:1300000000000000002300000000000000000000000000000000000000000000
#0125b:0000000000000000000000000000000013000000000000000023000000000000
#02655:19
#02652:00001923
#02657:00000053000000000000000000000000
#0265b:00230000
#02656:00000000000000000000006300000000
#0295b:0000002200230000
#0295a:0000000000000024
#02952:33525354
#02957:00525300
#02956:00000054
#00154:00240024002400240024002400240024002400240024002400240024002400240000000000000000000000000000000000000000000000000000000000000000
#00152:5858585858585858585858585858585800000000000000000000000000000000
#00852:0036
#00858:0046
#00956:0000000000000053
#00952:3400003400005300
#00957:0000005300000000
#0095a:00000044000000000000000000000000
#0155b:1300006300630000
#01557:00006363
#01554:0000000000000023000000230000002300000000000000000000000000000000
#01552:0000000000000000002300000023000000000000000000000000000000000000
#01553:00000053535353530000000000000000
#0165a:0000004400000000
#01652:0000000000000034
#01656:00240024
#01757:00535300
#01752:0000005300000000
#0175b:00000000002300000023000000000000
#01756:00000000000000230000000000000000
#02152:1414
#0215a:00140014
#0255b:63630000
#02557:63630000
#02556:0023001300000000
#02552:0013001300000000
#02755:19
#0275b:00000043
#02752:0000000000000033
#0305b:00000000000000000000000000230000
#03057:00000063
#03052:00000000000063000000000000000023
#03058:0000001300000000
#03055:0000000000000053
#03056:0023
#04357:0000001200000000
#0435a:0000000064446444
#04352:00003434
#04355:00000000000000000024000000240000
#04556:00000000000000000000002300000000
#04552:001c
#04952:0023002400000000
#0495b:6300000000000053
#0495a:00640000
#04956:63640000
#04955:0000000000000013
#04853:0000000000000022
#0485c:00000062
#04857:0000005300006200
#04852:00131300
#04856:00531300
#0485b:0000001300000000
#04652:1c1c
#04657:00000023000000000000000000000000
#0475b:00131300
#04757:00631300
#04756:0000006300000000
#04752:0000001300000000
#02055:34
#02054:00000034000000000000000000000000
#02053:0000003400000000
#02052:00000000000000000034000000000000
#05158:0012
#05152:0043000052000000
#05156:0000000043000000000000000000000000000022000000000000000000000000
#05056:00530000
#05052:00000000002300000000000000000000
#05058:0000006300000000
#0505b:00000000000000230000000000006300
#05057:23000063
#00456:53
#00457:0053000000000000
#00052:0013
#0145b:13
#01452:0013
#01855:34
#01854:00000034000000000000000000000000
#01853:0000003400000000
#01852:00000000000000000034000000000000
#01957:44
#01958:00000044000000000000000000000000
#01959:0000004400000000
#0195a:00000000000000000044000000000000
#01357:00530000000000000000000000000000
#01356:00000063000000000000000000000000
#01352:1300000000000000002300000000000000000000000000000000000000000000
#0135b:0013
#0285b:4300000000000043
#02852:00000033
#04152:1c
#04452:0000000054345434
#04457:00000000000000000024000000240000
#0445a:00004444
#0535a:44
#05352:5800342834000000
#05356:000000000000000000000000000000000000000000000000000000000000000000000000000000000000000000000000000000000000000000000000000000000000000000000000000000000000000000000000000000000000000000000000000000000000000000000000000000000000000000000000000000000000000000000000000000000000000000000000000000000000000000000000000000000000000000000000000000000000000000000000000000000000000000000000000000000000000000000000000000000000000000000000000000000000000000000000000000000000000000000000280000000000000000000000000000000000000000000000000000000000000000000000000000000000000000000000000000000000000000000000000000000000000000000000000000000000000000000000000000000000000000000000000000000000000000000000000000000000000000000000000000000000000000000000000000000000000000000000000000000000000000000000000000000000000000000000000000000000000000000000000000000000000000000000000000000000000000000000000000000000000000000000000000000000000000000000000000000000000000000000006800000000000000000000000000000000000000000000000000000000000000000000000000000000000000000000000000000000000000000000000000000000000000000000000000000000000000000000000000000000000000000000000000000000000000000000000000000000000000000000000000000000000000000000000000000000000000000000000000000000000000000000000000000000000000000000000000000000000000000000000000000000000000000000000000000000000000000000000000000000000000000000000000000000000000000000000000000000000000000000000000000000000000000000000000000000000000000000000000000000000000000000000000000000000000000000000000000000000000000000000000000000000000000000000000000000000000000000000000000000000000000000000000000000000000000000000000000000000000000000000000000000000000000000000000000000000000000000000000000000000000000000000000000000000000000000000000000000000000000000000000000000000000000000000000000000000000000000000000000000000000000000000000000000000000000000000000000000000000000000480000000000000000000000000000000000000000000000000000000000000000000000000000000000000000000000000000000000000000000000000000000000000000000000000000000000000000000000000000000000000000000000000000000000000000000000000000000000000000000000000000000000000000000000000000000000000000000000000000000000000000000000000000000000000000000000000000000000000000000000000000000000000000000000000000000000000000000000000000000000000000000000000000000000000000000000000000000000000000000000000000000000000000000000000000000000000000000000000000000000000000000000000000000000000000000000000000000000000000000000000000000000000000000000000000000000000000000000000000000000000000000000000000000000000000000000000000000000000000000000000000000000000000000000000000000000000000000000000000000000000000000000000000000000000000000000000000000000000000000000000000000000000000000000000000000000000000000000000000000000000000000000000000000000000000000000000000000000000000000000000000000000000000000000000000000000000000000000000000000000000000000000000000000000000000000000000000000000000000000000000000000000000000000000000000000000000000000000000000000000000000000000000000000000000000000000000000000000000000000000000000000000000000000000000000000000000000000000000000000000000000000000000000000000000000000000000000000000000000000000000000000000000000000000000000000000000000000000000000000000000000000000000000000000000000000000000000000000000000000000000000000000000000000000000000000000000000000000000000000000000000000000000000000000000000000000000000000000000000000000000000000000000000000000000000000000000000000000000000000000000000000000000000000000000000000000000000000000000000000000000000000000000000000000000000000000000000000000000000000000000000000000000000000000000000000000000000000000000000000000000000000000000000000000000000000000000000000000000000000000000000000000000000000000000000000000000000000000000000000000
#03353:0000000000000026
#03358:00004666
#03357:0000000000260000
#03352:00005636
#03458:46
#03256:12
#0325c:62
#03258:0000002200000000000000000000000000000000000000000000000000000000
#03156:00530000
#03152:0000005300000000
#0315b:0000000000330000
#03157:0000000000330000
#000350:00160000
#0003b0:0000002300000000
#000351:0000001600000000
#000321:0023
#000360:0000000000000000000000000000000018585858000000000000000000000000
#000390:00000000000000000000000000000000000000000000000000000000000000000055005500550000000000000000000000000000000000005500550055005500
#0003a0:00000000000000000000000000000000000000000000000000000000000000000000000000000054005400540000000000000000000000000000000000000000
#000370:0000000000000000000000000000000000000000575757570000000000000000
#0003b0:00000000000000000000000000000000000000000000000000000000000000000000000000000000000000000053005300530000000000000000000000000000
#000380:0000000000000000000000000000000000000000000000005656565600000000
#0003c0:00000000000000000000000000000000000000000000000000000000000000000000000000000000000000000000000000000052005200520052005200520052
#0013a0:24
#001321:1858585858585858585858585858585828000000000000000000000000000000
#001341:00540054005400540054005400540054005400540054005400540054005400540000000000000000000000000000000000000000000000000000000000000000
#002351:0000000000000000000000000000000016565656260000000000000000000000
#002361:00000000000000000000000000000000000000000000000000000000000000000054005400540054000000000000000000000000000000000000000000000000
#0033a1:1454545424000000000000000000000000000000000000000000000000000000
#003391:00540054005400540000000000000000000000000000000000000000000000000000000000000000000000000000000000000000000000000000000000000000
#003381:0000000000001454545424000000000000000000000000000000000000000000
#003371:00000000000000000000000000540054005400540000000000000000000000000000000000000000000000000000000000000000000000000000000000000000
#003361:0000000000000000000000001454545424000000000000000000000000000000
#003351:00000000000000000000000000000000000000000000000000540054005400540000000000000000000000000000000000000000000000000000000000000000
#004361:13
#004321:0023000000000000
#004370:0013000000000000
#0043b0:00230000
#004321:00000000132300000000000000000000
#004351:0000000000000000000000000000000016565656260000000000000000000000
#004361:00000000000000000000000000000000000000000000000000000000000000000054005400540054000000000000000000000000000000000000000000000000
#005321:1454545424000000000000000000000000000000000000000000000000000000
#005331:00540054005400540000000000000000000000000000000000000000000000000000000000000000000000000000000000000000000000000000000000000000
#005341:0000000000001454545424000000000000000000000000000000000000000000
#005351:00000000000000000000000000540054005400540000000000000000000000000000000000000000000000000000000000000000000000000000000000000000
#005361:0000000000000000000000001454545424000000000000000000000000000000
#005371:00000000000000000000000000000000000000000000000000540054005400540000000000000000000000000000000000000000000000000000000000000000
#006371:13
#0063b1:0023000000000000
#006360:0013000000000000
#006320:00230000
#0063b1:00000000132300000000000000000000
#006361:0000000000000000000000000000000018585858280000000000000000000000
#006371:00000000000000000000000000000000000000000000000000000000000000000056005600560056000000000000000000000000000000000000000000000000
#007361:1454545424000000000000000000000000000000000000000000000000000000
#007371:00520052005200520000000000000000000000000000000000000000000000000000000000000000000000000000000000000000000000000000000000000000
#007361:0000000000001454545424000000000000000000000000000000000000000000
#007371:00000000000000000000000000520052005200520000000000000000000000000000000000000000000000000000000000000000000000000000000000000000
#007361:0000000000000000000000001454545424000000000000000000000000000000
#007371:00000000000000000000000000000000000000000000000000520052005200520000000000000000000000000000000000000000000000000000000000000000
#009371:0000001300000000
#0093b1:000000000000002300000000
#009321:00000013
#009361:0000000000000033
#010321:23
#010381:00130023000000000000000000000000
#010351:00000000000000000013002300000000
#011381:00130023000000000000000000000000
#012371:00130000000000000000000000000000
#0123b1:00000023000000000000000000000000
#012360:00000013000023000000000000000000
#012320:0000000000000000005300000000000000000000000000000000000000000000
#012360:00000000000000000013000000000000
#012320:00000000000000000000002300000000
#012371:00000000000000000000001300002300
#0123b1:0000000000000000000000000000000000000000000000000053000000000000
#013371:00130000000000000000000000000000
#0133b1:00000023000000000000000000000000
#013360:00000013000023000000000000000000
#013320:0000000000000000005300000000000000000000000000000000000000000000
#014360:135300000000000000005353230000000000000000000000000000000000000000000000000000000000000000000000000000000000000000000000000000000000000000000000000000000000000000000000000000000000000000000000
#014350:005500000000000000000000000000000000000000540000000000000000000000000000000000000000000000000000000000000000000000000000000000000000000000000000000000000000000000000000000000000000000000000000000000000000000000000000000000000000000000000000000000000000000000000000000000000000000000000000000000000000000000000000000000000000000000000000000000000000000000000000000000000000000000000000
#014340:000000000000000000000000000000000000000000000056000000000000000000000000000000000000000000000000000000000000000000000000000000000000000000000000000000000000000000000000000000000000000000000000000000000000000000000000000000000000000000000000000000000000000000000000000000000000000000000000000000000000000000000000000000000000000000000000000000000000000000000000000000000000000000000000
#014340:000000000000000000000000000000000000135300000000000000000000000000005353230000000000000000000000000000000000000000000000000000000000000000000000000000000000000000000000000000000000000000000000
#014330:000000000000000000000000000000000000000000000000000000000000000000000000005500000000000000000000000000000000000000000000000000000000000000540000000000000000000000000000000000000000000000000000000000000000000000000000000000000000000000000000000000000000000000000000000000000000000000000000000000000000000000000000000000000000000000000000000000000000000000000000000000000000000000000000
#014320:000000000000000000000000000000000000000000000000000000000000000000000000000000000000000000000000000000000000000000000000000000000000000000000056000000000000000000000000000000000000000000000000000000000000000000000000000000000000000000000000000000000000000000000000000000000000000000000000000000000000000000000000000000000000000000000000000000000000000000000000000000000000000000000000
#014370:000000000000000000000000000000000000000000000000000000000000000000000000000000000000000000000000000000000000000000000000000000000000000000000000000000000000000000000000000000000000000000000000130053000000000000000000000000000000000053545300230000000000000000000000000000000000000000000000000000000000000000000000000000000000000000000000000000000000000000000000000000000000000000000000
#014360:000000000000000000000000000000000000000000000000000000000000000000000000000000000000000000000000000000000000000000000000000000000000000000000000000000000000000000000000000000000000000000000000005500000000000000000000000000000000000000000056000000000000000000000000000000000000000000000000000000000000000000000000000000000000000000000000000000000000000000000000000000000000000000000000
#014390:000000000000000000000000000000000000000000000000000000000000000000000000000000000000000000000000000000000000000000000000000000000000000000000000000000000000000000000000000000000000000000000000000000000000000000000000000000000000000000000000000000000000000000000000130053000000000000000000000000000000000000000000000000000000000053545300230000000000000000000000000000000000000000000000
#014380:000000000000000000000000000000000000000000000000000000000000000000000000000000000000000000000000000000000000000000000000000000000000000000000000000000000000000000000000000000000000000000000000000000000000000000000000000000000000000000000000000000000000000000000000005500000000000000000000000000000000000000000000000000000000000000000056000000000000000000000000000000000000000000000000
#015330:00000013535353532300000000000000
#015340:0000000000000053000000530000005300000000000000000000000000000000
#015320:0000000000000000005300000053000000000000000000000000000000000000
#0153b1:0000001300330023
#015371:00003333
#016321:13
#016371:0023000000000000
#016370:13
#016320:0023000000000000
#016320:0000132300000000
#016361:00140000
#0163a1:0000002400000000
#016361:0013
#0163b1:0000000000230000
#0163b0:0013
#016360:0000000000230000
#0163b0:0000000000001323
#016361:00000014
#016321:0000000000000024
#017371:0000132300000000
#0173b1:00000000005300000000000000000000
#017320:0000001323000000
#017360:00000000000000530000000000000000
#017371:0000000013230000
#0173b1:00000000000000000053000000000000
#018391:140000000000000000000000000000000000000000000000000000000000000000000000000000000000000000000000000000000000000000000000000000000000000000000000000000000000000000000000000000000000000000000000000000000000000000000000000000000000000000000000000000000000000000000000000000000000000000000000000000000000000000000000000000000000000000000000000000000000000000000000000000000000000000000000000000000000000000000000000000000000000000000000000000000000000000000000000000000000000000000000000000000000000000000000000000000000000000000000000000000000000000000000000000000000000000000000000000000000000000000000000000000000000000000000000000000000000000000000000000000000000000000000000000000000000000000000000000000000000000000000000000000000000000000000000000000000000000000000000000000000000000000000000000000000000000000000000000000000000000000000000000000000000000000000000000000000000000000000000000000000000000000000000000000000000000000000000000000000000000000000000000000000000000000000000000000000000000000000000000000000000000000000000000000000000000000000000000000000000000000000000000000000000000000000000000000000000000000000000000000000000000000000000000000000000000000000000000000000000000000000000000000000000000000000000000000000000000000000000000000000000000000000000000000000000000000000000000000000000000000000000000000000000000000000000000000000000000000000000000000000000000000000000000000000000000000000000000000000000000000054000000000000000000000000000000000000000000000000000000000000000000000000000000000000000000000000000000000000000000000000000000000000000000000000000000000000000000000000000000000000000000000000000000000000000000000000000000000000000000000000000000000000000000000000000000000000000000000000000000000000000000000000000000000000000000000000000000000000000000000000000000000000000000000000000000000000000000000000000000000000000000000000000000000000000000000000000000000000000000000000000000000000000000000000000000000000000000000000000000000000000000000000000000000000000000000000000000000000000000000000000000000000000000000000000000000000000000000000000000000000000000000000000000000000000000000000000000000000000000000000000000000000000000000000000000000000000000000000000000000000000000000000000000000000000000000000000000000000000000000000000000000000000000000000000000000000000000000000000000000000000000000000000000000000000000000000000000000000000000000000000000000000000000000000000000000000000000000000000000000000000000000000000000000000000000000000000000000000000000000000000000000000000000000000000000000000000000000000000000000000000000000000000000000000000000000000000000000000000000000000000000000000000000000000000000000000000000000000000000000000000000000000000000000000000000000000000000000000000000000000000000000000000000000000000000000000000000000000000000000000000000000000000000000000000000000000000000000000000000000000000000000000000000000000000000000000000000000000000000000000000000000000000000000000000000000000000000000000000000000000000000000000000000000000000000000000000000000000000000000000000000000000000000000000000000000000000000000000000000000000000000000000000000000000000000000000000000000000000000000000000000000000000000000000000000000000000000000000000000000000000000000000000000000000000000000000000000000000000000000000000000000000000000000000000000000000000000000000000000000000000000000000000000000000000000000000000000000000000000000000000000000000000000000000000000000000000000000000000000000000000000000000000000000000000000000000000000000000000000000000000000000000000000000000000000000000000000000000000000000000000000000000000000000000000000000000000000000000000000000000000000000000000000000000000000000000000000000000000000000000000000000000000000000000000000000000000000000000000000000000000000000000000000000000000000000000000000000000000000000000
#0183a1:000000000000000000000000000000000000000000000000000000000000000000000000000000000000000000000000000000000000000000000000000000000000000000000000000000000000000000000000000000000000000000000000000000000000000000000000000000000000000000000000000000000000000000000000000000000000000000000000000000000000000000000000000000000000000000000000000000000000000000000000000000000000000000000000000000000000000000000000000000000000000000000000000000000000000000000000000000000000000000000000000000000000000000000000000000000000000000000000000000000000000000000000000000000000000000000000000000000000000000000000000000000000000000000000000000000000000000000000000000000000000000000000000000000000000000000000000000000000000000000054000000000000000000000000000000000000000000000000000000000000000000000000000000000000000000000000000000000000000000000000000000000000000000000000000000000000000000000000000000000000000000000000000000000000000000000000000000000000000000000000000000000000000000000000000000000000000000000000000000000000000000000000000000000000000000000000000000000000000000000000000000000000000000000000000000000000000000000000000000000000000000000000000000000000000000000000000000000000000000000000000000000000000000000000000000000000000000000000000000000000000000000000000000000000000000000000000000000000000000000000000000000000000000000000000000000000000000000000000000000000000000000000000000000000000000000000000000000000000000000000000000000000000000000000000000000000000000000000000000000000000000000000000000000000000000000000000000000000000000000000000000000000000000000000000000000000000000000000000000000000000000000000000000000000000000000000000000000000000000000000000000000000000000000000000000000000000000000000000000000000000000000000000000000000000000000000000000000000000000000000000000000000000000000000000000000000000000000000000000000000000000000000000000000000000000000000000000000000000000000000000000000000000000000000000000000000000000000000000000000000000000000000000000000000000000000000000000000000000000000000000000000000000000000000000000000000000000000000000000000000000000000000000000000000000000000000000000000000000000000000000000000000000000000000000000000000000000000000000000000000000000000000000000000000000000000000000000000000000000000000000000000000000000000000000000000000000000000000000000000000000000000000000000000000000000000000000000000000000000000000000000000000000000000000000000000000000000000000000000000000000000000000000000000000000000000000000000000000000000000000000000000000000000000000000000000000000000000000000000000000000000000000000000000000000000000000000000000000000000000000000000000000000000000000000000000000000000000000000000000000000000000000000000000000000000000000000000000000000000000000000000000000000000000000000000000000000000000000000000000000000000000000000000000000000000000000000000000000000000000000000000000000000000000000000000000000000000000000000000000000000000000000000000000000000000000000000000000000000000000000000000000000000000000000000000000000000000000000000000000000000000000000000000000000000000000000000000000000000000000000000000000000000000000000000000000000000000000000000000000000000000000000000000000000000000000000000000000000000000000000000000000000000000000000000000000000000000000000000000000000000000000000000000000000000000000000000000000000000000000000000000000000000000000000000000000000000000000000000000000000000000000000000000000000000000000000000000000000000000000000000000000000000000000000000000000000000000000000000000000000000000000000000000000000000000000000000000000000000000000000000000000000000000000000000000000000000000000000000000000000000000000000000000000000000000000000000000000000000000000000000000000000000000000000000000000000000000000000000000000000000000000000000000000000000000000000000000000000000000000000
#018381:000000000000000000000000000000000000000000000000000000000000000000000000000000000000000000000000000000000000000000000000000000000000000000000000000000000000000000000000000000000000000000000000000000000000000000000000000000000000000000000000000000000000000000000000000000000000000000000000000000000000000000000000000000000000000000000000000000000000000000000000000000000000000000000000000000000000000000000000000000000000000000000000000000000000000000000000000000000000000000000000000000000000000000000000000000000000000000000000000000000000000000000000000000000000000000000000000000000000000000000000000000000000000000000000000000000000000000000000000000000000000000000000000000000000000000000000000000000000000000000000340000000000000000000000000000000000000000000000000000000000000000000000000000000000000000000000000000000000000000000000000000000000000000000000000000000000000000000000000000000000000000000000000000000000000000000000000000000000000000000000000000000000000000000000000000000000000000000000000000000000000000000000000000000000000000000000000000000000000000000000000000000000000000000000000000000000000000000000000000000000000000000000000000000000000000000000000000000000000000000000000000000000000000000000000000000000000000000000000000000000000000000000000000000000000000000000000000000000000000000000000000000000000000000000000000000000000000000000000000000000000000000000000000000000000000000000000000000000000000000000000000000000000000000000000000000000000000000000000000000000000000000000000000000000000000000000000000000000000000000000000000000000000000000000000000000000000000000000000000000000000000000000000000000000000000000000000000000000000000000000000000000000000000000000000000000000000000000000000000000000000000000000000000000000000000000000000000000000000000000000000000000000000000000000000000000000000000000000000000000000000000000000000000000000000000000000000000000000000000000000000000000000000000000000000000000000000000000000000000000000000000000000000000000000000000000000000000000000000000000000000000000000000000000000000000000000000000000000000000000000000000000000000000000000000000000000000000000000000000000054000000000000000000000000000000000000000000000000000000000000000000000000000000000000000000000000000000000000000000000000000000000000000000000000000000000000000000000000000000000000000000000000000000000000000000000000000000000000000000000000000000000000000000000000000000000000000000000000000000000000000000000000000000000000000000000000000000000000000000000000000000000000000000000000000000000000000000000000000000000000000000000000000000000000000000000000000000000000000000000000000000000000000000000000000000000000000000000000000000000000000000000000000000000000000000000000000000000000000000000000000000000000000000000000000000000000000000000000000000000000000000000000000000000000000000000000000000000000000000000000000000000000000000000000000000000000000000000000000000000000000000000000000000000000000000000000000000000000000000000000000000000000000000000000000000000000000000000000000000000000000000000000000000000000000000000000000000000000000000000000000000000000000000000000000000000000000000000000000000000000000000000000000000000000000000000000000000000000000000000000000000000000000000000000000000000000000000000000000000000000000000000000000000000000000000000000000000000000000000000000000000000000000000000000000000000000000000000000000000000000000000000000000000000000000000000000000000000000000000000000000000000000000000000000000000000000000000000000000000000000000000000000000000000000000000000000000000000000000000000000000000000000000000000000000000000000000000000000000000000000000000000000000000000000000000000000000000000000000000000000000000000000000000000000000000000000000000000000000000000000000000000000000000000000000000000000000000000000000000000000
#018371:0000003400002400
#018361:00000000000000000034000000000000
#019331:140000000000000000000000000000000000000000000000000000000000000000000000000000000000000000000000000000000000000000000000000000000000000000000000000000000000000000000000000000000000000000000000000000000000000000000000000000000000000000000000000000000000000000000000000000000000000000000000000000000000000000000000000000000000000000000000000000000000000000000000000000000000000000000000000000000000000000000000000000000000000000000000000000000000000000000000000000000000000000000000000000000000000000000000000000000000000000000000000000000000000000000000000000000000000000000000000000000000000000000000000000000000000000000000000000000000000000000000000000000000000000000000000000000000000000000000000000000000000000000000000000000000000000000000000000000000000000000000000000000000000000000000000000000000000000000000000000000000000000000000000000000000000000000000000000000000000000000000000000000000000000000000000000000000000000000000000000000000000000000000000000000000000000000000000000000000000000000000000000000000000000000000000000000000000000000000000000000000000000000000000000000000000000000000000000000000000000000000000000000000000000000000000000000000000000000000000000000000000000000000000000000000000000000000000000000000000000000000000000000000000000000000000000000000000000000000000000000000000000000000000000000000000000000000000000000000000000000000000000000000000000000000000000000000000000000000000000000000000000000054000000000000000000000000000000000000000000000000000000000000000000000000000000000000000000000000000000000000000000000000000000000000000000000000000000000000000000000000000000000000000000000000000000000000000000000000000000000000000000000000000000000000000000000000000000000000000000000000000000000000000000000000000000000000000000000000000000000000000000000000000000000000000000000000000000000000000000000000000000000000000000000000000000000000000000000000000000000000000000000000000000000000000000000000000000000000000000000000000000000000000000000000000000000000000000000000000000000000000000000000000000000000000000000000000000000000000000000000000000000000000000000000000000000000000000000000000000000000000000000000000000000000000000000000000000000000000000000000000000000000000000000000000000000000000000000000000000000000000000000000000000000000000000000000000000000000000000000000000000000000000000000000000000000000000000000000000000000000000000000000000000000000000000000000000000000000000000000000000000000000000000000000000000000000000000000000000000000000000000000000000000000000000000000000000000000000000000000000000000000000000000000000000000000000000000000000000000000000000000000000000000000000000000000000000000000000000000000000000000000000000000000000000000000000000000000000000000000000000000000000000000000000000000000000000000000000000000000000000000000000000000000000000000000000000000000000000000000000000000000000000000000000000000000000000000000000000000000000000000000000000000000000000000000000000000000000000000000000000000000000000000000000000000000000000000000000000000000000000000000000000000000000000000000000000000000000000000000000000000000000000000000000000000000000000000000000000000000000000000000000000000000000000000000000000000000000000000000000000000000000000000000000000000000000000000000000000000000000000000000000000000000000000000000000000000000000000000000000000000000000000000000000000000000000000000000000000000000000000000000000000000000000000000000000000000000000000000000000000000000000000000000000000000000000000000000000000000000000000000000000000000000000000000000000000000000000000000000000000000000000000000000000000000000000000000000000000000000000000000000000000000000000000000000000000000000000000000000000000000000000000000000000000000000000000000000000000000000000000000000000000000000000000000000000000000000000000000000000000000000000
#019321:000000000000000000000000000000000000000000000000000000000000000000000000000000000000000000000000000000000000000000000000000000000000000000000000000000000000000000000000000000000000000000000000000000000000000000000000000000000000000000000000000000000000000000000000000000000000000000000000000000000000000000000000000000000000000000000000000000000000000000000000000000000000000000000000000000000000000000000000000000000000000000000000000000000000000000000000000000000000000000000000000000000000000000000000000000000000000000000000000000000000000000000000000000000000000000000000000000000000000000000000000000000000000000000000000000000000000000000000000000000000000000000000000000000000000000000000000000000000000000000054000000000000000000000000000000000000000000000000000000000000000000000000000000000000000000000000000000000000000000000000000000000000000000000000000000000000000000000000000000000000000000000000000000000000000000000000000000000000000000000000000000000000000000000000000000000000000000000000000000000000000000000000000000000000000000000000000000000000000000000000000000000000000000000000000000000000000000000000000000000000000000000000000000000000000000000000000000000000000000000000000000000000000000000000000000000000000000000000000000000000000000000000000000000000000000000000000000000000000000000000000000000000000000000000000000000000000000000000000000000000000000000000000000000000000000000000000000000000000000000000000000000000000000000000000000000000000000000000000000000000000000000000000000000000000000000000000000000000000000000000000000000000000000000000000000000000000000000000000000000000000000000000000000000000000000000000000000000000000000000000000000000000000000000000000000000000000000000000000000000000000000000000000000000000000000000000000000000000000000000000000000000000000000000000000000000000000000000000000000000000000000000000000000000000000000000000000000000000000000000000000000000000000000000000000000000000000000000000000000000000000000000000000000000000000000000000000000000000000000000000000000000000000000000000000000000000000000000000000000000000000000000000000000000000000000000000000000000000000000000000000000000000000000000000000000000000000000000000000000000000000000000000000000000000000000000000000000000000000000000000000000000000000000000000000000000000000000000000000000000000000000000000000000000000000000000000000000000000000000000000000000000000000000000000000000000000000000000000000000000000000000000000000000000000000000000000000000000000000000000000000000000000000000000000000000000000000000000000000000000000000000000000000000000000000000000000000000000000000000000000000000000000000000000000000000000000000000000000000000000000000000000000000000000000000000000000000000000000000000000000000000000000000000000000000000000000000000000000000000000000000000000000000000000000000000000000000000000000000000000000000000000000000000000000000000000000000000000000000000000000000000000000000000000000000000000000000000000000000000000000000000000000000000000000000000000000000000000000000000000000000000000000000000000000000000000000000000000000000000000000000000000000000000000000000000000000000000000000000000000000000000000000000000000000000000000000000000000000000000000000000000000000000000000000000000000000000000000000000000000000000000000000000000000000000000000000000000000000000000000000000000000000000000000000000000000000000000000000000000000000000000000000000000000000000000000000000000000000000000000000000000000000000000000000000000000000000000000000000000000000000000000000000000000000000000000000000000000000000000000000000000000000000000000000000000000000000000000000000000000000000000000000000000000000000000000000000000000000000000000000000000000000000000000000000000000000000000000000000000000000000000000000000000000000000000000000000000000000000000000000
#019341:000000000000000000000000000000000000000000000000000000000000000000000000000000000000000000000000000000000000000000000000000000000000000000000000000000000000000000000000000000000000000000000000000000000000000000000000000000000000000000000000000000000000000000000000000000000000000000000000000000000000000000000000000000000000000000000000000000000000000000000000000000000000000000000000000000000000000000000000000000000000000000000000000000000000000000000000000000000000000000000000000000000000000000000000000000000000000000000000000000000000000000000000000000000000000000000000000000000000000000000000000000000000000000000000000000000000000000000000000000000000000000000000000000000000000000000000000000000000000000000000340000000000000000000000000000000000000000000000000000000000000000000000000000000000000000000000000000000000000000000000000000000000000000000000000000000000000000000000000000000000000000000000000000000000000000000000000000000000000000000000000000000000000000000000000000000000000000000000000000000000000000000000000000000000000000000000000000000000000000000000000000000000000000000000000000000000000000000000000000000000000000000000000000000000000000000000000000000000000000000000000000000000000000000000000000000000000000000000000000000000000000000000000000000000000000000000000000000000000000000000000000000000000000000000000000000000000000000000000000000000000000000000000000000000000000000000000000000000000000000000000000000000000000000000000000000000000000000000000000000000000000000000000000000000000000000000000000000000000000000000000000000000000000000000000000000000000000000000000000000000000000000000000000000000000000000000000000000000000000000000000000000000000000000000000000000000000000000000000000000000000000000000000000000000000000000000000000000000000000000000000000000000000000000000000000000000000000000000000000000000000000000000000000000000000000000000000000000000000000000000000000000000000000000000000000000000000000000000000000000000000000000000000000000000000000000000000000000000000000000000000000000000000000000000000000000000000000000000000000000000000000000000000000000000000000000000000000000000000000000054000000000000000000000000000000000000000000000000000000000000000000000000000000000000000000000000000000000000000000000000000000000000000000000000000000000000000000000000000000000000000000000000000000000000000000000000000000000000000000000000000000000000000000000000000000000000000000000000000000000000000000000000000000000000000000000000000000000000000000000000000000000000000000000000000000000000000000000000000000000000000000000000000000000000000000000000000000000000000000000000000000000000000000000000000000000000000000000000000000000000000000000000000000000000000000000000000000000000000000000000000000000000000000000000000000000000000000000000000000000000000000000000000000000000000000000000000000000000000000000000000000000000000000000000000000000000000000000000000000000000000000000000000000000000000000000000000000000000000000000000000000000000000000000000000000000000000000000000000000000000000000000000000000000000000000000000000000000000000000000000000000000000000000000000000000000000000000000000000000000000000000000000000000000000000000000000000000000000000000000000000000000000000000000000000000000000000000000000000000000000000000000000000000000000000000000000000000000000000000000000000000000000000000000000000000000000000000000000000000000000000000000000000000000000000000000000000000000000000000000000000000000000000000000000000000000000000000000000000000000000000000000000000000000000000000000000000000000000000000000000000000000000000000000000000000000000000000000000000000000000000000000000000000000000000000000000000000000000000000000000000000000000000000000000000000000000000000000000000000000000000000000000000000000000000000000000000000000000000000000000
#019351:0000003400002400
#019361:00000000000000000034000000000000
#020391:140000000000000000000000000000000000000000000000000000000000000000000000000000000000000000000000000000000000000000000000000000000000000000000000000000000000000000000000000000000000000000000000000000000000000000000000000000000000000000000000000000000000000000000000000000000000000000000000000000000000000000000000000000000000000000000000000000000000000000000000000000000000000000000000000000000000000000000000000000000000000000000000000000000000000000000000000000000000000000000000000000000000000000000000000000000000000000000000000000000000000000000000000000000000000000000000000000000000000000000000000000000000000000000000000000000000000000000000000000000000000000000000000000000000000000000000000000000000000000000000000000000000000000000000000000000000000000000000000000000000000000000000000000000000000000000000000000000000000000000000000000000000000000000000000000000000000000000000000000000000000000000000000000000000000000000000000000000000000000000000000000000000000000000000000000000000000000000000000000000000000000000000000000000000000000000000000000000000000000000000000000000000000000000000000000000000000000000000000000000000000000000000000000000000000000000000000000000000000000000000000000000000000000000000000000000000000000000000000000000000000000000000000000000000000000000000000000000000000000000000000000000000000000000000000000000000000000000000000000000000000000000000000000000000000000000000000000000000000000000054000000000000000000000000000000000000000000000000000000000000000000000000000000000000000000000000000000000000000000000000000000000000000000000000000000000000000000000000000000000000000000000000000000000000000000000000000000000000000000000000000000000000000000000000000000000000000000000000000000000000000000000000000000000000000000000000000000000000000000000000000000000000000000000000000000000000000000000000000000000000000000000000000000000000000000000000000000000000000000000000000000000000000000000000000000000000000000000000000000000000000000000000000000000000000000000000000000000000000000000000000000000000000000000000000000000000000000000000000000000000000000000000000000000000000000000000000000000000000000000000000000000000000000000000000000000000000000000000000000000000000000000000000000000000000000000000000000000000000000000000000000000000000000000000000000000000000000000000000000000000000000000000000000000000000000000000000000000000000000000000000000000000000000000000000000000000000000000000000000000000000000000000000000000000000000000000000000000000000000000000000000000000000000000000000000000000000000000000000000000000000000000000000000000000000000000000000000000000000000000000000000000000000000000000000000000000000000000000000000000000000000000000000000000000000000000000000000000000000000000000000000000000000000000000000000000000000000000000000000000000000000000000000000000000000000000000000000000000000000000000000000000000000000000000000000000000000000000000000000000000000000000000000000000000000000000000000000000000000000000000000000000000000000000000000000000000000000000000000000000000000000000000000000000000000000000000000000000000000000000000000000000000000000000000000000000000000000000000000000000000000000000000000000000000000000000000000000000000000000000000000000000000000000000000000000000000000000000000000000000000000000000000000000000000000000000000000000000000000000000000000000000000000000000000000000000000000000000000000000000000000000000000000000000000000000000000000000000000000000000000000000000000000000000000000000000000000000000000000000000000000000000000000000000000000000000000000000000000000000000000000000000000000000000000000000000000000000000000000000000000000000000000000000000000000000000000000000000000000000000000000000000000000000000000000000000000000000000000000000000000000000000000000000000000000000000000000000000000000000000000
#0203a1:000000000000000000000000000000000000000000000000000000000000000000000000000000000000000000000000000000000000000000000000000000000000000000000000000000000000000000000000000000000000000000000000000000000000000000000000000000000000000000000000000000000000000000000000000000000000000000000000000000000000000000000000000000000000000000000000000000000000000000000000000000000000000000000000000000000000000000000000000000000000000000000000000000000000000000000000000000000000000000000000000000000000000000000000000000000000000000000000000000000000000000000000000000000000000000000000000000000000000000000000000000000000000000000000000000000000000000000000000000000000000000000000000000000000000000000000000000000000000000000054000000000000000000000000000000000000000000000000000000000000000000000000000000000000000000000000000000000000000000000000000000000000000000000000000000000000000000000000000000000000000000000000000000000000000000000000000000000000000000000000000000000000000000000000000000000000000000000000000000000000000000000000000000000000000000000000000000000000000000000000000000000000000000000000000000000000000000000000000000000000000000000000000000000000000000000000000000000000000000000000000000000000000000000000000000000000000000000000000000000000000000000000000000000000000000000000000000000000000000000000000000000000000000000000000000000000000000000000000000000000000000000000000000000000000000000000000000000000000000000000000000000000000000000000000000000000000000000000000000000000000000000000000000000000000000000000000000000000000000000000000000000000000000000000000000000000000000000000000000000000000000000000000000000000000000000000000000000000000000000000000000000000000000000000000000000000000000000000000000000000000000000000000000000000000000000000000000000000000000000000000000000000000000000000000000000000000000000000000000000000000000000000000000000000000000000000000000000000000000000000000000000000000000000000000000000000000000000000000000000000000000000000000000000000000000000000000000000000000000000000000000000000000000000000000000000000000000000000000000000000000000000000000000000000000000000000000000000000000000000000000000000000000000000000000000000000000000000000000000000000000000000000000000000000000000000000000000000000000000000000000000000000000000000000000000000000000000000000000000000000000000000000000000000000000000000000000000000000000000000000000000000000000000000000000000000000000000000000000000000000000000000000000000000000000000000000000000000000000000000000000000000000000000000000000000000000000000000000000000000000000000000000000000000000000000000000000000000000000000000000000000000000000000000000000000000000000000000000000000000000000000000000000000000000000000000000000000000000000000000000000000000000000000000000000000000000000000000000000000000000000000000000000000000000000000000000000000000000000000000000000000000000000000000000000000000000000000000000000000000000000000000000000000000000000000000000000000000000000000000000000000000000000000000000000000000000000000000000000000000000000000000000000000000000000000000000000000000000000000000000000000000000000000000000000000000000000000000000000000000000000000000000000000000000000000000000000000000000000000000000000000000000000000000000000000000000000000000000000000000000000000000000000000000000000000000000000000000000000000000000000000000000000000000000000000000000000000000000000000000000000000000000000000000000000000000000000000000000000000000000000000000000000000000000000000000000000000000000000000000000000000000000000000000000000000000000000000000000000000000000000000000000000000000000000000000000000000000000000000000000000000000000000000000000000000000000000000000000000000000000000000000000000000000000000000000000000000000000000000000000000000000000000000000000000000000000000000000000000000000000
#020381:000000000000000000000000000000000000000000000000000000000000000000000000000000000000000000000000000000000000000000000000000000000000000000000000000000000000000000000000000000000000000000000000000000000000000000000000000000000000000000000000000000000000000000000000000000000000000000000000000000000000000000000000000000000000000000000000000000000000000000000000000000000000000000000000000000000000000000000000000000000000000000000000000000000000000000000000000000000000000000000000000000000000000000000000000000000000000000000000000000000000000000000000000000000000000000000000000000000000000000000000000000000000000000000000000000000000000000000000000000000000000000000000000000000000000000000000000000000000000000000000340000000000000000000000000000000000000000000000000000000000000000000000000000000000000000000000000000000000000000000000000000000000000000000000000000000000000000000000000000000000000000000000000000000000000000000000000000000000000000000000000000000000000000000000000000000000000000000000000000000000000000000000000000000000000000000000000000000000000000000000000000000000000000000000000000000000000000000000000000000000000000000000000000000000000000000000000000000000000000000000000000000000000000000000000000000000000000000000000000000000000000000000000000000000000000000000000000000000000000000000000000000000000000000000000000000000000000000000000000000000000000000000000000000000000000000000000000000000000000000000000000000000000000000000000000000000000000000000000000000000000000000000000000000000000000000000000000000000000000000000000000000000000000000000000000000000000000000000000000000000000000000000000000000000000000000000000000000000000000000000000000000000000000000000000000000000000000000000000000000000000000000000000000000000000000000000000000000000000000000000000000000000000000000000000000000000000000000000000000000000000000000000000000000000000000000000000000000000000000000000000000000000000000000000000000000000000000000000000000000000000000000000000000000000000000000000000000000000000000000000000000000000000000000000000000000000000000000000000000000000000000000000000000000000000000000000000000000000000000000054000000000000000000000000000000000000000000000000000000000000000000000000000000000000000000000000000000000000000000000000000000000000000000000000000000000000000000000000000000000000000000000000000000000000000000000000000000000000000000000000000000000000000000000000000000000000000000000000000000000000000000000000000000000000000000000000000000000000000000000000000000000000000000000000000000000000000000000000000000000000000000000000000000000000000000000000000000000000000000000000000000000000000000000000000000000000000000000000000000000000000000000000000000000000000000000000000000000000000000000000000000000000000000000000000000000000000000000000000000000000000000000000000000000000000000000000000000000000000000000000000000000000000000000000000000000000000000000000000000000000000000000000000000000000000000000000000000000000000000000000000000000000000000000000000000000000000000000000000000000000000000000000000000000000000000000000000000000000000000000000000000000000000000000000000000000000000000000000000000000000000000000000000000000000000000000000000000000000000000000000000000000000000000000000000000000000000000000000000000000000000000000000000000000000000000000000000000000000000000000000000000000000000000000000000000000000000000000000000000000000000000000000000000000000000000000000000000000000000000000000000000000000000000000000000000000000000000000000000000000000000000000000000000000000000000000000000000000000000000000000000000000000000000000000000000000000000000000000000000000000000000000000000000000000000000000000000000000000000000000000000000000000000000000000000000000000000000000000000000000000000000000000000000000000000000000000000000000000000000000000
#020371:0000003400002400
#020361:00000000000000000034000000000000
#0223a1:1454000054540000
#022381:00000054000000540000005400000000
#022361:0000545400005454
#0233a1:24
#023351:00130000
#023321:00000000005300530000000000000000
#023361:0034
#0233b1:00000000000000000053000023000000
#023380:00130000
#0233b0:00000000005300530000000000000000
#023360:000000000000000000000000000000000000000000000000000000000000000000000000000000000000000000000000000000000000000000000000000000000000000000000000000000000000000000000000000000000000000000000000005400000000000000000000000000000000000000000000000000000000000000000000000000000000000000000000000000000000000000000000000000000000000000000000000000000000000000000000000000000000000000000000
#023320:00000000000000000053000023000000
#024360:13
#0243b0:0023000000000000
#024321:13330000
#024371:0033002300000000
#024360:00130000
#0243b0:0000002300000000
#025370:13
#025320:0023000000000000
#0253b1:13330000
#025361:0033002300000000
#025370:00130000
#025320:0000002300000000
#026370:00000013002300000000000000000000
#0263b0:00530000
#026360:00000000000000000000001300230000
#026320:00000053
#029370:00123300
#0293b0:0000005200530000
#029360:00000034
#0293a0:0000000000000054
#030350:25
#029321:00120000
#029361:0000002200000000
#029321:0013
#029361:0000000000230000
#029321:00000014
#029361:0000000000000024
#030320:0000001300230000
#030360:0053
#030370:00000013
#0303b0:00000000000000000000000000530000
#030380:0000000000000023
#030351:0000000000000013
#030321:00000000000000000000000000000053
#031361:23
#031361:00130000
#0313b1:00000000005300000000230000000000
#031320:0000001300000000
#031370:00000000000000530000230000000000
#0323c0:12000022000000000000000000000000
#032380:0000005200000000000000000000000000000000000000000000000000000000
#0323c0:0012
#032360:0000000000520000
#032350:00000000000000000000003200000000
#032340:00000052
#032380:0000000000000022
#032361:0012
#0323a1:0000000000520000
#032391:00000000000000000000003200000000
#032381:00000052
#032321:0000000000000022
#033361:1222000000000000
#033381:00000012002200000000000000000000
#033321:00001626
#033371:0000000000560000
#033380:00000016
#033330:0000000000000056
#034380:26
#034321:130000000000000000000000000000335353330000000000000000000000000000330000000000000000000000000000
#034371:000000530000535353535353330000000000000000000000335353330000000000000000000000000000330000000053
#034381:000000000000000000000000005300530053005300530053000000000000000000000000000000000000000000000000000000000000000000000000000000000000000000000000000000000000000000000000000000000000000000000000
#034331:000000000000000000000000000000000000000000000000000000000000005300530053000000000000000000000000000000000000000000000000000000000000000000000000000000000000000000000000000000000000000000000000
#034361:000000000000000000000000000000000000000000000000000000000000000000000000000000000000000000000000005300530053000000000000000000000000000000000000000000000000330000000000000000000000000000000000
#034341:00000033
#035361:330000000000330000000000000000000053000000000000000000000000000000000000000000000000000000000000
#035351:005300000000000000000000330000000000000000000053000000000000000000000000000000000000000000000000
#035381:000000000053000000000000000000000000000000000000000000000000000000000000000000000000000000000000
#035341:000000000000005300000000000000000000330000000000000000000000000000000000000000000000000000000000
#035371:000000000000000000000053000000000000000000000000000000000000000000000000330000000000000000000000
#035331:000000000000000000000000000000000000000000000000000053000000000000000000000000000000000000000000330000530053005300530053005300530053000000000000000000000000000000000000000000000000000000000000
#035321:000000000000000000000000000000000000005300000000005353535353535353330000000000530000230000000000
#0363b1:130000000000000000000000000000335353330000000000000000000000000000000000000000000000000000000000
#036361:000000530000535353335353330000000000000000000000335353330000000000000053000000000000000000000053
#036371:000000000000000000000000005300530053005300530053000000000000000000000000000000000000000000000000005300530053000000000000000000000000000000000000330000000000000000000000330000000000000000000000
#0363a1:000000000000000000000000000000000000000000000000000000000000005300530053000000000000000000000000000000000000000000000000000000000000000000000000000000000000000000000000000000000000000000000000
#036381:000000000000000000000000000000000000000000000000000000000000000000000000005300000000000000000000
#036351:000000000000000000000000000000000000000000000000000000000000000000000000000000000053000000000000
#036391:000000000000000000000000000000000000000000000000000000000000000000000000000000000000005300000000
#037381:330000000000000000000000000000000000000000000000005300530053000000000000000000000000000000000000000000000000000000000000000000000000000000000000000000000000000000000000000000000000000000000000
#0373a1:000053000000000000000000000000000000000000000000000000000000000000000000005300530053000000000000000000000000000000000000000000000000000000000000000000000000000000000000000000000000000000000000
#037371:000000000053000000000000335353330000000000000000000000000000000000000000000000000000000000000000
#037391:0033000000000000
#0373b1:000000000000005300000000000000000000335353330000000000000000000000000000000000530000230000000000
#037361:000000000000000000000000000000000000000000000000000000335353535353535353330000000000000000000000
#037351:000000000000000000000000000000000000000000000000000000000000000000000000000000000000000000000000000000000000005300530053005300530053005300530053000000000000000000000000000000000000000000000000
#041321:0019000023000000
#041350:0019
#0413b0:0000000000000023
#0423c0:12
#043320:26
#042321:12
#043381:26
#0433a1:0000000014240000
#043351:00000000000000000054000000000000
#0433a1:0000000000001424
#043351:00000000000000000000000000540000
#044321:0000000014240000
#044371:00000000000000000054000000000000
#044321:0000000000001424
#044371:00000000000000000000000000540000
#045361:00000000000000000000001300000000
#045321:00000000000000000000000000230000
#046371:00000013000000000000000000000000
#0463b1:00000000002300000000000000000000
#047371:00130000
#047321:0000002300000000
#047360:0000001300000000
#0473b0:0023
#048360:00130000
#0483b0:0000002300000000
#048371:0000001300000000
#048321:0023
#048371:00000012
#048331:0000000000000052
#049361:33342500
#049321:0053005400000000
#0483c0:00000012
#048380:0000000000000022
#0493b0:13
#049370:0023000000000000
#0493a0:00140000
#049360:0000002400000000
#0493b1:0000000000000013
#050371:53
#0503b1:0023000000000000
#050361:00130000
#050321:00000000005300000000000000000000
#050351:0000002300000000
#050380:0000001300000000
#0503b0:00000000000000530000000000000000
#050370:0023
#050370:00000013
#050320:00000000000000000000000000530000
#051320:0023000000000000
#0503b1:0000000000000013
#050361:00000000000000000000000000000053
#051361:0023000000000000
#051321:00000000000000001200002200000000
#051361:0000000000000000000000000000000000000052000000000000000000000000
#052321:12
#052381:0052000000000000
#052391:00000032000000000000000000000000
#0523a1:00520000
#052361:0000002200000000
#052380:12
#052340:0052000000000000
#052350:00000032000000000000000000000000
#052360:00520000
#0523c0:0000002200000000
#052380:0000000012220000
#052360:00000000000000000000001200220000
#053320:180000000000000000000000000000000000000000000000000000000000000000000000000000000000000000000000000000000000000000000000000000000000000000000000000000000000000000000000000000000000000000000000000000000000000000000000000000000000000000000000000000000000000000000000000000000000000000000000000000000000000000000000000000000000000000000000000000000000000000000000000000000000000000000000000000000000000000000000000000000000000000000000000000000000000000000000000000000000000000000000000000000000000000000000000000000000000000000000000000000000000000000000000000000000000000000000000000000000000000000000000000000000000000000000000000000000000000000000000000000000000000000000000000000000000000000000000000000000000000000000000000000000000000000000000000000000000000000000000000000000000000000000000000000000000000000000000000000000000000000000000000000000000000000000000000000000000000000000000000000000000000000000000000000000000000000000000000000000000000000058240000000000000000000000000000000000000000000000000000000000000000000000000000000000000000000000000000000000000000000000000000000000000000000000000000000000000000000000000000000000000000000000000000000000000000000000000000000000000000000000000000000000000000000000000000000000000000000000000000000000000000000000000000000000000000000000000000000000000000000000000000000000000000000000000000000000000000000000000000000000000000000000000000000000000000000000000000000000000000000000000000000000000000000000000000000000000000000000000000000000000000000000000000000000000000000000000000000000000000000000000000000000000000000000000000000000000000000000000000000000000000000000000000000000000000000000000000000000000000000000000000000000000000000000000000000000000000000000000000000000000000000000000000000000000000000000000000000000000000000000000000000000000000000000000000000000000000000000000000000000000000000000000000000000000000000000000000000000000000000000000000000000000000000000000000000000000000000000000000000000000000000000000000000000000000000000000000000000000000000000000000000000000000000000000000000000000000000000000000000000000000000000000000000000000000000000000000000000000000000000000000000000000000000000000000000000000000000000000000000000000000000000000000000000000000000000000000000000000000000000000000000000000000000000000000000000000000000000000000000000000000000000000000000000000000000000000000000000000000000000000000000000000000000000000000000000000000000000000000000000000000000000000000000000000000000000000000000000000000000000000000000000000000000000000000000000000000000000000000000000000000000000000000000000000000000000000000000000000000000000000000000000000000000000000000000000000000000000000000000000000000000000000000000000000000000000000000000000000000000000000000000000000000000000000000000000000000000000000000000000000000000000000000000000000000000000000000000000000000000000000000000000000000000000000000000000000000000000000000000000000000000000000000000000000000000000000000000000000000000000000000000000000000000000000000000000000000000000000000000000000000000000000000000000000000000000000000000000000000000000000000000000000000000000000000000000000000000000000000000000000000000000000000000000000000000000000000000000000000000000000000000000000000000000000000000000000000000000000000000000000000000000000000000000000000000000000000000000000000000000000000000000000000000000000000000000000000000000000000000000000000000000000000000000000000000000000000000000000000000000000000000000000000000000000000000000000000000000000000000000000000000000000000000000000000000000000000000000000000000000000000000000000000000000000000000000000000000000000000000000000000000000000000000000000000000000000000000000000000000000000000000000000000000000000000000000000000000000000000000000000000000000000000000000000000000000000000000000000000000000
#053360:0058000000000000
#0533a1:00140000
#053361:000000000000000000000000000000000000000000000000000000000000000000000000000000000000000000000000000000000000000000000000000000000000000000000000000000000000000000000000000000000000000000000000000000000000000000000000000000000000000000000000000000000000000000000000000000000000000000000000000000000000000000000000000000000000000000000000000000000000000000000000000000000000000000000000000000000000000000000000000000000000000000000000000000000000000000000000000000000000000000000000000000000000000000000000000000000000000000000000000000000000000000000000000000000000000000000000000000000000000000000000000000000000000000000000000000000000000000000000000000000000000000000000000000000000000000000000000000000000000000000000000000000000000000000000000000000000000000000000000000000000000000000000000000000000000000000000000000000000000000000000000000000000000000000000000000000000000000000000000000000000000000000000000000000000000000000000000000000000000000000000005800000000000000000000000000000000000000000000000000000000000000000000000000000000000000000000000000000000000000000000000000000000000000000000000000000000000000000000000000000000000000000000000000000000000000000000000000000000000000000000000000000000000000000000000000000000000000000000000000000000000000000000000000000000000000000000000000000000000000000000000000000000000000000000000000000000000000000000000000000000000000000000000000000000000000000000000000000000000000000000000000000000000000000000000000000000000000000000000000000000000000000000000000000000000000000000000000000000000000000000000000000000000000000000000000000000000000000000000000000000000000000000000000000000000000000000000000000000000000000000000000000000000000000000000000000000000000000000000000000000000000000000000000000000000000000000000000000000000000000000000000000000000000000000000000000000000000000000000000000000000000000000000000000000000000000000000000000000000000000000280000000000000000000000000000000000000000000000000000000000000000000000000000000000000000000000000000000000000000000000000000000000000000000000000000000000000000000000000000000000000000000000000000000000000000000000000000000000000000000000000000000000000000000000000000000000000000000000000000000000000000000000000000000000000000000000000000000000000000000000000000000000000000000000000000000000000000000000000000000000000000000000000000000000000000000000000000000000000000000000000000000000000000000000000000000000000000000000000000000000000000000000000000000000000000000000000000000000000000000000000000000000000000000000000000000000000000000000000000000000000000000000000000000000000000000000000000000000000000000000000000000000000000000000000000000000000000000000000000000000000000000000000000000000000000000000000000000000000000000000000000000000000000000000000000000000000000000000000000000000000000000000000000000000000000000000000000000000000000000000000000000000000000000000000000000000000000000000000000000000000000000000000000000000000000000000000000000000000000000000000000000000000000000000000000000000000000000000000000000000000000000000000000000000000000000000000000000000000000000000000000000000000000000000000000000000000000000000000000000000000000000000000000000000000000000000000000000000000000000000000000000000000000000000000000000000000000000000000000000000000000000000000000000000000000000000000000000000000000000000000000000000000000000000000000000000000000000000000000000000000000000000000000000000000000000000000000000000000000000000000000000000000000000000000000000000000000000000000000000000000000000000000000000000000000000000000000000000000000000000000000000000000000000000000000000000000000000000000000000000000000000000000000000000000000000000000000000000000000000000000000000000000000000000000000000000000000000000000000000000000000000000000000000000000000000000000000000000000000000000
#053321:0000005800000000
