This file was generated by Ched 2.7.0.0.
#TITLE ""
#ARTIST ""
#DESIGNER ""
#DIFFICULTY 0
#PLAYLEVEL
#SONGID ""
#WAVE ""
#WAVEOFFSET 0
#JACKET ""
#REQUEST "ticks_per_beat 480"
#00002: 4
#BPM01: 132
#00008: 01
#TIL00: ""
#HISPEED 00
#MEASUREHS 00
#0021a:0014
#00214:00000014
#00210:0041
#0031a:14
#00312:0014
#00318:00000014
#0041a:0014
#00412:14
#00414:00000014
#00518:14000014
#00512:0014
#0101a:14
#01018:0014
#01014:00140000
#01012:00000014
#01010:41
#01118:14
#0111a:0014
#01114:00140000
#01212:14
#01214:0014
#0121a:00000014
#01218:00140000
#01312:0014
#01314:14
#01318:00140000
#0161a:14140000
#01612:00002424
#00614:14000014
#00618:0014
#0071a:14
#00714:0014
#00718:00000014
#00812:14
#0081a:00140000
#01718:1414
#01714:00140014
#01710:41
#02112:1414
#0211a:00140014
#02612:00140000
#02614:00000014
#0261a:24
#02618:0024
#02912:00140000
#02918:0014
#02914:00000014
#0341a:0014
#03414:00000014
#0341f:11
#03412:26
#0351a:14140000
#03514:00001414
#03612:0014
#03618:00000014
#0361a:24
#03712:14140000
#03718:00001414
#0381a:0014
#03814:00000014
#03812:24
#03912:0014
#03918:00000014
#0391a:24
#04115:00140000
#0441a:00001414
#04412:14
#04410:0041
#0451a:00000014
#04518:14
#04512:0024
#04618:00140000
#04614:24
#04612:0024
#0481a:00000014
#04914:1400000000003414
#04918:00140000
#04912:0024
#04913:0000000000340000
#05018:0000000000003414
#0501a:0014
#05019:0000000000340000
#03018:0000341400000000
#0301a:24
#03019:0034000000000000
#03010:00000041
#03114:0000341400000000
#03112:14
#03113:0034000000000000
#02512:14140000
#02514:0014
#0241a:0014
#02418:24240000
#02410:41
#0401a:00140000
#04016:0014
#04012:24000024
#04015:0000000000000034
#02312:24
#0271a:24
#03312:0026
#03318:00000026
#04314:00002424
#0431f:0021
#05318:2626
#05312:00260000
#01513:00340000
#01512:0034
#01419:00340000
#0141a:0034
#02352:14
#03452:16
#04155:00240000
#04052:00000054
#05358:1616
#05352:00160000
#03352:0016
#03358:00000016
#0505a:0054
#05058:0000000000000054
#04952:0064
#04954:0000000000000064
#03058:0000005400000000
#0305a:54
#03154:0000006400000000
#03152:64
#04354:00000054
#0445a:00000064
#04452:24
#04558:24
#0245a:0024
#02458:00640000
#02552:00540000
#02554:0024
#000390:0000143434000000
#001390:24
#001330:0014
#002330:00240000
#008340:0014
#009340:34000034000034000000000024000000
#014380:14
#014390:00340000
#0143a0:00003424
#015340:14
#015330:00340000
#015320:00003424
#0183a0:14
#018390:0000003400000000
#018380:00000024
#019340:14
#019330:0000003400000000
#019320:00000024
#0203a0:14
#020390:0000003400000000
#020380:00000024
#022320:14343434
#023320:24
#024380:00140024
#0243a0:0054
#025320:00140024
#025340:0054
#027320:00140034
#027340:0034
#028340:24
#0283a0:00140034
#028380:0034
#029380:24
#0303a0:14000024
#030390:0034000000000000
#030380:0000343400000000
#031320:14000024
#031330:0034000000000000
#031340:0000343400000000
#032390:14
#033390:24
#040320:00000014
#040350:0000000000000034
#041350:00540000
#041320:00000024
#042380:16
#043390:00240000
#043340:00000014
#044320:54
#044340:00240000
#0443a0:00000014
#045380:54
#0453a0:00240000
#0463a0:00000014
#047380:3424
#0473a0:00340000
#047320:00000014
#048340:3424
#048320:00340000
#049320:0014
#049330:0000000000340000
#049340:0000000000003434
#050320:00240000
#0503a0:0014
#050390:0000000000340000
#050380:0000000000003434
#0513a0:00240000
#051330:0014
#052330:0024
