This file was generated by Ched 2.7.0.0.
#TITLE ""
#ARTIST ""
#DESIGNER ""
#DIFFICULTY 0
#PLAYLEVEL
#SONGID ""
#WAVE ""
#WAVEOFFSET 0
#JACKET ""
#REQUEST "ticks_per_beat 480"
#00002: 4
#BPM01: 148
#00008: 01
#TIL00: ""
#HISPEED 00
#MEASUREHS 00
#00018:14
#00114:14
#0021a:14
#00312:14
#00418:14
#00514:14
#00814:14
#00810:41
#00918:14
#01012:14
#0111a:14
#01214:14
#01318:14
#0161a:14
#0171a:14
#01710:41
#01814:14
#01914:14
#02418:14
#02518:14
#02612:14
#02712:14
#02710:41
#0321a:14
#0321f:11
#03314:14
#03612:14
#03718:14
#04012:0016
#04018:26
#0401f:21
#04218:0016
#04212:26
#04418:1616
#04412:00160000
#04512:1616
#04518:00160000
#04618:16
#04612:0016
#04818:0016
#04812:26
#05012:0016
#05018:26
#05212:1616
#05218:00160000
#05210:41
#05318:1616
#05312:00160000
#05412:16
#05418:0016
#05812:14
#05918:14
#06014:14
#06010:41
#0611a:14
#04110:41
#0063a0:1400000000000034
#0073a0:00000024
#014320:1400000000000034
#015320:0034340034240000
#0203a0:14
#0213a0:24
#022340:14
#023340:24
#028380:14
#029380:24
#030320:1400000000000034
#031320:0024
#0343a0:14
#0353a0:24
#038320:14
#039320:24
#041380:1626
#043320:1626
#047380:1626
#049320:1626
#051380:1626
#055320:1626
#056380:16
#057380:36362600
#062330:14
#063330:24
#064390:14
#064380:0000000000000036
#065380:0036363636363636
#066380:36
#073390:24
