This file was generated by Ched 2.7.0.0.
#TITLE ""
#ARTIST ""
#DESIGNER ""
#DIFFICULTY 0
#PLAYLEVEL
#SONGID ""
#WAVE ""
#WAVEOFFSET 0
#JACKET ""
#REQUEST "ticks_per_beat 480"
#00002: 4
#BPM01: 148
#00008: 01
#TIL00: ""
#HISPEED 00
#MEASUREHS 00
#0001b:1300000000000013
#00016:00130000000000000000000000001300
#00017:00000013000000000000000000000000
#00012:00130013
#00015:00000000000000130000000000000000
#00018:0000001313000000
#00112:0013000013000000
#00116:00000000001300000000000000000000
#00117:0013000013000000
#0011b:00000000001300000000000013000000
#00316:0013000013000000
#00312:00130013
#00317:00000000001300000000000000000000
#0031b:0013000013000000
#0081b:00130000000000130000000013000000
#00812:00000013000000001300000000001300
#00817:0000130000000013
#00816:2300001300000000
#00810:41
#00916:0013000000001300
#0091b:0013000000000000
#00915:00000000001300000000000000000000
#00917:0013
#01017:00130000000000000000000013000000
#01016:00000013000000000000000000001300
#0101b:0000130000000013
#01012:2300001300000000
#01018:00000000000000130000000000000000
#01015:0013
#01112:00001300001300000000000013000000
#01117:0013000000000000
#0111b:0013
#01615:00000013000000130000000000000000
#0161b:00001300000000001333333300000000
#01618:0000131300000000
#01612:00000000001300000000000013333333
#0171a:0013000000130000
#01716:00130000000000000013000000001300
#01715:00000013000000000000001300000000
#01717:00130000
#01712:00000000001300000000000000000000
#01718:0000001300000000
#01713:00000000000000130000000000000000
#0171b:1313
#01710:41
#02017:00001300000000000000001300130000
#0201b:0000131313000000
#02016:00000000001300130000000000000000
#02012:0013000000131313
#0211a:0013000000000000
#02116:00000013000000000000131300000000
#02119:00130000
#02115:00000000001300000000000000000000
#02118:0000001300000000
#02114:00000000000000130000000000000000
#02117:0013
#0211b:00000000000000000000331300000000
#02112:0000000000000013
#02217:0013000000000000
#02219:00130000
#0221b:0000001300000013
#02212:0000000000130000
#02214:00130013
#02216:1300001300000013
#02319:13000000000000130000000000000000
#02317:0013000000000000
#02314:00130000
#02316:00000000000013000000002400000000
#02312:0013000024000000
#0231a:0000000000000024
#02418:00000013000000130000000013000000
#02412:00001300000013000033333300000000
#02415:00131300
#0241b:00000000001300000000000000333333
#02514:0013001300130000
#0251b:00130000000000000013000000001300
#02519:00000013000000130000001300000000
#02512:00130000
#02517:00000000001300000000000000000000
#02516:1313
#03015:00130000
#03018:0000001300000000
#0301b:0000000013001313
#03012:0013000000130000
#03016:00000000000000000000000000130000
#03017:0000000000130000
#03112:0013130023000000
#03117:00000013000000002300000000000000
#0311b:0000001300000013
#03116:0000001300000000
#03218:1300001313000000
#03215:1300000013000013
#03212:00000013000000000000000000000000
#0321b:00000000000000000000001300000000
#0321f:11
#0331b:0013
#03318:1300001300130013
#03315:13000013
#03312:00000013000000000000000000000000
#0341b:13130013
#03417:0013
#03419:0000000000000013
#03412:1313
#03416:00130000
#03517:13
#03519:00000013000000000000000000000000
#0351b:0000001300000013
#03512:13
#03514:00000013000000000000000000000000
#03516:0000001300000000
#03618:00000013000000000000000000000000
#03615:23130000
#0361b:0000001300000013
#03612:0000001300130000
#03619:00000013
#03616:0000000000000013
#03712:00001300000000000000001300000000
#03715:00130000
#03718:0000001300000000
#0371b:0013
#03716:0000000000000013
#03717:00000000000000000000001300000000
#03818:13
#0381b:0000000000130000
#0381a:00000013
#03819:0000000000000013
#03812:13
#03918:13
#03912:0013000000000000000000000000000000000000000000000000000000000000
#0391b:00000013
#04012:2300000023000013
#04017:2300000023000013
#0401f:21
#0411b:0013000000130000
#04117:0000130000000013
#04118:00000000000000130000000000000000
#04112:00130000
#04110:41
#04217:1300000013000013
#0421b:00000013000000000000001300000000
#04216:00130013
#04212:13000000000000130000000000001300
#04316:13
#04318:0013001300130000
#04315:0000130013000013
#0431b:1300000013000013
#04312:0000000000130000
#04412:0013000000000013
#04418:00000000130000130000000000000000
#04415:00000000000013000013000013000000
#04612:0013000000000013
#04615:00130013
#04618:0000001300130013
#0461b:0013
#0471b:0013000000232300
#04715:0013000000000000
#04712:0000001300000000
#04717:0000002300000000
#04716:0000000000330000
#0561b:1300001200000000
#05619:0012
#05617:0000000000120012
#05615:13000012
#05719:1212
#0571c:00120012
#05715:2222
#05712:00220000
#0601b:13000013
#06017:0000000000000013
#06016:00000013
#06012:0000000000000013
#06010:41
#06117:0013000000001300
#0611b:0000001300000000
#06116:0000001300000000
#06112:0013000000000000
#06417:1300000013000013
#06416:00130013
#06412:0000000013000013
#0641b:00130000
#06512:0000000013131313
#0651b:0023000013131313
#06518:00230000
#06515:0000002300000000
#00212:1300000000000013
#00217:00130000000000000000000000001300
#00216:00000013000000000000000000000000
#0021b:00130013
#00218:00000000000000130000000000000000
#00215:0000001313000000
#00417:1300001313000013
#00412:00130000000000130000000000001300
#0041b:00000013000000000000000000000000
#00416:00130013
#0051b:0013000013000000
#00517:00000000001300000000000000000000
#00516:0013000013000000
#00512:00000000001300000000000000000000
#00616:1300001313000013
#0061b:00130000000000130000000000001300
#00612:00000013000000000000000000000000
#00617:00130013
#00716:00000000001300000000000000000000
#00712:0013000000000000
#00717:0013000000000000
#0071b:00000000001300000000000000000000
#00718:0000000014140000
#00714:00000000000000000014001400000000
#0071a:00000024
#01516:0013000013000000
#01517:0000130000130000
#0151a:0024000024000000
#01512:0000240000240000
#01818:00000013000000130000000000000000
#01812:00001300000000001333333300000000
#01815:0000131300000000
#0181b:00000000001300000000000013333333
#01913:0013000000130000
#01917:00130000000000000013000000001300
#01918:00000013000000000000001300000000
#01916:00130000
#0191b:00000000001300000000000000000000
#01915:0000001300000000
#0191a:00000000000000130000000000000000
#01912:1313
#02615:00000013000000130000000013000000
#0261b:00001300000013000033333300000000
#02618:00131300
#02612:00000000001300000000000000333333
#02719:0013001300130000
#02712:00130000000000000013000000001300
#02714:00000013000000130000001300000000
#0271b:00130000
#02716:00000000001300000000000000000000
#02717:1313
#02710:41
#02816:0013000000000000
#02812:00000000130000000013000000000000
#0281b:0013001300001300
#02815:00000000000000130000001300130000
#02818:0000000013130013
#02912:00001300000000000013000000000000
#02917:00000013000000000000130000000000
#02914:00000000130000000000001300000000
#02919:00000000001300000000000013000000
#02916:00000000000013000000000000130000
#0291b:00000000000000130000000000001300
#0451b:0013000000000013
#04515:00000000130000130000000000000000
#04518:00000000000013000013000013000000
#0481b:2300000023000013
#04816:2300000023000013
#04912:0013000000130000
#04916:0000130000000013
#04915:00000000000000130000000000000000
#0491b:00130000
#05016:1313
#05012:00000013000000000000001300000000
#05017:00130013
#0501b:13000000000000130000000000000000
#05018:00000000000000000000000000000013
#05116:00000000130000000000001300000000
#05112:0013
#05115:13
#05117:00000000000000130000000000000000
#0511b:00000013000000000000001300000000
#05218:0013000000001300
#05212:00000000130000130000000000000000
#05217:00000000000013000013000000000000
#0521b:0000130000000013
#05210:41
#05315:0013000000001300
#0531b:00000000130000130000000000000000
#05316:00000000000013000013000000000000
#05312:0000130000000013
#0541b:0013000000000013
#05418:00130013
#05415:0000001300130013
#05412:0013
#05512:0013000000000000
#05515:0000001300000000
#05518:0000130000130013
#0551b:0000001300001300
#0581b:0013
#05817:00000000000000000000001300000000
#05812:00000000000000000000001300000000
#05912:0013
#05916:13000000000000000000001300000000
#0591b:00000000000000000000001300000000
#06216:13
#0621b:13
#06217:0013
#06213:00130013
#06212:0013
#06316:1300000000130000
#06312:00130000
#06317:00130000
#0631b:00001313
#0661b:13
#06612:13
#01212:00130000000000130000000013000000
#0121b:00000013000000001300000000001300
#01216:0000130000000013
#01217:2300001300000000
#01317:0013000000001300
#01312:0013000000000000
#01318:00000000001300000000000000000000
#01316:0013
#01416:00130000000000000000000013000000
#01417:00000013000000000000000000001300
#01412:0000130000000013
#0141b:2300001300000000
#01415:00000000000000130000000000000000
#01418:0013
#03952:0053000000000000000000000000000000000000000000000000000000000000
#03956:00000013
#0395b:00000013
#03852:53
#00058:0053
#00152:0053000053000000
#00156:00000000005300000000000013000000
#00255:0063
#00357:00000013
#0035b:0053
#00457:0053
#0055b:0053000053000000
#00557:00000000005300000000000013000000
#00556:0053
#00552:00000013
#00656:0063
#00752:0053000000000000
#00756:00000000005300000000000000000000
#0075a:00000014
#00852:0000000053000013
#0095b:0053000000001300
#00955:00000000005300000000000000000000
#00957:0053
#01055:0053
#0105b:0000000000000013
#01157:0053000000001300
#01152:00000000005300000000000000000000
#0115b:0053
#0165b:0053
#01652:00000063
#01852:0063
#0185b:00000053
#02052:0053000000000013
#0205b:0063
#0215b:00000000000000000000005300000000
#02156:00000000000000000000005300000000
#02157:0053
#02152:0000000000000053
#02256:23
#0225b:0000005300000000
#02455:0053
#02458:00000063
#02658:0063
#02655:00000053
#0285b:0063000000000000
#02858:0000000000000013
#0295b:00000000000000530000000000001300
#0305b:0000000000000013
#03255:53
#03252:00000023000000000000000000000000
#03258:0063
#0325b:00000000000000000000002300000000
#03355:53
#03352:00000023000000000000000000000000
#03456:00530000
#03452:1353
#0355b:0000005300000000
#03556:0000005300000000
#0365b:0000005300000000
#0375b:0053
#03757:00000000000000000000005300000000
#04052:5300000053000053
#04057:5353
#04252:13
#04658:0000000000000013
#04652:0000000000000013
#0475b:0013000000000000
#04755:0013000000000000
#04752:0000005300000000
#0485b:6300000063000063
#04856:6363
#0505b:13
#05152:0000000053000013
#0515b:00000000000000000000005300000000
#05156:00000000000000000000005300000000
#05157:0000000000000013
#0545b:0000000000000013
#05455:0000000000000013
#05555:0000005300000000
#05759:5252
#0575c:00520022
#0585b:0053
#05857:00000000000000000000005300000000
#05852:00000000000000000000005300000000
#05952:0063
#05956:00000000000000000000006300000000
#0595b:00000000000000000000006300000000
#0605b:00000053
#06056:00000053
#06057:0000000000000023
#06052:0000000000000023
#06156:0000005300000000
#0615b:0000005300000000
#0625b:53
#06257:0023
#06352:00530000
#06356:0000000000230000
#0645b:00530000
#06457:0023
#0665b:53
#06652:63
#0125b:0000000063000013
#01352:0063000000001300
#01358:00000000006300000000000000000000
#01356:0063
#01458:0063
#01452:0000000000000013
#000380:0013
#0003b0:00000023
#001320:0013000033000000
#001360:00000000003300000000000023000000
#002350:0013
#002320:00000023
#0033b0:0013
#003370:00000023
#004370:0013
#0043b0:00000023
#0053b0:0013000033000000
#005370:00000000003300000000000023000000
#005361:0013
#005321:00000023
#006361:0013
#006321:00000023
#007321:0013000023000000
#007361:00000000003300000000000000000000
#008321:0013
#008361:00000023
#0093b1:0013000000000000
#009381:00000000002300000000000000000000
#009350:00000000001300000000000000000000
#009320:0023
#009371:0013
#0093b1:00000023
#010351:0013
#010321:00000023
#011371:0013000000000000
#0113b1:00000000002300000000000000000000
#011320:00000000001300000000000000000000
#011360:0023
#0113b1:0013
#011371:00000023
#0123b1:0013
#012371:00000023
#013321:0013000000000000
#013351:00000000002300000000000000000000
#013380:00000000001300000000000000000000
#0133b0:0023
#013361:0013
#013321:00000023
#014381:0013
#0143b1:00000023
#0163b1:00000000000000001333333300000000
#016371:00000023
#016320:00000000000000000000000013333333
#017360:23
#017370:00000013
#017390:00000000000000000000000000330000
#0173b0:0000000000000023
#018320:00000000000000001333333300000000
#018360:00000023
#0183b1:00000000000000000000000013333333
#019371:23
#019361:00000013
#019341:00000000000000000000000000330000
#019321:0000000000000023
#020321:0013000000000000
#020361:00230000
#0203b1:0013
#020371:0000000000230000
#021371:0000000013000023
#0213b1:00000000000000000000333300000000
#021360:00000000000000000000001300000000
#021320:0000000000000033
#022360:53
#022320:0023000000000000
#0223b0:0000001300000000
#022370:0000000000230000
#024350:0013
#024320:00000000000000000033333323000000
#024381:00000013
#0243b1:00000000000000000000000000333333
#0253b1:23
#025321:00000013
#025341:00000000000000000000000000330000
#025361:0000000000000023
#026381:0013
#0263b1:00000000000000000033333323000000
#026350:00000013
#026320:00000000000000000000000000333333
#027320:23
#0273b0:00000013
#027390:00000000000000000000000000330000
#027370:0000000000000023
#0283b0:0013000000000000
#028370:00230000
#0293b0:00000000000000130000000000000000
#029370:00000000000000000023000000000000
#032350:1300002300000000
#032320:00000053000000000000000000000000
#032380:0000000013000023
#0323b0:00000000000000000000005300000000
#033350:1300002300000000
#033320:00000053000000000000000000000000
#034360:00130023
#034320:0033
#035360:0000001300000000
#035320:00000023
#0353b1:0000001300000000
#035371:00000023
#0363b1:0000001300000000
#036371:0000000000230000
#0373b1:0000000013000023
#037371:00000000000000000000003300000000
#038321:130000000000000000000000000000000000000000000000000000000000000000000000000000000000000000000000000000000000000000000000000000000000000000000000000000000000000000000000000000000000000000000000000000000000000000000000000000000000000000000000000000000000000000000000000000000000000000000000000000000000000000000000000000000000000000000000000000000000000000000000000000000000000000000000000000000000000000000000000000000000000000000000000000000000000000000000000000000000000000000000000000000000000000000000000000000000000000000000000000000000000000000000000000000000000000000000000000000000000000000000000000000000000000000000000000000000000000000000000000000000000000000000000000000000000000000000000000000000000000000000000000000000000000000000000000000000000000000000000000000000000000000000000000000000000000000000000000000000000000000000000000000000000000000000000000000000000000000000000000000000000000000000000000000000000000000000000000000000000000000000000000000000000000000000000000000000000000000000000000000000000000000000000000000000000000000000000000000000000000000000000000000000000000000000000000000000000000000000000000000000000000000000000000000000000000000000000000000000000000000000000000000000000000000000000000000000000000000000000000000000000000000000000000000000000000000000000000000000000000000000000000000000000000000000000000000000000000000000000000000000000000000000000000000000000000000000000000000000000000000000000000000000000000000000000000000000000000000000000000000000000000000000000000000000000000000000000000000000000000000000000000000000000000000000000000000000000000000000000000000000000000000000000000000000000000000000000000000000000000000000000000000000000000000000000000000000000000000000000000000000000000000000000000000000000000000000000000000000000000000000000000000000000000000000000000000000000000000000000000000000000000000000000000000000000000000000000000000000000000000000000000000000000000000000000000000000000000000000000000000000000000000000000000000000000000000000000000000000000000000000000000000000000000000000000000000000000000000000000000000000000000000000000000000000000000000000000000000000000000000000000000000000000000000000000000000000000000000000000000000000000000000000000000000000000000000000000000000000000000000000000000000000000000000000000000000000000000000000000000000000000000000000000000000000000000000000000000000000000000000000000000000000000000000000000000000000000000000000000000000000000000000000000000000000000000000000000000000000000000000000000000000000000000000000000000000000000000000000000000000000000000000000000000000000000000000000000000000000000000000000000000000000000000000000000000000000000000000000000000000000000000000000000000000000000000000000000000000000000000000000000000000000000000000000000000000000000000000000000000000000000000000000000000000000000000000000000000000000000000000000000000000000000000000000000000000000000000000000000000000000000000000000000000000000000000000000000000000000000000000000000000000000000000000000000000000000000000000000000000000000000000000000000000000000000000000000000000000000000000000000000000000000000000000000000000000000000000000000000000000000000000000000000000000000000000000000000000000000000000000000000000000000000000000000000000000000000000000000000000000000000000000000000000000000000000000000000000000000000000000000000000000000000000000000000000000000000000000000000000000000000000000000000000000000000000000000000000000000000000000000000000000000000000000000000000000000000000000000000000000000000000000000000000000000000000000000000000000000000000000000000000000000000000000000000000000000000000000000000000000000000000000000000000000000000000000000000000000000000000000000005400000000000000000000000000000000000000000000000000000000000000000000000000000000000000000000000000000000000000000000
#038361:0000000000000000000000000000000000000053000000000000000000000000
#038351:000000000000000000000000000000000000000000000000000000000000000000000000000000000000000000000000000000000000000000000000000000000000000000000000000000000000000000000000000000000000000000000000000000000000000000000000000000000000000000000000000000000000000000000000000000000000000000000000000000000000000000000000000000000000000000000000000000000000000000000000000000000000000000000000000000000000000000000000000000000000000000000000000000000000000000000000000000000000000000000000000000000000000000000000000000000000000000000000000000000000000000000000000000000000000000000000000000000000000000000000000000000000000000000000000000000000000000000000000000000000000000000000000000000000000000000000000000000000000000000000000000000000000000000000000000000000000000000000000000000000000000000000000000000000000000000000000000000000000000000000000000000000000000000000000000000000000000000000000000000000000000000000000000000000000000000000000000000000000000000000000000000000000000000000000000000000000000000000000000000000000000000000000000000000000000000000000000000000000000000000000000000000000000000000000000000000000000000000000000000000000000000000000000000000000000000000000000000000000000000000000000000000000000000000000000000000000000000000000000000000000000000000000000000000000000000000000000000000000000000000000000000000000000000000000000000000000000000000000000000000000000000000000000000000000000000000000000000000000000000000000000000000000000000000000000000000000000000000000000000000000000000000000000000000000000000000000000000000000000000000000000000000000000000000000000000000000000000000000000000000000000000000000000000000000000000000000000000000000000000000000000000000000000000000000000000000000000000000000000000000000000000000000000000000000000000000000000000000000000000000000000000000000000000000000000000000000000000000000000000000000000000000000000000000000000000000000000000000000000000000000000000000000000000000000000000000000000000000000000000000000000000000000000000000000000000000000000000000000000000000000000000000000000000000000000000000000000000000000000000000000000000000000000000000000000000000000000000000000000000000000000000000000000000000000000000000000000000000000000000000000000000000000000000000000000000000000000000000000000000000005400000000000000000000000000000000000000000000000000000000000000000000000000000000000000000000000000000000000000000000340000000000000000000000000000000000000000000000000000000000000000000000000000000000000000000000000000000000000000000054530000000000000000000000000000000000000000000000000000000000000000000000000000000000000000000000000000000000000000000000000000000000000000000000000000000000000000000000000000000000000000000000000000000000000000000000000000000000000000000000530000000000000000000000000000000000000000000000000000000000000000000000000000000000000000000000000000000000000000000000000000000000000000000000000000000000000000000000000000000000000000000000000000000000000000000000000000000000000000000000000000000000000000000000000000000000000000000000000000000000000000000000000000000000000000000000000000000000000000000000000000000000000000000000000000000000000000000000000000000000000000000000000000000000000000000000000000000000000000000000000000000000000000000000000000000000000000000000000000000000000000000000000000000000000000000000000000000000000000000000000000000000000000000000000000000000000000000000000000000000000000000000000000000000000000000000000000000000000000000000000000000000000000000000000000000000000000000000000000000000000000000000000000000000000000000000000000000000000000000000000000000000000000000000000000000000000000000000000000000000000000000000000000000000000000000000000000000000000000000000000000000000000000000000000000000000000000000000000000000000000000000000000000000000000000000000000000000000000000000000
#038341:000000000000000000000000000000000000000000000000000000000000000000000000000000000000000000000000000000000000000000000000000000000000000000000000000000000000000000000000000000000000000000000000000000000000000000000000000000000000000000000000000000000000000000000000000000000000000000000000000000000000000000000000000000000000000000000000000000000000000000000000000000000000000000000000000000000000000000000000000000000000000000000000000000000000000000000000000000000000000000000000000000000000000000000000000000000000000000000000000000000000000000000000000000000000000000000000000000000000000000000000000000000000000000000000000000000000000000000000000000000000000000000000000000000000000000000000000000000000000000000000000000000000000000000000000000000000000000000000000000000000000000000000000000000000000000000000000000000000000000000000000000000000000000000000000000000000000000000000000000000000000000000000000000000000000000000000000000000000000000000000000000000000000000000000000000000000000000000000000000000000000000000000000000000000000000000000000000000000000000000000000000000000000000000000000000000000000000000000000000000000000000000000000000000000000000000000000000000000000000000000000000000000000000000000000000000000000000000000000000000000000000000000000000000000000000000000000000000000000000000000000000000000000000000000000000000000000000000000000000000000000000000000000000000000000000000000000000000000000000000000000000000000000000000000000000000000000000000000000000000000000000000000000000000000000000000000000000000000000000000000000000000000000000000000000000000000000000000000000000000000000000000000000000000000000000000000000000000000000000000000000000000000000000000000000000000000000000000000000000000000000000000000000000000000000000000000000000000000000000000000000000000000000000000000000000000000000000000000000000000000000000000000000000000000000000000000000000000000000000000000000000000000000000000000000000000000000000000000000000000000000000000000000000000000000000000000000000000000000000000000000000000000000000000000000000000000000000000000000000000000000000000000000000000000000000000000000000000000000000000000000000000000000000000000000000000000000000000000000000000000000000000000000000000000000000000000000000000000000000000000000000000000000000000000000000000000000000000000000000000000000000000000000000000000000000000000000000000000000000000000000000000000000000000000000000000000000000000000000000000000000000000000000000000000000000000000000000000000000000000000000000000000000000000000000000000000000000000000000000000000000000000000000000000000000000000000000000000000000000000000000000000000000000000000000000000000000000000000000000000000000000000000000000000000000000000000000000000000000000000000005400000000000000000000000000000000000000000000000000000000000000000000000000000000000000000000000000000000000000000000340000000000000000000000000000000000000000000000000000000000000000000000000000000000000000000000000000000000000000000054530000000000000000000000000000000000000000000000000000000000000000000000000000000000000000000000000000000000000000000000000000000000000000000000000000000000000000000000000000000000000000000000000000000000000000000000000000000000000000000000530000000000000000000000000000000000000000000000000000000000000000000000000000000000000000000000000000000000000000000000000000000000000000000000000000000000000000000000000000000000000000000000000000000000000000000000000000000000000000000000000000000000000000000000000000000000000000000000000000000000000000000000000000000000000000000000000000000000000000000000000000000000000000000000000000000000000000000000000000000000000000000000000000000000000000000000000000000000000000000000000000000000000000000000000000000000000000000000000000000000000000000000000000000000000000000000000000000000000000000000
#038331:000000000000000000000000000000000000000000000000000000000000000000000000000000000000000000000000000000000000000000000000000000000000000000000000000000000000000000000000000000000000000000000000000000000000000000000000000000000000000000000000000000000000000000000000000000000000000000000000000000000000000000000000000000000000000000000000000000000000000000000000000000000000000000000000000000000000000000000000000000000000000000000000000000000000000000000000000000000000000000000000000000000000000000000000000000000000000000000000000000000000000000000000000000000000000000000000000000000000000000000000000000000000000000000000000000000000000000000000000000000000000000000000000000000000000000000000000000000000000000000000000000000000000000000000000000000000000000000000000000000000000000000000000000000000000000000000000000000000000000000000000000000000000000000000000000000000000000000000000000000000000000000000000000000000000000000000000000000000000000000000000000000000000000000000000000000000000000000000000000000000000000000000000000000000000000000000000000000000000000000000000000000000000000000000000000000000000000000000000000000000000000000000000000000000000000000000000000000000000000000000000000000000000000000000000000000000000000000000000000000000000000000000000000000000000000000000000000000000000000000000000000000000000000000000000000000000000000000000000000000000000000000000000000000000000000000000000000000000000000000000000000000000000000000000000000000000000000000000000000000000000000000000000000000000000000000000000000000000000000000000000000000000000000000000000000000000000000000000000000000000000000000000000000000000000000000000000000000000000000000000000000000000000000000000000000000000000000000000000000000000000000000000000000000000000000000000000000000000000000000000000000000000000000000000000000000000000000000000000000000000000000000000000000000000000000000000000000000000000000000000000000000000000000000000000000000000000000000000000000000000000000000000000000000000000000000000000000000000000000000000000000000000000000000000000000000000000000000000000000000000000000000000000000000000000000000000000000000000000000000000000000000000000000000000000000000000000000000000000000000000000000000000000000000000000000000000000000000000000000000000000000000000000000000000000000000000000000000000000000000000000000000000000000000000000000000000000000000000000000000000000000000000000000000000000000000000000000000000000000000000000000000000000000000000000000000000000000000000000000000000000000000000000000000000000000000000000000000000000000000000000000000000000000000000000000000000000000000000000000000000000000000000000000000000000000000000000000000000000000000000000000000000000000000000000000000000000000000000000000000000000000000000000000000000000000000000000000000000000000000000000000000000000000000000000000000000000000000000000000000000000000000000000000000000000000000000000000000000000000000000000000000000000000000000000000000000000000000000000000000000000000000000000000000000000000000000000000000000000000000000000000000000000000000000000000000000000000000000000000000000000000000000000000000000000000000000000000000000000000000000000000000000000000000000000000000000000000000000000000000000005400000000000000000000000000000000000000000000000000000000000000000000000000000000000000000000000000000000000000000000340000000000000000000000000000000000000000000000000000000000000000000000000000000000000000000000000000000000000000000054530000000000000000000000000000000000000000000000000000000000000000000000000000000000000000000000000000000000000000000000000000000000000000000000000000000000000000000000000000000000000000000000000000000000000000000000000000000000000000000000530000000000000000000000000000000000000000000000000000000000000000000000000000000000000000000000000000000000000000000000
#039321:340000000000000000000000000000000000000000000000000000000000000000000000000000000000000000000000000000000000000000000054530000000000000000000000000000000000000000000000000000000000000000000000000000000000000000000000000000000000000000000000000000000000000000000000000000000000000000000000000000000000000000000000000000000000000000000000000000000000000000000000000000000000000000000000000000000000000000000000000000000000000000000000000000000000000000000000000000000000000000000000000000000000000000000000000000000000000000000000000000000000000000000000000000000000000000000000000000000000000000000000000000000000000000000000000000000000000000000000000000000000000000000000000000000000000000000000000000000000000000000000000000000000000000000000000000000000000000000000000000000000000000000000000000000000000000000000000000000000000000000000000000000000000000000000000000000000000000000000000000000000000000000000000000000000000000000000000000000000000000000000000000000000000000000000000000000000000000000000000000000000000000000000000000000000000000000000000000000000000000000000000000000000000000000000000000000000000000000000000000000000000000000000000000000000000000000000000000000000000000000000000000000000000000000000000000000000000000000000000000000000000000000000000000000000000000000000000000000000000000000000000000000000000000000000000000000000000000000000000000000000000000000000000000000000000000000000000000000000000000000000000000000000000000000000000000000000000000000000000000000000000000000000000000000000000000000000000000000000000000000000000000000000000000000000000000000000000000000000000000000000000000000000000000000000000000000000000000000000000000000000000000000000000000000000000000000000000000000000000000000000000000000000000000000000000000000000000000000000000000000000000000000000000000000000000000000000000000000000000000000000000000000000000000000000000000000000000000000000000000000000000000000000000000000000000000000000000000000000000000000000000000000000000000000000000000000000000000000000000000000000000000000000000000000000000000000000000000000000000000000000000000000000000000000000000000000000000000000000000000000000000000000000000000000000000000000000000000000000000000000000000000000000000000000000000000000000000000000000000000000000000000000000000000000000000000000000000000000000000000000000000000000000000000000000000000000000000000000000000000000000000000000000000000000000000000000000000000000000000000000000000000000000000000000000000000000000000000000000000000000000000000000000000000000000000000000000000000000000000000000000000000000000000000000000000000000000000000000000000000000000000000000000000000000000000000000000000000000000000000000000000000000000000000000000000000000000000000000000000000000000000000000000000000000000000000000000000000000000000000000000000000000000000000000000000000000000000000000000000000000000000000000000000000000000000000000000000000000000000000000000000000000000000000000000000000000000000000000000000000000000000000000000000000000000000000000000000000000000000000000000000000000000000000000000000000000000000000000000000000000000000000000000000000000000000000000000000000000000000000000000000000000000000000000000000000000000000000000000000000000000000000000000000000000000000000000000000000000000000000000000000000000000000000000000000000000000000000000000000000000000000000000000000000000000000000000000000000000000000000000000000000000000000000000000000000000000000000000000000000000000000000000000000000000000000000000000000000000000000000000000000000000000000000000000000000000000000000000000000000000000000000000000000000000000000000000000000000000000000000000000000000000000000000000000000000000000000000000000000000000000000000000000000000000000000000000000000000000000000000000000000000000000000000000000000000000000000000000000000000000000
#039361:00000023
#040371:13
#0403b1:00230000
#040320:13
#040360:00230000
#040320:0013
#040360:00000000000000000000002300000000
#040371:0013
#0403b1:00000000000000000000002300000000
#040321:0000000000000013
#041361:0023000000000000
#041351:0000000013230000
#0443b1:00000000000000000000001300002300
#045321:00000000000000000000001300002300
#047321:0000001300000000
#047361:0000000000332300
#048361:13
#048321:00230000
#0483b0:13
#048370:00230000
#0483b0:0013
#048370:00000000000000000000002300000000
#048361:0013
#048321:00000000000000000000002300000000
#0483b1:0000000000000013
#049371:0023000000000000
#049381:0000000013230000
#051321:0000000013000023
#051361:00000000000000000000003300000000
#0513b0:00000000000000000000001300000000
#051370:0000000000000023
#052350:00000000000000000000001300002300
#053380:00000000000000000000001300002300
#055350:0000001300000000
#055320:0000000000230000
#057390:1232
#0573c0:00320052
#058390:22
#058321:13
#058351:0033000000000000
#058331:00330000
#058361:0000003300000000
#058341:0023
#0583b0:0000000013000023
#058370:00000000000000000000003300000000
#058321:00000000000000000000001300000000
#058361:0000000000000023
#0593b1:13
#059381:0033000000000000
#0593a1:00330000
#059371:0000003300000000
#059391:0023
#059320:0000000013000023
#059360:00000000000000000000003300000000
#0593b1:00000000000000000000001300000000
#059371:0000000000000023
#060361:13230000
#060321:0033000000000000
#0603b0:00132300
#060370:0000003300000000
#060361:00001333
#060321:0000000000330053
#061361:23
#0603b0:00000013
#060370:0000000000000053
#0613b0:23
#061360:0000001300000000
#061320:0000000000332300
#0613b1:0000001300000000
#061371:0000000000230000
#0623b0:13
#062370:0053
#0633b0:23
#063320:00130000
#063360:0000000000530000
#064320:23
#0643b0:00130023
#064370:0053
#0663b0:13
#073380:23
#066321:13
#073351:23
