This file was generated by Ched 2.7.0.0.
#TITLE ""
#ARTIST ""
#DESIGNER ""
#DIFFICULTY 0
#PLAYLEVEL
#SONGID ""
#WAVE ""
#WAVEOFFSET 0
#JACKET ""
#REQUEST "ticks_per_beat 480"
#00002: 4
#BPM01: 148
#00008: 01
#TIL00: ""
#HISPEED 00
#MEASUREHS 00
#00018:13000013000000001300000000000000
#00015:00130000130000000000000000001300
#00815:00130000130000130000000000000000
#0081b:23000013000000000000000000000000
#00818:0000001313000000
#00812:0000000000000013
#00810:41
#0091b:0013000013000000
#00918:00000000001300000000000000000000
#01612:0013000000000013
#01618:00130013
#01615:0000001300130000
#0161b:0013
#01718:0000130013130000
#01715:00001300000000000013001300000000
#0171b:13000000000000000000000000330000
#01712:0000001300000000
#01710:41
#02015:0000001300001300
#0201b:0013000000000000
#02018:0000000013000013
#02112:0013000000000000
#02118:0000130000330000
#02115:0000001300000000
#0211b:0000000000000013
#02218:0000001300000000
#02212:00000013
#02215:0000130000000013
#02318:1300001324000024
#02315:00000000130000130000000000000000
#0231b:0013000000000000
#02314:00000000000000000000002400000000
#02412:0013000000000013
#02415:00130013
#02418:0000001300130000
#0241b:0013
#02518:0013000013130000
#02515:00000000130000000013001300000000
#0251b:13000000000000000000000000330000
#02512:0000001300000000
#03015:00130013
#03018:0000001300130000
#03012:0013
#0301b:0013000000000013
#03115:0013001300000000
#03118:0000130000000013
#03112:0023
#0311b:0023
#0331b:0013
#03315:1300000000130013
#03318:00000013
#0341b:13
#03418:0000000000000013
#03416:0013
#03412:00130000
#03518:0000001300000000
#03515:00000013000000000000000000001300
#03512:13
#03615:00000013000013000000000000001300
#03618:23130013
#0371b:0013000000000000
#03715:00000000130000000000001300000000
#03718:0000001300000000
#03712:0013
#04118:0013000000000013
#0411b:00000000000000130000000000000000
#04115:00130000
#04110:41
#0421b:00000013000000000000001300000000
#04215:13130013
#04218:00000000000000130000000000001300
#04212:0013
#04318:0013000000130000
#04315:00131300
#0431b:0000001300000013
#04312:1300000000000013
#04415:0013001300000000
#0441b:00130000
#04418:00000000000000130000001300000000
#04412:00000000000000000013000000000000
#04612:0013000000000013
#04618:00130013
#04615:0000001300130000
#0461b:0013
#0471b:0013000000232300
#04718:0000002300000000
#04712:0000002300000000
#04715:0000000000232300
#06118:0013000000000000
#06115:0000001300000000
#06112:0013000000000000
#0611b:0000001300000000
#06512:0013
#06518:0000230000130000
#0651b:0023000000000013
#06515:0000002300001300
#00715:00000000001300000000000023000000
#00712:00001300000000001333333300000000
#0281b:0013000000000013
#02815:0000130000130000
#02818:0000001300001300
#02812:0013
#02912:0013000000000013
#02918:0000130000130000
#02915:0000001300001300
#0291b:0013
#03215:13
#03218:0013
#0321f:11
#04012:0000000000000013
#0401b:2323
#04015:0023
#0401f:21
#05515:0000001300000013
#05518:00130013
#05512:0013000000000000
#05618:13
#05612:0000001300000000
#05617:0013
#05614:0000000000130000
#05619:00000013
#05616:0000000000000013
#0581b:0013
#05818:00000000130000000000001300000000
#05815:0013001300000000
#06017:00000013
#0601b:13
#06015:0013000000000000
#06018:00130000
#06012:0000001300000000
#06010:41
#06216:13
#06212:0013
#0621b:13
#06217:0013
#06317:00130000
#0631b:0000000000130000
#06312:00130000
#06316:0000000000130000
#06416:00130000
#06412:0000000013000013
#0641b:00130000
#06417:0013
#06418:0000000000000013
#06612:14
#0011b:0013000000000000
#00115:0013
#00215:13000013000000001300000000000000
#00218:00130000130000000000000000001300
#00312:0013000000000000
#00318:0013
#00418:13000013000000001300000000000000
#00412:00130000130000000000000000000000
#00415:0000000000000013
#00518:0013000000000000
#00512:0013
#00615:13000013000000001300000000000000
#0061b:00130000130000000000000000000000
#00618:0000000000000013
#01018:00130000130000130000000000000000
#01012:23000013000000000000000000000000
#01015:0000001313000000
#0101b:0000000000000013
#01112:0013000013000000
#01115:00000000001300000000000000000000
#01215:00130000130000130000000000000000
#0121b:23000013000000000000000000000000
#01218:0000001313000000
#01212:0000000000000013
#0131b:0013000013000000
#01318:00000000001300000000000000000000
#01418:00130000130000130000000000000000
#01412:23000013000000000000000000000000
#01415:0000001313000000
#0141b:0000000000000013
#0181b:0013000000000013
#01815:00130013
#01818:0000001300130000
#01812:0013
#01915:0000130013130000
#01918:00001300000000000013001300000000
#01912:13000000000000000000000000330000
#0191b:0000001300000000
#0261b:0013000000000013
#02618:00130013
#02615:0000001300130000
#02612:0013
#02715:0013000013130000
#02718:00000000130000000013001300000000
#02712:13000000000000000000000000330000
#0271b:0000001300000000
#02710:41
#04518:0013001300000000
#04512:00130000
#04515:00000000000000130000001300000000
#0451b:00000000000000000013000000000000
#04915:0013000000000013
#04912:00000000000000130000000000000000
#04918:00130000
#05012:00000013000000000000001300000000
#05018:13130013
#05015:00000000000000130000000000000013
#0501b:0013
#05118:00131300
#05115:00000000000000130000001300000000
#05112:00000013000000000000000000001300
#0511b:1300000000000013
#05218:0013001300000000
#05212:00130000
#05215:00000000000000130000001300000000
#0521b:00000000000000000013000000000000
#05210:41
#0541b:0013000000000013
#05415:00130013
#05418:0000001300130000
#05412:0013
#0481b:0000000000000013
#04812:2323
#04818:0023
#05315:0013001300000000
#0531b:00130000
#05318:00000000000000130000001300000000
#05312:00000000000000000013000000000000
#0571b:0013
#05912:0013
#05915:13000000130000000000001300000000
#05918:0013001300000000
#01514:0024000024000000
#01518:0000240000240000
#00752:0053000053000000
#00755:00000000005300000000000013000000
#00858:0053
#00852:0000000000000013
#0095b:0053000053000000
#00958:00000000005300000000000013000000
#0205b:0063000000000000
#02058:0000000053000013
#02258:0000005300000000
#02952:0000000000000013
#0305b:0000000000000013
#03255:53
#03258:0063
#03355:53
#03452:00630000
#03456:0063
#0345b:13
#03558:0000005300000000
#03655:0000005300000000
#03752:0063
#03755:00000000000000000000006300000000
#0405b:63
#04255:13
#04652:0000000000000013
#0475b:0013000000000000
#05555:0000005300000000
#0585b:0053
#05858:00000000000000000000005300000000
#06057:00000053
#06155:0000005300000000
#0615b:0000005300000000
#06256:53
#06252:0023
#0625b:53
#06257:0023
#06357:00530000
#0635b:0000000000230000
#06352:00530000
#06356:0000000000230000
#06456:00530000
#06452:0023
#0645b:00530000
#06457:0023
#06652:64
#0015b:0053000000000000
#00155:0053
#00152:00000013
#00058:0053
#00352:0063000000000000
#00358:0063
#0035b:00000013
#00255:0063
#00558:0053000000000000
#00552:0053
#00555:00000013
#00458:0053
#00655:0063
#01055:0063
#0105b:0000000000000013
#01152:0063000063000000
#01155:00000000006300000000000013000000
#01258:0053
#01252:0000000000000013
#0135b:0053000053000000
#01358:00000000005300000000000013000000
#01455:0063
#0145b:0000000000000013
#0215b:0000000000000053
#0395b:00000013
#03955:00000013
#0545b:0000000000000013
#05058:13
#04852:53
#0575b:0053
#05952:0063
#05955:00000000000000000000006300000000
#0285b:0000000000000013
#000380:00000000000013333300000000000000
#0003b0:00000023
#0013b0:0013000000000000
#001380:00000000002300000000000000000000
#001350:0013
#001320:00000023
#002350:00000000000013333300000000000000
#002320:00000023
#003320:0013000000000000
#003350:00000000002300000000000000000000
#003380:0013
#0033b0:00000023
#004380:00000000000013333300000000000000
#0043b0:00000023
#005380:0013000000000000
#0053b0:00000000002300000000000000000000
#005320:0013
#005350:00000023
#006350:00000000000013333300000000000000
#006320:00000023
#007320:00001300000000003333333300000000
#007350:00000000003300000000000023000000
#008380:0013
#0083b0:00000023
#0093b0:0013000033000000
#009380:00000000003300000000000023000000
#010350:0013
#010320:00000023
#011320:0013000033000000
#011350:00000000003300000000000023000000
#012380:0013
#0123b0:00000023
#0133b0:0013000033000000
#013380:00000000003300000000000023000000
#014350:0013
#014320:00000023
#017380:00000013
#0173b0:00000000000000000000000000332300
#019350:00000013
#019320:00000000000000000000000000332300
#0203b0:0013000000000000
#020380:00230000
#020380:0013
#0203b0:0000000000230000
#0213b0:0000000013000033
#021380:00000000000000000000333300000000
#022380:0023000000000000
#022380:0000001300000000
#0223b0:0000000000230000
#0253b0:00000000000000000000000013330000
#025380:0000000000000023
#027320:00000000000000000000000013330000
#027350:0000000000000023
#032350:13
#032320:0000002300000000
#032380:0013
#0323b0:0000000000000023
#033350:13
#033320:0000002300000000
#034320:00130023
#034360:0033
#035380:0000001300000000
#0353b0:00000023
#036350:0000001300000000
#036320:0000000000230000
#037320:0000000013000023
#037350:00000000000000000000003300000000
#0383b0:13
#038380:0000000000333333
#039380:33
#0393b0:00000023
#039321:13
#039351:00000023
#0403b1:13
#040381:00230000
#040351:00000000000000001300002300000000
#0403b0:00000000000000001300002300000000
#041350:0000000013230000
#044350:0000000000001323
#045380:0000000000001323
#048320:13
#048350:00230000
#048380:00000000000000001300002300000000
#048321:00000000000000001300002300000000
#049381:0000000013230000
#052381:0000000000001323
#053351:0000000000001323
#055351:0000001300000000
#055321:0000000000230000
#0573b1:1333
#057381:00330000
#058381:23
#0583b1:0000000013000023
#058381:00000000000000000000003300000000
#059321:0000000013000023
#059351:00000000000000000000003300000000
#0603b1:0013
#060391:0000000000330000
#060371:00000033
#0613b1:23
#061351:0000001300000000
#061321:0000000000332300
#0613b0:0000001300000000
#061380:0000000000332300
#062360:13
#062320:0053
#063360:23
#0623b1:13
#062371:0053
#0633b1:23
#063371:00130000
#0633b1:0000000000530000
#064371:23
#063320:00130000
#063360:0000000000530000
#064320:23
#064360:00130023
#064320:0053
#0643b1:00130023
#064371:0053
#066321:14
#073361:24
