This file was generated by Ched 2.7.0.0.
#TITLE ""
#ARTIST ""
#DESIGNER ""
#DIFFICULTY 0
#PLAYLEVEL
#SONGID ""
#WAVE ""
#WAVEOFFSET 0
#JACKET ""
#REQUEST "ticks_per_beat 480"
#00002: 4
#BPM01: 148
#00008: 01
#TIL00: ""
#HISPEED 00
#MEASUREHS 00
#0001b:13000013000013000000000000001300
#00018:00000000000000130000000000000000
#00015:0013
#00017:00000013
#00016:0000000000000013
#00117:0013000013000000
#0011b:00000000131300000000000013000000
#00112:0013000013000000
#00116:00330000
#0081b:00130000000000130000000000001300
#00812:00000013000000001300000000000000
#00817:00130013
#00816:2300001300130013
#00818:0013
#00810:41
#00912:00001300001300000000000013000000
#0091b:0013000013000013
#00916:14000000000000131300000000000000
#00917:00130000
#01017:00130000000000000000000000001300
#01016:00000013000000001300000000000000
#0101b:0000130000131300
#01012:2300001300130013
#01019:00000000000000130000000000000000
#01112:1313000013000000
#01116:00000000001300000000130013000000
#01117:0013
#0111b:0013130000000000
#01118:0000000000000013
#01115:00000000000000000000000000000013
#01615:00000013000000130000001300001300
#0161b:0013000013001300
#01618:00000000130013000000130000130000
#01612:00000000001300000013000000000013
#0171b:1313000013130000
#01716:00140014140014000014001400000000
#01712:00000000001300130000000000001300
#01710:41
#02017:0013000000000000
#0201b:0000130013000013
#02018:00000000001300130000000013000000
#02015:00000000000013000000001300130000
#02012:0013000000130013
#0211b:00001300000000001300331300001300
#02116:00000013000000000000001300001300
#02119:00130000
#02114:00000000001300000000000000000000
#02117:0000000000000000000000001300000000000013000000000013000000000000
#02112:0000000000000000000000000000130000000000000000000013000000000000
#0221b:0000130000000013
#02217:0000131300000000
#02216:0000000000130013
#02212:0000001300001300
#02316:13001300000000000000002400000000
#0231b:00131300
#02315:0000001300000000
#02318:00000000000000130000000000000000
#02312:0013000024000013
#0231a:0000000000000024
#0241b:00000000000000130000001300000013
#02412:0013000013000013
#02417:00000013000000000000000000000000
#02414:00130000
#02419:00000000001300000000000000000000
#02416:0000001300000000
#02415:00000000000000000013000013000000
#02418:00000000000000000000130000130000
#02515:00150015000000000015001500000000
#02512:1313000013130000
#0251b:00000000001300130000000000001300
#02516:0000151500000000
#03014:00120000
#03016:0000001200000000
#03018:0012
#0301c:0000000000001212
#03017:00001200000000000000000000120000
#03012:0012000000000000
#0301a:0000000000120000
#03112:0012120022000000
#03117:00000012000012002200000000000000
#0311c:0000001200000000
#03116:0000000000000014
#0321b:13000000000013000000001300000000
#03216:13
#03212:00000013000000001300000000001300
#03217:0013
#03219:00130000
#03214:00000013
#0321f:11
#03419:0000000000000013
#03412:14000000000000131300000000000000
#03417:0013
#0341b:00130000
#03416:00000000130000000000001313000000
#03516:1313000000000000
#03519:00000013000000000000000000000000
#0351b:00000000001313000000000000001300
#03512:13
#03517:0000001300000000
#0411b:1300130000130013
#04117:00000013
#04115:13000000130000000000001300000000
#04118:00001300000000130000000000000000
#04112:0000001300000013
#04116:0013
#04110:41
#04217:1313
#0421b:00130013
#04216:00000013000000000000001300001300
#04212:13000000000000130000000000001300
#0431b:1313000013001313
#04312:0000131300000000
#04317:00000000000000000013000000140014
#04313:0000000000130000
#04412:0014001300000013
#0441a:00000000140000000000001400000000
#04415:00000013
#04416:00000014000000000013000000000000
#04417:00000000000000000000000000140000
#0441b:23
#04612:0013000000000013
#04615:0000130000001316
#04618:00000000000013000000130000000013
#0461b:00001313
#04616:14
#0471b:0013000000230013
#04715:1316130000000000
#04712:00000000000013000000000000130000
#04716:00000000000000000013330000000013
#04717:0000002300002300
#0561c:0000001200000000
#0561a:0012
#05618:0000000000120000
#05616:00000012
#05614:0000000000000012
#05612:13
#0601b:13000013
#06017:0013000000000013
#06018:00000000000000000000001300000000
#06012:0000001300000013
#06016:0013
#06015:0000000000130000
#06010:41
#0611b:0013001300000000
#06112:0013000000130000
#06117:0000001300000000
#06116:0000000000130000
#06115:0000000000000013
#06118:00000000000000000000000000000013
#0651b:0013000013001313
#06519:00130000
#06517:0024001300130000
#06512:0000000013131300
#06516:0000000000000013
#06515:00240000
#06513:0000002400000000
#0041b:1300000000131300
#00417:00000013000000000000000000000000
#00412:0000000013000013
#00416:0000000000000013
#00517:0013130013001300
#00512:00000000131300000000000013000000
#0051b:0013000013000013
#01517:0013000000130000
#01516:00131300
#0151a:0024000000240000
#01512:00242400
#0291b:00001300130000000013001300000000
#02917:00000013000000000000130000000000
#02915:00000000001300000000000000000000
#02918:0000001300000000
#02912:00000000000000130000000013001300
#02916:00000000000000000000000000130000
#05516:0000001300001300
#05517:0000000000130000
#05514:0000000000000013
#05518:13130000
#0551b:0013001300000000
#05512:0013000000000000
#05812:00000000000000000000001300000000
#05817:0013
#0581b:0000000000130013
#06216:1313
#0621b:13
#06213:00130013
#06212:0000001313130000
#06214:0013000000000013
#06316:13
#06312:00130000
#06317:0000130000130000
#0631b:0000000013131300
#06319:0000001300000013
#06417:13
#06416:00131313
#06412:0000001300130013
#0661b:13
#06612:13
#00212:13000013000013000000000000001300
#00215:00000000000000130000000000000000
#00218:0013
#00216:00000013
#00217:0000000000000013
#00316:0013000013000000
#00312:00000000131300000000000013000000
#0031b:0013000013000000
#00317:00330000
#00612:1300000000131300
#00616:00000013000000000000000000000000
#0061b:0000000013000013
#00617:0000000000000013
#00712:0014000000002c00
#00713:00140000
#00714:0000001400000000
#00715:0000000014140000
#0071b:0013000000000000
#00719:00000000001300000000000000000000
#00717:00000000000000000014001400000000
#01212:00130000000000130000000000001300
#0121b:00000013000000001300000000000000
#01216:00130013
#01217:2300001300130013
#01215:0013
#0131b:00001300001300000000000013000000
#01312:0013000013000013
#01316:14130000
#01317:00000000000000131300000000000000
#01416:00130000000000000000000000001300
#01417:00000013000000001300000000000000
#01412:0000130000131300
#0141b:2300001300130013
#01414:00000000000000130000000000000000
#01818:00000013000000130000001300001300
#01812:0013000013001300
#01815:00000000130013000000130000130000
#0181b:00000000001300000013000000000013
#01912:1313000013130000
#01916:00140014140014000014001400000000
#0191b:00000000001300130000000000001300
#02612:00000000000000130000001300000013
#0261b:0013000013000013
#02616:00000013000000000000000000000000
#02619:00130000
#02614:00000000001300000000000000000000
#02617:0000001300000000
#02618:00000000000000000013000013000000
#02615:00000000000000000000130000130000
#02716:00150015000000000015001500000000
#0271b:1313000013130000
#02712:00000000001300130000000000001300
#02715:0000151500000000
#02710:41
#02816:0013000000000000
#02812:00000000130000000013000000001300
#02815:0000001300131300
#02818:00000000000000130000001300130000
#0281b:0013000013000013
#0331b:1300001300000000
#03316:13000014
#03312:00000013000000000000000000000000
#03319:00130000
#0331a:0014
#03318:0000000000140000
#03314:0000000000000014
#0361b:0013130000130000
#03617:00000013000000000000001300000000
#03612:2300001313000013
#03616:23000000000000130000000000000013
#03619:00000013
#0371b:0013000000130000
#03717:00000013130000000000000000000000
#03712:0000001300000000
#03716:00000000000000131300001300000000
#0371a:00000013
#03715:00000000000000000000000000130000
#03719:0000000000000013
#03714:13000000000000000000000000000013
#03818:13000013000000130000001300000000
#03815:0013001300130000
#03812:00131323
#0381b:00000000001300000013000023000000
#03912:25000024000023001300000000000000
#0391b:0000002313000000
#03919:25
#0391a:00000024000000000000000000000000
#0401b:0013000023000000
#04016:0013000023000000
#04012:2300000000000000000000000000000000000013000000000000000013000000
#04017:2300000000000000000000000000000000000013000000000000000000000000
#0401f:21
#04516:14000014000000000000000000000000
#0451a:0014000000000000
#04512:00000000140000000000001400000000
#0451b:0000001300000013
#04517:00000000000000000013000000000000
#04518:00000013
#04515:00000000000000000000000000140000
#04912:1300130000130013
#04916:00000013
#04918:13000000130000000000001300000000
#04915:00001300000000130000000000000000
#0491b:0000001300000013
#04917:0013
#05016:1313
#05012:00130013
#05017:00000013000000000000001300001300
#0501b:13000000000000130000000000001300
#05112:1313000013001313
#0511b:0000131300000000
#05116:00000000000000000013000000000000
#0511a:0000000000130000
#05115:00000000000000000000000000140014
#0521a:0014000000000014
#05212:23000000140000000000001400000000
#0521b:0000001300000000
#05219:00000000000000000013000000000000
#05216:00000014000000000000000014140000
#05210:41
#04812:0013000023000000
#04817:0013000023000000
#0481b:2300000000000000000000000000000000000013000000000000000013000000
#04816:2300000000000000000000000000000000000013000000000000000000000000
#05316:14000014000000000000000014140000
#05312:0014001300000014
#0531a:00000000140000000000001400000000
#05314:00000000000000000013000000000000
#05416:14
#0541b:0013000000000013
#05418:00130013
#05415:00000000000013000000130000001613
#05412:00001313
#05717:12121200
#0571a:0012001200000000
#0571c:00000012
#05712:22222200
#0591b:00000000000000000000001300000000
#05916:0013
#05912:0000000000130013
#00055:0053
#00452:0053
#00852:0053
#00856:0000000000230013
#0085b:00530000000000000000000000000000
#00857:00230000
#0095b:0053
#00957:00000013
#01056:0053
#01057:00530000000000000000000000001300
#0105b:00230000
#01052:0000000000230000
#01157:0053
#0115b:00000013
#02052:0053000000000000
#0205b:0000000063000013
#02257:0000005300000000
#02952:00000000000000630000000000001300
#0305c:0000000000000012
#03256:53
#03252:00000023000000000000000000000000
#03257:0063
#0325b:00000000000000000000002300000000
#0355b:0000005300000000
#03557:0000005300000000
#04052:5300000000000000000000000000000000000023000000000000000000000000
#04057:5300000000000000000000000000000000000023000000000000000000000000
#0405b:00002300000000006300004300000000
#04056:00002300000000006300004300000000
#04252:13
#04257:5353
#0425b:00230000
#04652:0000000000000013
#0475b:0013000000000000
#04752:0000005300000000
#04756:00000000000000000023000000000000
#05556:0000005300000000
#05852:00000000000000000000005300000000
#0605b:00000053
#06057:0000000000000023
#06052:0000000000000023
#0625b:53
#06256:0023
#06352:00530000
#06357:0000000000230000
#0665b:53
#06652:63
#0015b:00000013
#00152:0053000053000000
#00258:0063
#00352:00000013
#0035b:0063000063000000
#00557:00005313
#0065b:0063
#00752:0000001c
#01252:00630000000000000000000000000000
#01256:00230000
#0125b:0063
#01257:0000000000230013
#01456:00630000000000000000000000001300
#01452:00230000
#01457:0063
#0145b:0000000000230000
#01352:0063
#01356:00000013
#01552:00340000
#0155a:0000000000440000
#0215b:00000000000000005300005300005300
#02156:00000000000000000000005300005300
#02157:0000000000000000000000000000000000000023000000000023000000000000
#02152:0000000000000000000000000000000000000000000000000023000000000000
#02352:0014
#0235a:0000000000000014
#02356:00000000000000000000001400000000
#0285b:0063000000000000
#02852:0000000000000013
#03356:53
#03352:00000023000000000000000000000000
#03452:14
#0345b:00530000
#03457:0053
#03955:00000013
#03952:0053
#0395b:0063
#03958:00000013
#04452:0000000000000033
#05056:6363
#05052:00230000
#0505b:13
#0525a:0000000000000044
#04852:00002300000000005300003300000000
#04857:00002300000000005300003300000000
#0485b:6300000000000000000000000000000000000023000000000000000000000000
#04856:6300000000000000000000000000000000000023000000000000000000000000
#05352:0000000000000034
#0545b:0000000000000013
#05757:52525200
#0575a:0022002200000000
#0575c:00000022
#0595b:00000000000000000000006300000000
#0615b:0000005300000000
#06157:0000005300000000
#06156:0000000000530000
#06152:0000000000530000
#06452:0000000000000013
#0455b:0000000000000043
#000360:00130023000000000000000000000000
#000320:0000132300000000
#000350:0013
#000320:00000023
#001320:0013000000000000
#001360:00000000332300000000000000000000
#001320:0013
#001360:00000023
#002370:00130023000000000000000000000000
#0023b0:0000132300000000
#002380:0013
#0023b0:00000023
#0033b0:0013000000000000
#003370:00000000332300000000000000000000
#0033b0:0013
#003370:00000023
#004360:00130000000000000000000000000000
#004320:00000023000000000000000000000000
#004320:00130000
#004360:0000002300000000
#0043b1:0000001300000000
#004391:00000000000000330000000000000000
#004371:0023
#004320:0013
#004360:00000023
#005370:0013
#005320:00000000000000000000002300000000
#006370:00130000000000000000000000000000
#0063b0:00000023000000000000000000000000
#0063b0:00130000
#006370:0000002300000000
#006321:0000001300000000
#006341:00000000000000330000000000000000
#006361:0023
#0063b0:0013
#006370:00000023
#0083b0:00130000000000000000000000000000
#008370:00000023000000000000000000000000
#008370:00130000
#0083b0:0000002300000000
#008320:00001323
#008360:0000000000530000
#0093b0:0013
#009370:00000023
#010370:00130000000000000000000000000000
#0103b0:00000023000000000000000000000000
#0103b0:00130000
#010370:0000002300000000
#010360:00001323
#010320:0000000000530000
#011370:0013
#0113b0:00000023
#012320:00130000000000000000000000000000
#012360:00000023000000000000000000000000
#012360:00130000
#012320:0000002300000000
#0123b0:00001323
#012370:0000000000530000
#013320:0013
#013360:00000023
#014360:00130000000000000000000000000000
#014320:00000023000000000000000000000000
#014320:00130000
#014360:0000002300000000
#014370:00001323
#0143b0:0000000000530000
#0173b0:00000013
#017390:00000000000000000000000000330000
#017370:0000000000000023
#019320:00000013
#019340:00000000000000000000000000330000
#019360:0000000000000023
#020320:0013000000000000
#020360:00230000
#0203b0:0013
#020370:0000000000230000
#0213b0:00000000000000001300333300003300
#021370:0000000000000000000000000000000000000053000000000053000000000000
#022370:0023000000000000
#021361:00000000000000000000001300003300
#021321:0000000000000000000000000000000000000000000000000053000000000000
#022321:0023000000000000
#022371:0000001300000000
#0223b1:0000000000230000
#025321:00000013
#025341:00000000000000000000000000330000
#025361:0000000000000023
#0273b1:00000013
#027391:00000000000000000000000000330000
#027371:0000000000000023
#0283b1:0013000000000000
#028371:00230000
#029321:00000000000000130000000000000000
#029371:00000000000000000023000000000000
#032361:1300002300000000
#032321:00000053000000000000000000000000
#032371:0000000013000023
#0323b1:00000000000000000000005300000000
#033361:1300002300000000
#033321:00000053000000000000000000000000
#0343b1:00000000130000000000003323000000
#034371:00000000000000333300000000000000
#035371:0000001300000000
#035321:00000023
#0353b0:0000001300000000
#035360:00000023
#039320:0013
#039350:00000023
#0393b1:0013
#039381:00000023
#040371:13230000
#0403b1:0053000000000000
#040320:13230000
#040360:0053000000000000
#0403b0:00000000000000001300002300000000
#040370:0000000000000000000000000000000000000053000000000000000000000000
#040361:00000000000000001300002300000000
#040321:0000000000000000000000000000000000000053000000000000000000000000
#042371:13
#0423b1:00000023000000000000000000000000
#0423b1:00130000
#042371:00000000000000230000000000000000
#042371:0013
#0423b1:00000000000000000000002300000000
#043361:1323000000000000
#043371:0000132300000000
#0443b1:00000000000000130023000000000000
#045321:00000000000000130023000000000000
#046381:0013230000000000
#046351:0000001323000000
#047321:0000001300002300
#047361:00000000000000000053330000000000
#048361:13230000
#048321:0053000000000000
#0483b0:13230000
#048370:0053000000000000
#048320:00000000000000001300002300000000
#048360:0000000000000000000000000000000000000053000000000000000000000000
#048371:00000000000000001300002300000000
#0483b1:0000000000000000000000000000000000000053000000000000000000000000
#050361:13
#050321:00000023000000000000000000000000
#050321:00130000
#050361:00000000000000230000000000000000
#050361:0013
#050321:00000000000000000000002300000000
#051371:1323000000000000
#051361:0000132300000000
#052361:00000000000000130023000000000000
#053371:00000000000000130023000000000000
#054351:0013230000000000
#054381:0000001323000000
#055361:0000001300000000
#055321:0000000000230000
#0553b1:00000013
#055391:0000000000000033
#056371:23
#057371:12323200
#0573a1:0052005200000000
#0573c1:00000052
#058371:22
#058320:13332300
#058360:0033003300000000
#058371:00130000
#0583b1:0000002300000000
#058320:00000000000000000000001300000000
#058370:0000000000000023
#0593b0:13332300
#059370:0033003300000000
#059361:13
#059321:0023000000000000
#059361:00130000
#059321:0000002300000000
#0593b0:00000000000000000000001300000000
#059360:0000000000000023
#060360:14240000
#060320:0034000000000000
#0603a1:00142400
#060361:0000003400000000
#0603b1:00000013
#060371:0000000000000053
#0613b1:23
#060320:0000000000000013
#061360:23
#0613b0:0000001300002300
#061360:0000000000330000
#061371:0000001300002300
#061321:0000000000330000
#0623b1:13
#062361:0053
#0633b1:23
#063321:00130000
#063371:0000000000530000
#064321:23
#0643b1:00133333
#064371:0000003300330023
#0663b1:13
#073321:23
#066320:13
#0733b0:23
