This file was generated by Ched 2.7.0.0.
#TITLE ""
#ARTIST ""
#DESIGNER ""
#DIFFICULTY 0
#PLAYLEVEL
#SONGID ""
#WAVE ""
#WAVEOFFSET 0
#JACKET ""
#REQUEST "ticks_per_beat 480"
#00002: 4
#BPM01: 148
#00008: 01
#TIL00: ""
#HISPEED 00
#MEASUREHS 00
#0001a:14
#00014:00140000
#00018:0014
#00012:00000014
#00212:14
#00218:00140000
#00214:0014
#0021a:00000014
#0041a:14
#00414:00140000
#00418:0014
#00412:00000014
#00612:14
#00618:00140000
#00614:0014
#0061a:00000014
#00712:14
#00718:00140000
#0081a:14
#00814:00140000
#00818:0014
#00812:00000014
#00810:41
#00918:14
#00912:00140000
#01012:14
#01018:00140000
#01014:0014
#0101a:00000014
#01114:14
#0111a:00140000
#0121a:14
#01214:00140000
#01218:0014
#01212:00000014
#0131a:14
#01314:00140000
#01412:14
#01418:0000140000140014
#01414:00001414
#01612:14
#01618:00140000
#01614:0014
#0161a:00000014
#0181a:14
#01814:00140000
#01818:0014
#01812:00000014
#02212:14
#02218:00140000
#02214:0014
#0221a:00000014
#02312:14
#02318:00140000
#02418:00140014
#02414:0014
#02512:14
#02518:00140000
#02514:0014
#0251a:00000014
#02618:0014
#02614:00000014
#0271a:14
#02714:00140000
#02718:0014
#02712:00000014
#02710:41
#0281a:14
#02814:00140000
#02912:14
#02918:00140000
#0301a:14
#03014:00140000
#03018:0014
#03012:00000014
#03118:14
#03114:00140000
#0311a:0014
#03212:14
#03214:0014
#0321f:11
#03318:00140014
#03314:0014
#03414:14
#03412:0014
#0351a:00140014
#03514:0014
#04114:14
#04118:00140000
#04110:41
#04318:14
#04314:00140000
#04412:14
#04418:00140000
#04414:0014
#0441a:00000014
#04512:14
#04518:00140000
#04514:0014
#0451a:00000014
#04918:14
#04914:00140000
#05114:14
#05118:00140000
#0521a:14
#05214:00140000
#05218:0014
#05212:00000014
#05210:41
#0531a:14
#05314:00140000
#05318:0014
#05312:00000014
#05719:14142400
#05713:14142400
#0581a:14
#05814:00140000
#05912:14
#05918:00140000
#06018:14
#06014:00140000
#06010:41
#06114:14
#06118:00140000
#01513:0024000024000000
#01519:0000240000240000
#04012:24
#0401a:0024
#0401f:21
#0421a:24
#04212:0024
#0481a:24
#04812:0024
#05012:24
#0501a:0024
#05613:24
#05619:24
#01712:00343400
#01710:41
#0191a:00343400
#00754:00000014
#0315a:0014
#03252:54
#03254:0024
#03454:64
#03452:0024
#04052:14
#0405a:0014
#0425a:14
#04252:0014
#0485a:14
#04852:0014
#05052:14
#0505a:0014
#001380:14
#0013a0:00000024
#003340:14
#003320:00000024
#005380:14
#0053a0:00000024
#007340:00001424
#0093a0:00001424
#011320:00001424
#013380:00001424
#017320:14343400
#017340:00000024
#0193a0:14343400
#019380:00000024
#020320:14
#020340:00240000
#020380:0014
#0203a0:00000024
#021320:14
#021340:00240000
#021380:0014
#0213a0:00000024
#023340:00000000000000001400003400002400
#026320:14240000
#0283a0:00001424
#029320:00001424
#032320:14
#032340:0054
#033320:24
#034340:14
#034320:0054
#035340:24
#036320:14
#036340:0024
#0373a0:14
#037380:0024
#038320:14
#039340:34
#040320:24
#041320:00001424
#0433a0:00001424
#046320:14
#046340:00240000
#0463a0:0014
#046380:00000024
#047320:14
#047340:00000024
#0493a0:00001424
#051320:00001424
#0543a0:14
#054380:00240000
#054320:0014
#054340:00000024
#0553a0:14
#055380:00000024
#058380:00001424
#059340:00001424
#0603a0:00001424
#061320:00001424
#0623a0:14
#063380:24
#063320:00140000
#064340:24
#0643a0:00140000
#064380:0000000000000036
#065380:0036363636363636
#066380:36
#0733b0:23
