This file was generated by Ched 2.6.4.0.
#TITLE ""
#ARTIST ""
#DESIGNER ""
#DIFFICULTY 0
#PLAYLEVEL
#SONGID ""
#WAVE ""
#WAVEOFFSET 0
#JACKET ""
#REQUEST "ticks_per_beat 480"
#00002: 4
#BPM01: 123
#00008: 01
#TIL00: ""
#HISPEED 00
#MEASUREHS 00
#00418:14
#00410:41
#00514:14
#00618:14
#00714:14
#0081a:14
#00912:14
#0101a:14
#01010:41
#01112:14
#01218:14
#01312:14
#0141a:14
#01514:14
#0161a:14
#01610:41
#01714:14
#01818:14
#0181f:11
#01912:14
#02418:2616
#0241f:21
#02512:1616
#02510:41
#02618:16
#02612:0016
#02812:2616
#02918:1616
#03012:16
#03018:0016
#03212:0016
#03218:16
#03210:41
#03318:16
#03312:0016
#03612:0016
#03618:16
#03718:16
#03712:0016
#03818:1616
#04012:1616
#04218:16
#04212:0016
#04614:14
#04718:14
#04814:14
#03910:41
#0003a0:14
#0013a0:24
#002320:14
#003320:24
#0203a0:14
#0213a0:24
#022320:14
#023320:24
#027380:16362600
#031320:1626
#034380:1626
#035320:16362600
#039320:1626
#041380:1626
#043380:1636
#044380:36
#045380:26
#049380:14
#051380:24
