This file was generated by Ched 2.6.4.0.
#TITLE ""
#ARTIST ""
#DESIGNER ""
#DIFFICULTY 0
#PLAYLEVEL
#SONGID ""
#WAVE ""
#WAVEOFFSET 0
#JACKET ""
#REQUEST "ticks_per_beat 480"
#00002: 4
#BPM01: 123
#00008: 01
#TIL00: ""
#HISPEED 00
#MEASUREHS 00
#00415:0013000000000000
#00418:0000130013000013
#00412:2300001300001300
#0041b:2300000000130000
#00410:41
#00512:0013000013000000
#00515:13000013
#0051b:13130013
#00518:0000001300000000
#00618:0013000000000000
#00615:0000130013000013
#0061b:1300001300001300
#00612:1300000000130000
#00712:1300130000000013
#0071b:0013000000130000
#00718:1313
#00715:0000001300001300
#0081b:1313
#00812:0013000013000013
#00818:0000130000130013
#00815:0000001300001300
#00912:1300000013230000
#0091b:1300130000230000
#00915:0013000000000000
#00918:0000001300000000
#01215:0000130013000013
#01218:0013000000000000
#0121b:2300001300001300
#01212:2300000000130000
#0131b:0013000013000000
#01312:13130013
#01318:13000013
#01315:0000001300000000
#01415:0013000000000000
#01418:0000130013000013
#01412:1300001300001300
#0141b:1300000000130000
#0151b:13130013
#01515:1313
#01512:0013000000002300
#01518:0000001300000000
#01612:1313
#0161b:0013000013000013
#01615:0000130000130013
#01618:0000001300001300
#01610:41
#0171b:1313
#01712:13130000
#01718:0013000000000000
#01715:0000001300002300
#0241b:0000001300001300
#02416:2400001300001300
#02414:0000000000000013
#02417:00132300
#02412:00132300
#0241f:21
#02519:0013000000000000
#02517:1313
#02512:1300000000000013
#0251b:00130000
#02518:0000000000000013
#02516:00130000
#02515:00000023
#02510:41
#02615:13001300000013000000001300001300
#0261b:1300001300000013
#02618:00000013000000001300130000000000
#02612:0013
#02812:0000001300001300
#02817:0000001300001300
#02819:0000000000000013
#02816:24132300
#0281b:00132300
#02914:0013000000000000
#02916:1300000023000023
#0291b:1300000023000023
#02912:00130000
#02917:00130023
#03012:0013000013000013
#0301b:0000000000130000
#03015:00000000000000000000001300000000
#03018:00000000000000000000000000130000
#03216:0023002313001300
#0321b:00000023
#03212:00230000
#03210:41
#03317:0023002313001300
#0331b:0000230000000013
#03312:00000023
#03418:0013000013000000
#03412:00000013000013001300000000001300
#0341b:13000000000013000000001300001300
#03415:1300000000130000
#04915:12
#04917:00000012000000000000000000000000
#0371b:0013
#03717:0023000000001300
#03712:00000023
#0371a:00230000
#03718:0000002300000000
#03616:0023000000001300
#03612:0013
#0361b:00000023
#03613:00230000
#03615:0000002300000000
#03818:1300000000000013
#03812:1313000000000000
#03813:00130000
#03814:0000001300000000
#0381a:0000000000130000
#03819:00000013
#04015:0013001300000000
#04012:00130000
#0401b:1300000000130013
#04018:00000013
#03912:1300000000130000
#03915:00131313
#03918:13130013
#0391b:0013000000000000
#03910:41
#04118:1300000000130000
#0411b:00131313
#04112:13130013
#04115:0013000000000000
#04215:1300001300000013
#04218:0013000000130000
#04212:00130013
#0421b:0013
#04415:13131313131313131313131313000000
#04414:0013000000130000001300000013000000130000001300000000000000000000
#04416:0000001300000013000000130000001300000013000000130000000000000000
#0441b:00000013
#04418:23
#00014:12000012
#00016:00000012000000000000000000000000
#00118:12
#00116:00000012000000000000000012000000
#04516:00000012000000000000000000000000
#04514:00000012
#04618:12
#04614:00000012000000000000000000000000
#04616:00000012
#04716:12
#04718:00000012000000000000000000000000
#0471a:00000012
#04816:12
#0481a:00000012000000000000000000000000
#04818:00000012
#02717:0013000000000000
#02716:0000001400150000
#02719:0025
#02712:23240000
#0271b:23
#01112:00130000
#01115:1313
#0111b:00130000
#01118:0013
#0101b:00000013
#01018:00130000
#01015:00130000
#01010:41
#01912:00131300
#01916:0000001400000000
#0191b:00131300
#02018:0000000000130013
#02015:00000013
#02016:24
#02215:1300000000130013
#02218:00000013
#0221b:13
#02315:0013002300000000
#0231b:2323
#02318:00230000
#02312:2323
#0021a:12000012
#00218:00000012000000000000000000000000
#00316:12
#00318:00000012000000000000000012000000
#02118:00130013
#02115:00130000
#02112:00000013
#03116:0013001400000000
#03115:0000000000150000
#03119:00000025
#03112:2325
#0311a:00240000
#0311b:23
#0351b:00000013
#03515:0000240000000013
#03512:1413
#03516:0000000025130000
#03519:00150000
#03517:23
#0181f:11
#0181b:00230000
#01815:00000023
#04318:23
#04315:0023
#0115b:00630013
#01152:00530013
#01155:6363
#01158:0053
#02456:1400002300000000
#02457:00533300
#02452:00533300
#0245b:0000002300000000
#02552:0013
#02556:00630000
#02557:0053
#0275b:63430000
#02759:00006545
#02752:33543400
#02757:0023000000000000
#02756:0000002400250000
#02856:14634300
#02852:0000002300000000
#0285b:00634300
#02857:0000002300000000
#03256:0013
#0325b:00000013
#0375b:0013
#03752:00000013
#03952:1300000000230000
#03955:00136363
#0395b:0023000013000000
#03958:53530013
#04158:1300000000230000
#0415b:00136363
#04152:53530013
#04155:0023000013000000
#04358:13
#04355:0013
#04458:13
#04454:0023000000230000002300000023000000230000002300000000000000000000
#04456:0000002300000023000000230000002300000023000000230000000000000000
#04455:63636363636363636363636363000000
#0445b:00000063
#04552:13
#04558:13
#0175b:63
#01758:0023000000000000
#01752:00533300
#01755:0000002300000000
#01652:0053
#01655:0000000000230000
#01458:0053
#0145b:0000000000230000
#0105b:00000063
#01058:00530000
#01055:00630000
#0075b:0023000000230000
#00758:5353
#00752:0000530000000023
#00755:0000002300006300
#00652:0000000000230000
#00655:0063
#00955:0023000000000000
#00952:53
#00958:0000002300000000
#0095b:00630000
#00858:0000000000230000
#0085b:0063
#0045b:0000000000230000
#00458:0053
#02056:14
#02352:53
#02355:0023000000000000
#02158:00530053
#02155:00630000
#02152:00000053
#02255:63
#0225b:63
#02957:00530000
#0295b:0013
#02956:0063
#01555:0063
#01552:00000013
#0155b:00634300
#01558:0000002300000000
#03159:00000045
#03156:0023002400000000
#03155:0000000000250000
#03152:53335535
#0315a:00644400
#0315b:43
#03357:0013
#03352:00000013
#03652:0013
#0365b:00000013
#00558:0000002300000000
#0055b:00634300
#00552:0023000000000000
#00555:63
#01352:00533300
#01355:0000002300000000
#01358:53
#0135b:0023000000000000
#0195b:13
#01858:13
#01855:0013
#01252:0000000000230000
#01255:0063
#03552:5453
#03556:0000000015230000
#03557:13
#03555:00140000
#03559:00650000
#000380:0000001200002200
#0013a0:0000001200002200
#002360:0000001200002200
#003340:0000001200002200
#004380:00001323
#0043b0:0000000000530000
#005350:13230000
#005320:0033000000000000
#0053b1:00132300
#005381:0000003300000000
#006351:00001323
#006321:0000000000530000
#007381:13230000
#0073b1:0033000000000000
#007320:00132300
#007350:0000003300000000
#007381:00001323
#0073b1:0000000000330000
#007350:00000013
#007320:0000000000000053
#008350:23
#0083b0:00001323
#008380:0000000000530000
#009320:13230000
#009350:0033000000000000
#0093b1:00132300
#009381:0000005300000000
#0093b1:0000000000130000
#009391:0000000000003333
#009381:00000000000000000000000000530000
#0103b1:23
#009320:0000000000130000
#009340:0000000000003333
#009350:00000000000000000000000000530000
#010320:23
#010380:00130000
#0103b0:0023
#010351:00130000
#010321:0023
#0103b1:00000013
#011381:23
#011350:1333
#011320:00330023
#0113b1:00130023
#011381:0033
#012351:00001323
#012321:0000000000530000
#013381:13230000
#0133b1:0033000000000000
#013320:00132300
#013350:0000005300000000
#014380:00001323
#0143b0:0000000000530000
#0153b0:00132300
#015380:0000005300000000
#015351:0013
#015321:00000023
#016321:00001323
#016351:0000000000530000
#0173b1:13230000
#017381:0053000000000000
#017320:00132300
#017350:0000005300000000
#017350:00000013
#018350:23
#017381:00000013
#018381:23
#0183b1:00130000
#018381:0023
#018320:00130000
#018350:0023
#018380:00000013
#0193b0:23
#018351:00000013
#019321:23
#019361:00000014
#020361:24
#0213b1:1323
#021381:0033330000000000
#021320:1323
#021350:0033330000000000
#021320:00000013
#022350:33
#022320:0023
#021381:00000013
#0223b1:33
#022381:0023
#023321:13230000
#023351:0053000000000000
#0233b1:00000013
#024361:24
#024321:00132300
#024361:0000005300000000
#024370:00132300
#0243b0:0000005300000000
#025360:00130000
#025320:0023
#025371:0013
#0253b1:00000023
#0273b1:13230000
#027371:0053000000000000
#027320:00142400
#027360:0000005400000000
#027391:00001525
#027361:0000000000550000
#027320:00000013
#028360:24
#0283b0:00132300
#028370:0000005300000000
#028361:00132300
#028321:0000005300000000
#029371:00130000
#0293b1:0023
#029360:0013
#029320:00000023
#0303b0:0013230000000000
#030351:0000132300000000
#030380:0000001323000000
#031320:13230000
#031360:0053000000000000
#0313a1:00142400
#031361:0000005400000000
#031320:00001525
#031350:0000000000550000
#0323b0:1333003323000000
#032370:00330000
#033320:1333003323000000
#033360:00330000
#035320:14
#035350:00240000
#035391:00150000
#035361:0025
#035320:00001323
#035360:0000000000530000
#0363b0:1333000000000000
#036380:00330000
#0363a0:0000003300000000
#036370:0023
#037320:1333000000000000
#037350:00330000
#037330:0000003300000000
#037360:0023
#038380:0013000000000000
#0383b0:0023
#038351:0013
#038321:0000000000000023
#039381:13330000
#0393b1:0053000023000000
#039350:00001333
#039320:0000000000530000
#040320:23
#0403b0:0013000000000000
#040380:0023
#040321:0013
#040351:0000000000000023
#041321:13330000
#041351:0053000023000000
#0413b0:00001333
#041380:0000000000530000
#042380:23
#0423b0:0000132300000000
#042320:0000000013230000
#0423b0:0000000000001323
#043320:13
#043350:0023
#0433b1:0013
#044381:23
#044350:13535353535353535353535333000000
#044340:0053000000530000005300000053000000530000005300000000000000000000
#044360:0000005300000053000000530000005300000053000000530000000000000000
#044320:0000000000000053
#045320:23
#0443b1:00000013
#044381:0000000000000053
#045381:23
#0453a1:0000001200000000
#045381:00000022
#046381:0000001200000000
#0463a1:00000022
#047341:0000001200000000
#047361:00000022
#048361:0000001200000000
#048341:00000022
#049391:0000001200000000
#051391:22
