This file was generated by Ched 2.6.4.0.
#TITLE ""
#ARTIST ""
#DESIGNER ""
#DIFFICULTY 0
#PLAYLEVEL
#SONGID ""
#WAVE ""
#WAVEOFFSET 0
#JACKET ""
#REQUEST "ticks_per_beat 480"
#00002: 4
#BPM01: 123
#00008: 01
#TIL00: ""
#HISPEED 00
#MEASUREHS 00
#00415:0013001300000013
#00418:00130000
#0041b:2313
#00412:23
#00410:41
#00515:00000013
#00518:13
#0051b:00130000
#0051a:0033000000000000
#0081b:0013000000000000
#00818:0000001300000013
#00815:00130000
#00812:0013
#00915:1300000013000023
#0091b:0013000000230000
#00912:00130000
#00918:0000001300002300
#01215:0013000000000013
#01218:0013
#0121b:23
#01212:23
#01312:00000013
#01318:00130000
#0131b:13
#01319:0033000000000000
#01618:0013000000000013
#01612:00130000
#0161b:0000001300000000
#01615:0013
#01610:41
#02515:0013000000000000
#02518:13
#0251b:00130000
#02510:41
#02412:0000140000000013
#0241b:00000013
#02416:2424
#0241f:21
#02612:0000000000000013
#02618:00001300000000000000001300000000
#02615:00000013000000000000130000000000
#04916:12
#04918:00000012000000000000000000000000
#04218:0013001300001300
#04215:0000130000130013
#04212:1313
#0421b:1313
#04415:00000013
#02215:0000000000130013
#02218:13000013
#00618:0013001300000013
#00615:00130000
#00612:0013
#00715:1313
#00712:00130013
#00713:0033000000330000
#0101b:00130000
#01015:00130000
#01012:23000013
#01018:00000013
#01010:41
#01115:1313
#01112:00130000
#0111b:1313
#01118:00130000
#01515:00130023
#01512:1313
#01514:0033000000000000
#01418:0013001300000013
#01415:00131300
#0201b:2300000000130000
#02019:0000000000000013
#02016:00000013
#02012:23
#02114:13
#02117:0013000000000000
#0211b:00000013
#01918:0000001300000000
#01915:00131300
#0231a:00000014
#02318:2300002300000000
#0231b:0023
#02312:0023
#02315:00230000
#02812:00000013
#0281b:0000000000000013
#0281a:00140000
#02816:2424
#02918:0013000000000000
#02915:13
#02912:00130000
#02916:0023
#0291a:0000000000002323
#02913:0000000000002323
#02712:00000014
#02718:2426
#02713:00250000
#03018:00130000
#03012:0013000000000000
#03015:0000001300130000
#0301b:0013
#04518:00000012000000000000000000000000
#04618:12
#04616:00000012000000000000000000000000
#04716:12
#04718:00000012000000000000000000000000
#04818:12
#04816:00000012000000000000000000000000
#03718:1300002300000000
#0371b:0013
#03712:0023000000002300
#03715:00230000
#03615:1300002300000000
#03612:0013
#0361b:0023000000002300
#03618:00230000
#03315:1300000000000013
#03312:0013
#0331b:00000023
#03318:0023232300000000
#03218:13
#0321b:0013
#03212:00000023
#03215:0023232300000000
#03210:41
#03812:0013001300000000
#03818:13130000
#0381b:00001313
#03815:0000000000130013
#0391b:13
#03918:0013000000000000
#03912:0013
#03915:0000000000130000
#03910:41
#0401b:0013001300000000
#04015:13130000
#04012:00001313
#04018:0000000000130013
#04112:13
#04115:0013000000000000
#0411b:0013
#04118:0000000000130000
#0181f:11
#01812:00000023
#01818:00230000
#01715:00000023
#03118:2325
#03114:00240000
#03112:00000026
#03518:24
#03513:00240000
#0351a:0024
#01758:0013
#02456:1414
#02452:00540000
#02557:0013
#0255b:00630000
#04455:00000063
#04552:13
#02052:13
#0205b:13
#00558:5313
#0055b:00630000
#0045b:0063
#00755:6363
#00752:00530053
#00652:0053
#00852:0053
#0105b:00630000
#01055:00630000
#01052:00000053
#01058:00000053
#01155:6363
#01152:00530013
#0115b:6363
#01158:00530013
#01258:0053
#01255:0063000000000000
#0135b:6313
#01358:00530000
#01555:00630013
#01552:5353
#01455:0063
#01655:0063
#02258:53
#0215b:00000063
#0235a:00000064
#02758:1416
#02753:00150000
#02752:00000054
#02952:00530000
#02956:0013
#0285a:00640000
#02856:1414
#03158:1315
#03154:00140000
#03152:00000016
#03558:14
#03553:00140000
#0355a:0014
#03752:00000013
#0375b:0013
#0365b:00000013
#03652:0013
#0335b:00000013
#03352:0013
#03252:00000013
#0325b:0013
#0395b:63430000
#03958:0023000000000000
#03952:00005333
#03955:0000000000230000
#04152:53330000
#04155:0023000000000000
#0415b:00006343
#04158:0000000000230000
#000380:12
#000390:00000032000000000000000000000000
#0003a0:0000003200002200
#001360:12
#001350:00000032000000000000000000000000
#001340:0000003200002200
#0023a0:12
#002390:00000032000000000000000000000000
#002380:0000003200002200
#003340:12
#003350:00000032000000000000000000000000
#003360:0000003200002200
#0043b0:0013
#004380:00000023
#005380:1323
#0053a0:0033000000000000
#0053b0:00330000
#006320:0013
#006350:00000023
#007350:1333
#007330:0033000000330000
#007320:00330033
#008350:23
#008320:0013
#008350:00000023
#0103b0:00130000
#010380:0023
#010351:00130000
#010321:0023
#010321:00000013
#011351:3333
#011321:00330023
#010380:00000013
#0113b0:3333
#011380:00330023
#012350:0013000000000000
#012320:0000002300000000
#012380:0013
#0123b0:00000023
#0133b0:1323
#013390:0033000000000000
#013380:00330000
#014350:0013
#014320:00000023
#015320:1333
#015340:0033000000000000
#015350:00330023
#016350:0013
#016320:00000023
#017350:13230000
#017381:00132300
#017351:00000013
#018321:23
#0173b0:00000013
#018380:23
#018380:00130000
#0183b0:0023
#018321:00130000
#018351:0023
#0183b1:00000013
#019381:23
#018320:00000013
#019350:23
#019320:00000013
#020320:23
#0193b1:00000013
#0203b1:23
#021321:00132300
#0213b1:00000013
#022381:33
#0223b1:0023
#0233a1:00000014
#024361:24
#024321:00140000
#024361:0024
#0253b1:00130000
#025371:0023
#025351:0000000000000013
#026351:23
#026381:0000001323000000
#027321:00000014
#028361:24
#0283a1:00140000
#028361:0024
#029321:00130000
#029361:0023
#030381:00000000000000000000001300333300
#031381:23
#0343b1:13003333000000000000000000000000
#034381:0000002300000000
#034321:00000000000000001300333300000000
#034351:0000000000000023
#0393b1:13230000
#039381:0053000000000000
#039321:00001323
#039351:0000000000530000
#041321:13230000
#041351:0053000000000000
#0413b1:00001323
#041381:0000000000530000
#043381:1323
#043350:0013
#044350:23
#044381:1323
#044351:00000013
#045321:23
#045361:0000001200002200
#046381:0000001200002200
#047341:0000001200002200
#0483a1:0000001200002200
#049361:0000001200000000
#051361:22
