This file was generated by Ched 2.6.4.0.
#TITLE ""
#ARTIST ""
#DESIGNER ""
#DIFFICULTY 0
#PLAYLEVEL
#SONGID ""
#WAVE ""
#WAVEOFFSET 0
#JACKET ""
#REQUEST "ticks_per_beat 480"
#00002: 4
#BPM01: 123
#00008: 01
#TIL00: ""
#HISPEED 00
#MEASUREHS 00
#0241b:0013130023001300
#02415:0000000000001313
#02412:0000001300130000
#02417:0000001300000000
#02418:00000000000000000000001300000000
#02416:00000013000000002300000000000000
#02414:24
#0241f:21
#02518:1313000000000000
#02512:1300130000002313
#02515:00000013000000000000000000000000
#02517:000000000000000000000000000000000000000000000000000000000000000000000000000000000000000000000000000000000000000000000000000000000000000000000000000000000000000000000000000000000000000000000000000000000000000000000000000000000000000000000000000000000000000000000000000000000000000000000000000000000000000000000000000000000000000000000000000000000000000000000000000000000000000000000000000000000000000000000000000000000000000000000000000000000000000000000000000000000000000000000000000000000000000000000000000000000000000000000000000000000000000000000000000000000000000000000000000000000000000000000000000000000000000000000000000000000000000000000000000000000000000000000000000000000000000000000000000000000000000000000000000000000000000000000000000000000000000000000000000000000000000000000000000000000000000000000000000000000000000000000000000000000000000000000000000000000000000000000000000000000000000000000000000000000000000000000000000000000000000000000000000000000000000000000000000000000000000000000000000000000000000000000000000000000000000000000000000000000000000000000000000000000000000000000000000000000000000000000000000000000000000000000000000000000000000000000000000000000000000000000000000000000000000000000000000000000000000000000000000000000000000000000000000000000000000000000000000000000000000000000000000000000000000000000000000000000000000000000000000000000000000000000000000000000000000000000000000000000000000000000000001300000000000000000000000000000000000000000000000000000000000000000000000000000000000000000000000000000000000000000000000000000000000000000000000000000000000000000000000000000000000000000000000000000000000000000000000000000000000000000000000000000000000000000000000000000000000000000000000000000000000000000000000000000000000000000000000000000000000000000000000000000000000000000000000000000000000000000000000000000000000000000000000000000000000000000000000000000000000000000000000000000000000000000000000000000000000000000000000000000000000000000000000000000000000000000000000000000000000000000000000000000000000000000000000000000000000000000000000000000000000000000000000000000000000000000000000000000000000000000000000000000000000000000000000000000000000000000000000000000000000000000000000000000000000000000000000000000000000000000000000000000000000000000000000000000000000000000000000000000000000000000000000000000000000000000000000000000000000000000000000000000000000000000000000000000000000000000000000000000000000000000000000000000000000000000000000000000000000000000000000000000000000000000000000000000000000000000000000000000000000000000000000000000000000000000000000000000000000000000000000000000000000000000000000000000000000000000000000000000000000000000000000000000000000000000000000000000000000000000000000000000000000000000000000000000000000000000000000000000000000000000000000000000000000000000000000000000000000000000000000000000000000000000000000000000000000000000000000000000000000000000000000000000000000000000000000000000000000000000000000000000000000000000000000000000000000000000000000000000000000000000000000000000000000000000000000000000000000000000000000000000000000000000000000000000000000000000000000000000000000000000000000000000000000000000000000000000000000000000000000000000000000000000000000000000000000000000000000000000000000000000000000000000000000000000000000000000000000000000000130000000000000000000000000000000000000000000000000000000000000000000000000000000000000000000000000000000000000000000000000000000000000000000000000000000000000000000000000000000000000000000000000000000000000000000000000000000000000000000000000000000000000000000000000000000000000000000000000000000000000000000000000000000000000000000000000000000000000000000000000000000000000000000000000000000000000000000000000000000000000000000000000000000000000000000000000000000000000000000000
#0251b:00130023
#02516:0000001300000000
#02510:41
#02612:0013000000000013
#0261b:0000001300130013
#02617:00000013000000001300000000000000
#02616:13000000000013000000001300000000
#03015:0000000000000013
#03018:00000000000000000000000000130000
#03012:1300000000130000
#0301b:00000000000000000000001300000000
#03417:0013000000000000
#03412:00000013000013001300000000001300
#0341b:13000000000013000000001300001300
#03416:0000000000130000
#03816:13000000000000000000001300000000
#03812:0013000000000000
#03817:00000013000000000000000000000000
#0381b:0000000000130000
#04217:0000130000000013
#0421b:0000001300001300
#04212:0013000013000000
#04216:0000000000130000
#00014:12000000000000000000000000120000
#00016:00000012000000000000001200000000
#00018:0000120000120000
#0001a:12001212
#00118:12001212
#00116:00000012000000000000000000000000
#0011a:0000120000120000
#02215:1300000000130013
#02218:13000013
#0221b:00130000
#02212:00130000
#0021a:12000000000000000000000000120000
#00218:00000012000000000000001200000000
#00216:0000120000120000
#00214:12001212
#00316:1212
#00318:00000012000000000000000000000000
#00314:00120000
#0031a:00000012
#00418:0012000012000012
#00414:00120012
#0041a:00120000
#00416:0000001200000000
#00412:2200000012000012
#0041c:2200000000120000
#00410:41
#00514:00000012
#0051a:00000012
#00518:12120000
#0051c:0012000000000000
#00516:12120000
#00512:0012000000000000
#00616:0012000012000012
#0061a:00120012
#00614:00120000
#00618:0000001200000000
#0061c:1200000012000012
#00612:1200000000120000
#00712:12120000
#00718:1200000012121200
#00716:00001200000012000000001200000000
#0071c:0000120000000012
#00812:1200000000000012
#00816:0012000012001200
#0081a:00120000
#00814:00120000
#00818:0000001200120012
#0081c:0012
#00916:12
#00914:0012000000000000
#0091a:0000001200000000
#0091c:0012
#0091b:0000000000230000
#00912:0000000000230000
#01216:0012000012000012
#0121a:00120012
#01214:00120000
#01218:0000001200000000
#0121c:2200000012000012
#01212:2200000000120000
#0131a:00000012
#01314:00000012
#01312:00120000
#01316:0000001200000000
#01318:00120000
#0131c:0000001200000000
#01618:0012000012001200
#01614:00120000
#0161a:00120000
#01616:1200001200120012
#0161c:1200000000000012
#01612:0012
#01610:41
#01718:12
#0171a:0012000000002300
#01714:0000001200000000
#01712:0012
#01713:00000013
#01418:0012000012000012
#01414:00120012
#0141a:00120000
#01416:0000001200000000
#01412:1200000012000012
#0141c:1200000000120000
#0151c:12120000
#01516:1212
#01518:00001200000012000000001200000000
#01512:00120022
#01514:0000000000120000
#0151a:0000000000000012
#01815:00230013
#01819:0000000000000013
#01814:0000000000000013
#01818:00130023
#0181f:11
#02017:0000000000121212
#02016:22
#02018:22
#02318:00160000001600000000000000000000
#02312:00000016000000160000000000000000
#0231a:22220000
#02314:0022002200000000
#02812:0013130023001300
#02818:2400000000001313
#02817:00000013000000002300000000000000
#0281b:0000001300130000
#02816:0000001300000000
#02815:00000000000000000000001300000000
#02912:0013001300000024
#02915:1300000000140000
#0291b:13
#02919:00000013000000000000000000000000
#02916:00132324
#0291a:0000000024000024
#03312:1300002313001313
#0331b:0013230000130013
#03315:00002300130000000000001300000000
#03318:1300001323002300
#03517:0013000000000000
#03516:0000001400000014
#03512:2313140025131600
#0351b:1300001300000000
#03519:0015
#03515:0000000000150000
#0351a:00240000
#03615:00002300000023000000001300000000
#03618:1300230023130013
#03612:1300130013001313
#0361b:0013001300002300
#03718:00002300000023000000001300000000
#03715:1300230023130013
#0371b:1300130013001313
#03712:0013001300002300
#03912:0013130000000000
#0391b:1300001300000000
#03914:0000000000130000
#03919:0000000000000013
#03917:0013000000000000
#03916:0000001300000000
#03910:41
#04016:0013000000000000
#0401b:00000013000000000000000000000000
#04017:0000000000130000
#04012:00000000000000000000001300000000
#04116:0013000000000000
#04117:1300001300000000
#04114:0000000000130000
#04119:0000000000000013
#0411b:0013000000000000
#04115:00130000
#04112:0000001300000000
#0111b:00000013000013000000000013000000
#01117:0013
#01112:0013
#01116:0000000000130000
#01016:0000001300001300
#0101b:0013001300001300
#01017:0000130000130013
#01012:0013130000130000
#01010:41
#0211a:12
#02116:0012120000000000
#02117:000000000000000000000000000000000000000000000000000000000000000000000000000000000000000000000000000000000000000000000000000000000000000000000000000000000000000000000000000000000000000000000000000000000000000000000000000000000000000000000000000000000000000000000000000000000000000000000000000000000000000000000000000000000000000000000000000000000000000000000000000000000000000000000000000000000000000000000000000000000000000000000000000000000000000000000000000000000000000000000000000000000000000000000000000000000000000000000000000000000000000000000000000000000000000000000000000000000000000000000000000000000000000000000000000000000000000000000000000000000000000000000000000000000000000000000000000000000000000000000012120000000000000000000000000000000000000000000000000000000000000000000000000000000000000000000000000000000000000000000000000000000000000000000000000000000000000000000000000000000000000000000000000000000000000000000000000000000000000000000000000000000000000000000000000000000000000000000000000000000000000000000000000000000000000000000000000000000000000000000000000000000000000000000000000000000000000000000000000000000000000000000000000000000000000000000000000000000000000000000000000000000000000000000000000000000000000000000000000000000000000000000000000000000000000000000000000000000000000000000000000000000000000000000000000000000000000000000000000000000000000000000000000000000000000000000000000000000000000000000000000000000000000000000000000000000000000000000000000000000000000000000000000000000000000000000000000000000000000000000000000000000000000000000000000000000000000000000000000000000000000000000000000000000000000000000000000000000000000000000000000000000000000000000000000000000000000000000000000000000000000000000000000000000000000000000000000000000000000000000000000000000000000000000000000000000000000000000000000000000000000000000000000000000000000000000000000000000000000000000000000000000000000000000000000000000000000000000000000000000000000000000000000000000000000000000000000000000000000000000000000000000000000000000000000000000000000000000000000000000000000000000000000000000000000000000000000000000000000000000000000000000000000000000000000000000000000000000000000000000000000000000000000000000000000000000000000000000000000000000000000000000000000000000000000000000000000000000000000000000000000000000000000000000000000000000000000000000000000000000000000000000000000000000000000000000000000000000000000000000000000000000000000000000000000000000000000000000000000000000000000000000000000000000000000000000000000000000000000000000000000000000000000000000000000000000000000000000000000000000000000000000000000000000000000000000000000000000000000000000000000000000000000000000000000000000000000000000000000000000000000000000000000000000000000000000000000000000000000000000000000000000000000000000000000000000000000000000000000000000000000000000000000000000000000000000000000000000000000000000000000000000000000000000000000000000000000000000000000000000000000000000000000000000000000000000000000000000000000000000000000000000000000000000000000000000000000000000000000000000000000000000000000000000000000000000000000000000000000000000000000000000000000000000000000000000000000000000000000000000000000000000000000000000000000000000000000000000000000000000000000000000000000000000000000000000000000000000000000000000000000000000000000000000000000000000000000000000000000000000000000000000000000000000000000000000000000000000000000000000000000000000000000000000000000000000000000000000000000000000000000000000000000000000000000000000000000000000000000000000000000000000000000000000000000000000000000000000000000000000000000000000000000000000000000000000000000000000000000000000000000000000000000000000000000000000000000000000000000000000000000000000000000000000000000000000000000000000000000000000000
#02114:12
#02118:0012120000000000
#0211b:00000013
#02112:00000013
#04614:00000012000000000000000000000000
#04617:00120000
#0461a:12000012
#04618:0012
#04619:0000000000120000
#0471a:12000012000000000000001200000000
#04714:12120000
#04715:0012
#04717:0000000000121200
#04816:0012
#0481a:00000012000000000000000012000000
#04814:12
#04817:00120000
#04913:12
#0491b:12
#04915:00000012000000000000000000000000
#04919:00000012000000000000000000000000
#01912:001c0012
#01916:0014
#01914:0000001800000000
#0191c:00000012
#04316:0014001400140014
#0431a:24140000
#04312:00002414
#04412:14
#04413:00000000000000000000000000000000000000000000000000000000000000000000000000000000000000000000000000000000001500000000000000000000
#04414:00000000000000000000000000000000000000000000000000000000000000000000000000000000000000000000000000000000000000140000000000000000
#04416:00000012
#04418:000000000000000000000000000000000000000000000000000000000000000000000000000000000000000000000000000000000000000000000000000000000000000000000000120000000000000000000014000000000000000000000000
#0441a:24
#0451a:00120000
#04514:00000012000000000000001200000000
#04519:0012
#04517:0000000000121200
#02716:0013000000000000
#02714:0000240000150000
#02715:2300001400000000
#0271a:00140000
#02719:0015
#02712:00000016
#0271b:23
#02713:0025
#03215:1300001323002300
#03212:0013230000130013
#0321b:1300002313001313
#03218:00002300130000000000001300000000
#03210:41
#03117:0013000000150000
#03115:0000001400000000
#03118:00000026
#0311b:23
#03112:2325
#0311a:00240000
#02454:14
#02458:14
#0245b:00631300
#02457:0000005300000000
#02452:0000005300000000
#02456:0013
#02858:14
#02852:00531300
#0285b:0000006300000000
#02856:0000006300000000
#02857:0013
#02854:14
#00058:00120000
#0005a:00000012
#0015a:00120000
#00158:00000012
#00256:00120000
#00254:00000012
#00354:00120000
#00356:00000012
#01858:13630063
#01855:00530053
#01859:0000000000000023
#01854:0000000000000023
#01852:0013
#01753:00000053
#0175a:00000063
#01752:0012
#0195b:43
#01952:33000052
#0195c:00000062
#02358:00560000005600000000000000000000
#0235a:22220000
#02352:00000066000000660000000000000000
#02354:0022002200000000
#02657:00000013000000000000000000000000
#02652:0013000000000000
#02656:00000000000000000000001300000000
#0265b:0000000000130000
#02956:00634300
#02952:0000002300000000
#02955:0000000000240000
#0295a:0064
#03158:00000046
#0315b:43
#03157:0023000000250000
#03152:53345536
#03155:0000002400000000
#0315a:00640000
#03159:0045
#03457:0013000000000000
#03452:00000013000000000000000000000000
#03456:0000000000130000
#0345b:00000000000000000000001300000000
#03556:0000002400000000
#03557:0023000000000000
#03552:33543500
#0355a:00440000
#0355b:63
#03559:0065
#03555:0000000000250000
#03956:1300002300000000
#0395b:63430013
#03952:00533300
#03957:0023000000000000
#04152:1300002300000000
#04158:00330000
#04156:0043
#04157:53000013
#0415b:0023000000000000
#04155:00630000
#04256:13
#04257:00130000
#04252:0013
#0425b:00000013
#0115b:00000043
#01152:00005333
#01156:0000000000230000
#0105b:0000002300006300
#01057:0000530000000023
#01052:00530000
#01056:0000002300000000
#0215a:62
#02156:0022520000000000
#02157:000000000000000000000000000000000000000000000000000000000000000000000000000000000000000000000000000000000000000000000000000000000000000000000000000000000000000000000000000000000000000000000000000000000000000000000000000000000000000000000000000000000000000000000000000000000000000000000000000000000000000000000000000000000000000000000000000000000000000000000000000000000000000000000000000000000000000000000000000000000000000000000000000000000000000000000000000000000000000000000000000000000000000000000000000000000000000000000000000000000000000000000000000000000000000000000000000000000000000000000000000000000000000000000000000000000000000000000000000000000000000000000000000000000000000000000000000000000000000000000062520000000000000000000000000000000000000000000000000000000000000000000000000000000000000000000000000000000000000000000000000000000000000000000000000000000000000000000000000000000000000000000000000000000000000000000000000000000000000000000000000000000000000000000000000000000000000000000000000000000000000000000000000000000000000000000000000000000000000000000000000000000000000000000000000000000000000000000000000000000000000000000000000000000000000000000000000000000000000000000000000000000000000000000000000000000000000000000000000000000000000000000000000000000000000000000000000000000000000000000000000000000000000000000000000000000000000000000000000000000000000000000000000000000000000000000000000000000000000000000000000000000000000000000000000000000000000000000000000000000000000000000000000000000000000000000000000000000000000000000000000000000000000000000000000000000000000000000000000000000000000000000000000000000000000000000000000000000000000000000000000000000000000000000000000000000000000000000000000000000000000000000000000000000000000000000000000000000000000000000000000000000000000000000000000000000000000000000000000000000000000000000000000000000000000000000000000000000000000000000000000000000000000000000000000000000000000000000000000000000000000000000000000000000000000000000000000000000000000000000000000000000000000000000000000000000000000000000000000000000000000000000000000000000000000000000000000000000000000000000000000000000000000000000000000000000000000000000000000000000000000000000000000000000000000000000000000000000000000000000000000000000000000000000000000000000000000000000000000000000000000000000000000000000000000000000000000000000000000000000000000000000000000000000000000000000000000000000000000000000000000000000000000000000000000000000000000000000000000000000000000000000000000000000000000000000000000000000000000000000000000000000000000000000000000000000000000000000000000000000000000000000000000000000000000000000000000000000000000000000000000000000000000000000000000000000000000000000000000000000000000000000000000000000000000000000000000000000000000000000000000000000000000000000000000000000000000000000000000000000000000000000000000000000000000000000000000000000000000000000000000000000000000000000000000000000000000000000000000000000000000000000000000000000000000000000000000000000000000000000000000000000000000000000000000000000000000000000000000000000000000000000000000000000000000000000000000000000000000000000000000000000000000000000000000000000000000000000000000000000000000000000000000000000000000000000000000000000000000000000000000000000000000000000000000000000000000000000000000000000000000000000000000000000000000000000000000000000000000000000000000000000000000000000000000000000000000000000000000000000000000000000000000000000000000000000000000000000000000000000000000000000000000000000000000000000000000000000000000000000000000000000000000000000000000000000000000000000000000000000000000000000000000000000000000000000000000000000000000000000000000000000000000000000000000000000000000000000000000000000000000000000000000000000000000000000000000000000000000000000000
#02154:52
#02158:0022620000000000
#0215b:00000063
#02152:00000053
#0225b:00230000
#02258:53
#02255:63
#02252:00230000
#00458:0052
#0045c:0000000000220000
#00656:0062
#00652:0000000000220000
#00752:00520000
#00756:0000002200000000
#00758:00000052
#0075c:0000000000000022
#0085c:0062
#00858:0000000000220000
#01256:0062
#01252:0000000000220000
#01352:00523200
#01356:0000002200000000
#01358:00523200
#0135c:0000002200000000
#01458:0052
#0145c:0000000000220000
#0155c:00624200
#01558:0000002200000000
#01552:00000012
#01652:0052
#01656:0000000000220000
#04657:00120000
#0465a:00000012
#04857:00120012
#04754:00120000
#04757:00000012
#0055c:0022000012000000
#00558:52520000
#00552:0022000012000000
#00556:62620000
#04452:54
#0445a:14
#04453:00000000000000000000000000000000000000000000000000000000000000000000000000000000000000000000000000000000002500000000000000000000
#04454:00000000000000000000000000000000000000000000000000000000000000000000000000000000000000000000000000000000000000240000000000000000
#04456:00000062
#04458:000000000000000000000000000000000000000000000000000000000000000000000000000000000000000000000000000000000000000000000000000000000000000000000000520000000000000000000024000000000000000000000000
#0455a:00120000
#04557:00000012
#04559:13
#04553:13
#0435a:14
#04352:0014
#0375b:00131300
#03752:0013001300001300
#03652:00131300
#0365b:0013001300001300
#02756:0023000000000000
#02754:0000340000250000
#02755:3300002400000000
#0275a:00640000
#02759:0065
#0275b:63
#02753:0035
#02752:00000056
#02758:00000046
#02056:12
#02058:12
#03355:00130000
#03358:0000001300001300
#03352:0013
#0335b:0013000000000000
#03255:0000001300001300
#03252:0013000000000000
#0325b:0013
#03258:00130000
#0255b:00634300
#02552:00533300
#02557:000000000000000000000000000000000000000000000000000000000000000000000000000000000000000000000000000000000000000000000000000000000000000000000000000000000000000000000000000000000000000000000000000000000000000000000000000000000000000000000000000000000000000000000000000000000000000000000000000000000000000000000000000000000000000000000000000000000000000000000000000000000000000000000000000000000000000000000000000000000000000000000000000000000000000000000000000000000000000000000000000000000000000000000000000000000000000000000000000000000000000000000000000000000000000000000000000000000000000000000000000000000000000000000000000000000000000000000000000000000000000000000000000000000000000000000000000000000000000000000000000000000000000000000000000000000000000000000000000000000000000000000000000000000000000000000000000000000000000000000000000000000000000000000000000000000000000000000000000000000000000000000000000000000000000000000000000000000000000000000000000000000000000000000000000000000000000000000000000000000000000000000000000000000000000000000000000000000000000000000000000000000000000000000000000000000000000000000000000000000000000000000000000000000000000000000000000000000000000000000000000000000000000000000000000000000000000000000000000000000000000000000000000000000000000000000000000000000000000000000000000000000000000000000000000000000000000000000000000000000000000000000000000000000000000000000000000000000000000000000000002300000000000000000000000000000000000000000000000000000000000000000000000000000000000000000000000000000000000000000000000000000000000000000000000000000000000000000000000000000000000000000000000000000000000000000000000000000000000000000000000000000000000000000000000000000000000000000000000000000000000000000000000000000000000000000000000000000000000000000000000000000000000000000000000000000000000000000000000000000000000000000000000000000000000000000000000000000000000000000000000000000000000000000000000000000000000000000000000000000000000000000000000000000000000000000000000000000000000000000000000000000000000000000000000000000000000000000000000000000000000000000000000000000000000000000000000000000000000000000000000000000000000000000000000000000000000000000000000000000000000000000000000000000000000000000000000000000000000000000000000000000000000000000000000000000000000000000000000000000000000000000000000000000000000000000000000000000000000000000000000000000000000000000000000000000000000000000000000000000000000000000000000000000000000000000000000000000000000000000000000000000000000000000000000000000000000000000000000000000000000000000000000000000000000000000000000000000000000000000000000000000000000000000000000000000000000000000000000000000000000000000000000000000000000000000000000000000000000000000000000000000000000000000000000000000000000000000000000000000000000000000000000000000000000000000000000000000000000000000000000000000000000000000000000000000000000000000000000000000000000000000000000000000000000000000000000000000000000000000000000000000000000000000000000000000000000000000000000000000000000000000000000000000000000000000000000000000000000000000000000000000000000000000000000000000000000000000000000000000000000000000000000000000000000000000000000000000000000000000000000000000000000000000000000000000000000000000000000000000000000000000000000000000000000000000000000000000000000000000000000000000000000000000000000000000000000000000000000000000000000000000000000000000000000000000000000000000000000000000000000000000000000000000000000000000000000000000000000000000000000000000000000000000000000000000000000000000000000000000000000000000000000000000000000000000000000000000000000000000000000000000000000000000000000000000000000000000000000000000000000000000000000000000000000000000000000000000000000000000000000000000000000000000000000000000000000000000000000000000000
#02556:0000002300000000
#000360:0000001200220000
#001340:0000001200002200
#002380:0000001200220000
#0033a0:0000001200220000
#003361:0000000000122200
#004381:00001222
#0043c1:0000000000520000
#005381:12320000
#0053c1:0032000022000000
#005360:12320000
#005320:0032000022000000
#006360:00001222
#006320:0000000000520000
#007320:00122200
#007360:0000005200000000
#007380:00000012
#0073c0:0000000000000052
#008380:22
#0083c0:00001222
#008380:0000000000520000
#0093c0:12
#009380:00220000
#009321:00120000
#009361:0022
#0093b1:0000000000130000
#009381:00000033
#009351:0000000000000033
#010321:23
#009320:0000000000130000
#009350:00000033
#009380:0000000000000033
#0103b0:23
#010320:00132300
#010360:0000005300000000
#010371:00132300
#0103b1:0000005300000000
#0103b1:00000013
#010371:0000000000000053
#0113b1:23
#011320:13
#011360:00000023000000000000000000000000
#011360:0000132300000000
#011320:00001323
#011360:0000000000530000
#012360:00001222
#012320:0000000000520000
#013320:12322200
#013360:0032005200000000
#013381:12322200
#0133c1:0032005200000000
#014381:00001222
#0143c1:0000000000520000
#0153c1:00122200
#015381:0000005200000000
#016321:00001222
#016361:0000000000520000
#017321:12
#017361:00220000
#0173c0:00120000
#017380:0022
#0173a0:00000013
#018350:23
#017331:00000013
#018381:23
#018351:00130000
#0183b1:0023
#018380:00130000
#018320:0023
#018350:00000013
#018390:0000000000000053
#019320:23
#018381:00000013
#018341:0000000000000053
#0193b1:23
#0193c1:00000012
#020361:22
#019320:00000012
#020380:22
#0213a0:12
#021360:0032000000000000
#021370:00000052000000000000000000000000
#021380:00320000
#021320:0022
#021341:12
#021381:0032000000000000
#021371:000000000000000000000000000000000000000000000000000000000000000000000000000000000000000000000000000000000000000000000000000000000000000000000000000000000000000000000000000000000000000000000000000000000000000000000000000000000000000000000000000000000000000000000000000000000000000000000000000000000000000000000000000000000000000000000000000000000000000000000000000000000000000000000000000000000000000000000000000000000000000000000000000000000000000000000000000000000000000000000000000000000000000000000000000000000000000000000000000000000000000000000000000000000000000000000000000000000000000000000000000000000000000000000000000000000000000000000000000000000000000000000000000000000000000000000000000000000000000000000052000000000000000000000000000000000000000000000000000000000000000000000000000000000000000000000000000000000000000000000000000000000000000000000000000000000000000000000000000000000000000000000000000000000000000000000000000000000000000000000000000000000000000000000000000000000000000000000000000000000000000000000000000000000000000000000000000000000000000000000000000000000000000000000000000000000000000000000000000000000000000000000000000000000000000000000000000000000000000000000000000000000000000000000000000000000000000000000000000000000000000000000000000000000000000000000000000000000000000000000000000000000000000000000000000000000000000000000000000000000000000000000000000000000000000000000000000000000000000000000000000000000000000000000000000000000000000000000000000000000000000000000000000000000000000000000000000000000000000000000000000000000000000000000000000000000000000000000000000000000000000000000000000000000000000000000000000000000000000000000000000000000000000000000000000000000000000000000000000000000000000000000000000000000000000000000000000000000000000000000000000000000000000000000000000000000000000000000000000000000000000000000000000000000000000000000000000000000000000000000000000000000000000000000000000000000000000000000000000000000000000000000000000000000000000000000000000000000000000000000000000000000000000000000000000000000000000000000000000000000000000000000000000000000000000000000000000000000000000000000000000000000000000000000000000000000000000000000000000000000000000000000000000000000000000000000000000000000000000000000000000000000000000000000000000000000000000000000000000000000000000000000000000000000000000000000000000000000000000000000000000000000000000000000000000000000000000000000000000000000000000000000000000000000000000000000000000000000000000000000000000000000000000000000000000000000000000000000000000000000000000000000000000000000000000000000000000000000000000000000000000000000000000000000000000000000000000000000000000000000000000000000000000000000000000000000000000000000000000000000000000000000000000000000000000000000000000000000000000000000000000000000000000000000000000000000000000000000000000000000000000000000000000000000000000000000000000000000000000000000000000000000000000000000000000000000000000000000000000000000000000000000000000000000000000000000000000000000000000000000000000000000000000000000000000000000000000000000000000000000000000000000000000000000000000000000000000000000000000000000000000000000000000000000000000000000000000000000000000000000000000000000000000000000000000000000000000000000000000000000000000000000000000000000000000000000000000000000000000000000000000000000000000000000000000000000000000000000000000000000000000000000000000000000000000000000000000000000000000000000000000000000000000000000000000000000000000000000000000000000000000000000000000000000000000000000000000000000000000000000000000000000000000000000000000000000000000000000000000000000000000000000000000000000000000000000000000000000000000000000000000000000000000000000000000000000000000000000000000000000000000000000000000000000000000000000000000000000000000000000000
#021361:00320000
#0213c1:0022
#021321:00000013
#022351:3323
#022321:00530000
#0213b0:00000013
#022380:3323
#0223b0:00530000
#0233a0:1222000000000000
#023380:00560000000000000000000000000000
#023341:0012220000000000
#023321:00000056000000000000000000000000
#0233a0:0000122200000000
#023380:00000000005600000000000000000000
#023341:0000001222000000
#023321:00000000000000560000000000000000
#0233b1:00000013
#024341:24
#023320:00000013
#024380:24
#0243b0:00132300
#024370:0000005300000000
#024321:0000001300000000
#024361:0023
#0253b1:00132300
#025371:000000000000000000000000000000000000000000000000000000000000000000000000000000000000000000000000000000000000000000000000000000000000000000000000000000000000000000000000000000000000000000000000000000000000000000000000000000000000000000000000000000000000000000000000000000000000000000000000000000000000000000000000000000000000000000000000000000000000000000000000000000000000000000000000000000000000000000000000000000000000000000000000000000000000000000000000000000000000000000000000000000000000000000000000000000000000000000000000000000000000000000000000000000000000000000000000000000000000000000000000000000000000000000000000000000000000000000000000000000000000000000000000000000000000000000000000000000000000000000000000000000000000000000000000000000000000000000000000000000000000000000000000000000000000000000000000000000000000000000000000000000000000000000000000000000000000000000000000000000000000000000000000000000000000000000000000000000000000000000000000000000000000000000000000000000000000000000000000000000000000000000000000000000000000000000000000000000000000000000000000000000000000000000000000000000000000000000000000000000000000000000000000000000000000000000000000000000000000000000000000000000000000000000000000000000000000000000000000000000000000000000000000000000000000000000000000000000000000000000000000000000000000000000000000000000000000000000000000000000000000000000000000000000000000000000000000000000000000000000000000005300000000000000000000000000000000000000000000000000000000000000000000000000000000000000000000000000000000000000000000000000000000000000000000000000000000000000000000000000000000000000000000000000000000000000000000000000000000000000000000000000000000000000000000000000000000000000000000000000000000000000000000000000000000000000000000000000000000000000000000000000000000000000000000000000000000000000000000000000000000000000000000000000000000000000000000000000000000000000000000000000000000000000000000000000000000000000000000000000000000000000000000000000000000000000000000000000000000000000000000000000000000000000000000000000000000000000000000000000000000000000000000000000000000000000000000000000000000000000000000000000000000000000000000000000000000000000000000000000000000000000000000000000000000000000000000000000000000000000000000000000000000000000000000000000000000000000000000000000000000000000000000000000000000000000000000000000000000000000000000000000000000000000000000000000000000000000000000000000000000000000000000000000000000000000000000000000000000000000000000000000000000000000000000000000000000000000000000000000000000000000000000000000000000000000000000000000000000000000000000000000000000000000000000000000000000000000000000000000000000000000000000000000000000000000000000000000000000000000000000000000000000000000000000000000000000000000000000000000000000000000000000000000000000000000000000000000000000000000000000000000000000000000000000000000000000000000000000000000000000000000000000000000000000000000000000000000000000000000000000000000000000000000000000000000000000000000000000000000000000000000000000000000000000000000000000000000000000000000000000000000000000000000000000000000000000000000000000000000000000000000000000000000000000000000000000000000000000000000000000000000000000000000000000000000000000000000000000000000000000000000000000000000000000000000000000000000000000000000000000000000000000000000000000000000000000000000000000000000000000000000000000000000000000000000000000000000000000000000000000000000000000000000000000000000000000000000000000000000000000000000000000000000000000000000000000000000000000000000000000000000000000000000000000000000000000000000000000000000000000000000000000000000000000000000000000000000000000000000000000000000000000000000000000000000000000000000000000000000000000000000000000000000000000000000000000000000000000000000000000
#025320:00132300
#025360:0000005300000000
#0263b0:13
#026370:0023000000000000
#026320:0013
#026360:0000000000230000
#0273b0:13
#027360:0053000000000000
#0273a0:00340000
#027350:0000005400000000
#027390:0035
#027340:0000000000550000
#027380:00000026
#027321:00000016
#028341:24
#028321:00132300
#028361:0000005300000000
#0283b0:0000001300000000
#028370:0023
#029360:00132300
#029320:0000005300000000
#0293a1:00001424
#029351:0000000000540000
#0303b1:1323000000000000
#030360:0013000000000000
#030320:00230000
#030371:00130000
#0303b1:0000002300000000
#030320:0000001300000000
#030360:0023
#0303b1:0013
#030371:0000000000230000
#031321:13240000
#031371:0053000000000000
#0313a0:00140000
#031350:0000005400000000
#031390:0025
#031321:00001526
#031371:0000000000550000
#034361:13
#034321:0023000000000000
#034371:0013
#0343b1:0000000000230000
#0353b1:13
#035371:0053000000000000
#0353a1:00240000
#035320:00142500
#035360:0000005400000000
#035391:0015
#035351:0000000000550000
#035381:00000026
#0383b1:13
#038371:0023000000000000
#038321:00130000
#038361:0000002300000000
#0383b0:0000001300000000
#038370:0023
#038321:0013
#038361:0000000000230000
#0383b1:00000013
#038371:0000000000000023
#038320:0000000000000013
#039360:23
#0393b1:13230000
#039371:0053000000000000
#039320:00132300
#039360:0000005300000000
#039371:0013
#0393b1:00000023
#039360:00000013
#040320:23
#040371:13
#0403b1:0023000000000000
#040361:00130000
#040321:0000002300000000
#040370:0000001300000000
#0403b0:0023
#040361:0013
#040321:0000000000230000
#040371:00000013
#0403b1:0000000000000023
#040360:0000000000000013
#041320:23
#041371:13
#0413b1:0053000000000000
#041381:00230000
#041350:00130000
#041320:0000005300000000
#041360:0023
#0413b1:0013
#041371:00000023
#041320:00000013
#042360:23
#0423b1:13
#042371:0023000000000000
#042321:00130000
#042361:0000002300000000
#042371:0013
#0423b1:0000000000230000
#042361:00000013
#042321:0000000000000023
#043321:1424
#0433a0:0014
#0443a0:24
#044321:14
#044361:0024
#044381:000000000000000000000000000000000000000000000000000000000000000000000000000000000000000000000000000000000000000000000000000000000000000000000000000000000000000000000000000000000000000000000000000000000000000000000000000000000000000000000000000000000000000000000000000000000000000000000000120000000000000000000000000000540000000000005400530000000000000000000000000000000000000000000000
#045391:23
#044360:00000012
#044330:00000000000000000000000000000000000000000000000000000000000000000000000000000000000000000000000000000000005500000000000000000000
#044340:00000000000000000000000000000000000000000000000000000000000000000000000000000000000000000000000000000000000054540000000000000000
#044350:0000000000000053
#045330:23
#045360:0000001200000000
#045340:0000000000220000
#045340:00000000000000000000000000120000
#046370:22
#046340:0000001200000000
#046370:00000022
#047380:0000001200000000
#0473a0:0000000000220000
#0473a0:00000000000000000000000000120000
#048370:22
#0483a0:0000001200000000
#048370:0000000000220000
#048341:0000000000120000
#048371:00000022
#049371:0000001200000000
#051371:22
