This file was generated by Ched 2.6.4.0.
#TITLE ""
#ARTIST ""
#DESIGNER ""
#DIFFICULTY 0
#PLAYLEVEL
#SONGID ""
#WAVE ""
#WAVEOFFSET 0
#JACKET ""
#REQUEST "ticks_per_beat 480"
#00002: 4
#BPM01: 123
#00008: 01
#TIL00: ""
#HISPEED 00
#MEASUREHS 00
#00414:00140000
#0041a:24
#00410:41
#00512:1414
#00518:00140000
#00618:14
#00612:00140000
#00714:1414
#0071a:00140014
#00812:14
#00818:00140000
#0091a:14
#00914:00140000
#01018:00000014
#01010:41
#01114:1414
#01118:00140014
#0121a:00140000
#01212:24
#0131a:14
#01316:00140000
#01312:0014
#0141a:14
#01412:00140000
#01512:14
#01516:00140000
#0151a:0014
#0321a:00000014
#03212:14
#03218:00140000
#03214:0014
#03210:41
#0331a:00000014
#03312:14
#03318:00140000
#03314:0014
#03412:14
#0341a:00140000
#03414:0014
#03418:00000014
#03612:00000014
#0361a:14
#03614:00140000
#03618:0014
#03712:00000014
#0371a:14
#03714:00140000
#03718:0014
#0381a:14
#03812:00140000
#03818:0014
#03814:00000014
#04018:14
#04014:00140000
#0401a:0014
#04012:00000014
#04218:0014
#04214:00000014
#0421a:14
#04212:00140000
#01612:14
#01618:00140000
#01614:0014
#0161a:00000014
#01610:41
#01714:14
#01718:00140000
#01712:0014
#01918:00141400
#01914:0000001400000000
#02018:00000014
#0211a:00140000
#02112:14
#02114:0014
#0221a:14
#02217:0000001400000000
#02412:00000014
#02414:24
#02418:0024
#0241f:21
#02516:14
#02510:41
#0281a:00000014
#02818:24
#02814:0024
#02916:14
#02912:0024
#0291a:00000024
#03014:1414
#03018:00140014
#02618:00000014
#02614:0014
#0261a:00140000
#02612:14
#0181f:11
#02314:2400002400000000
#02318:00242400
#02712:2626
#02718:00260000
#03512:2626
#03518:00260000
#03112:2626
#03118:00260026
#03918:26
#03912:0026
#03910:41
#04118:26
#04112:0026
#04318:26
#01158:00000014
#04554:14
#0225a:64
#02257:0000002400000000
#02454:14
#02458:0014
#02858:14
#02854:0014
#02952:0014
#0295a:00000014
#0255a:0014
#02054:14
#000380:14000034000024000000000000000000
#001340:14000034000024000000000000000000
#0023a0:14000034000024000000000000000000
#003320:14000034000024000000000000000000
#0043a0:00001424
#006380:00001424
#008320:00001424
#0093a0:00001434
#010380:24
#010320:00140000
#010340:0024
#012340:00001424
#014380:00001424
#0173a0:00000014
#018380:34
#0183a0:00240000
#018320:0014
#018340:00000034
#019320:24
#019340:00000014
#020340:24
#0213a0:00000014
#0223a0:34000024
#022370:0000005400000000
#023320:00000014
#024340:24
#0243a0:00140000
#024380:0024
#0253a0:00142400
#0273a0:00000014
#028380:24
#028320:00140000
#028340:0024
#029320:00142400
#039380:16260000
#039320:00001626
#041380:16260000
#041320:00001626
#043380:16
#043360:0036
#044380:3626
#044340:00000014
#045340:24
#046380:14000034000024000000000000000000
#047320:14000034000024000000000000000000
#0483a0:14000034000024000000000000000000
#049340:14000034000034000000000000000000
#051340:24
