This file was generated by Ched 2.6.4.0.
#TITLE ""
#ARTIST ""
#DESIGNER ""
#DIFFICULTY 0
#PLAYLEVEL
#SONGID ""
#WAVE ""
#WAVEOFFSET 0
#JACKET ""
#REQUEST "ticks_per_beat 480"
#00002: 4
#BPM01: 195
#00008: 01
#TIL00: ""
#HISPEED 00
#MEASUREHS 00
#00118:14
#00214:14
#0031a:14
#0041a:14
#00512:14
#00612:14
#00718:14
#00818:14
#00914:14
#01014:14
#0111a:14
#01110:41
#01214:14
#0131a:14
#01414:14
#01518:14
#01612:14
#01718:14
#01812:14
#0191a:14
#02012:14
#02118:14
#02214:14
#02318:14
#02414:14
#0251a:14
#02612:14
#0311a:14
#03212:14
#03912:14
#0401a:14
#04318:2616
#04310:41
#04412:1616
#05112:2616
#05218:1616
#05918:14
#0591f:11
#06014:14
#06118:14
#06214:14
#06718:0016
#06712:26
#0671f:21
#06812:16
#06818:0016
#06810:41
#07118:16
#07112:0016
#07312:16
#07318:0016
#07512:0016
#07518:26
#07618:16
#07612:0016
#07912:16
#07918:0016
#08118:16
#08112:0016
#08314:14
#08310:41
#08414:14
#08518:14
#08618:14
#08712:14
#08812:14
#0891a:14
#0901a:14
#09114:14
#09218:14
#09314:14
#09418:14
#09512:14
#0961a:14
#04712:16
#04718:0016
#05518:16
#05512:0016
#06912:16
#06918:0016
#04518:16
#04512:0016
#05312:16
#05318:0016
#05310:41
#07718:16
#07712:0016
#02710:41
#027380:14
#028380:24
#029340:14
#030340:24
#0333a0:14
#0343a0:24
#035340:14
#036340:24
#037380:14
#038380:24
#041320:14
#042320:24
#046380:1626
#048320:1626
#049380:16
#050380:3626
#054320:1626
#056380:1626
#057320:16
#058320:3626
#063380:14
#065380:34
#066380:0024
#070320:1626
#072380:1626
#074320:1626
#078380:1626
#080320:1626
#082380:1626
#097320:1434
#098320:0024
