This file was generated by Ched 2.6.4.0.
#TITLE ""
#ARTIST ""
#DESIGNER ""
#DIFFICULTY 0
#PLAYLEVEL
#SONGID ""
#WAVE ""
#WAVEOFFSET 0
#JACKET ""
#REQUEST "ticks_per_beat 480"
#00002: 4
#BPM01: 195
#00008: 01
#TIL00: ""
#HISPEED 00
#MEASUREHS 00
#0001b:0000000000000013
#00115:1300000000130000
#0011b:1300000000000013
#00112:0000130000000013
#00118:00131300
#00212:0013000000000000
#00215:0000130000130013
#00218:0000001300001300
#0021b:0013
#00515:0000000000000013
#0051b:0000130000000013
#00516:00130000
#00618:0013001300000013
#00612:0000130000130000
#00615:00001313
#0061b:0013
#0041b:00130013
#00416:00000013
#00412:0013000013000000
#00415:0000001300000000
#00418:0013
#00318:00131300
#00312:23131300
#0031b:2300001300000013
#00315:0000000000000013
#00918:0000000000000013
#00912:0000000000000013
#00916:1313
#0091b:13
#00917:00130000
#01015:0013001300000013
#0101b:0000130000130000
#01018:00001313
#01012:0013
#00812:00130013
#0081b:0013000013000000
#00818:0000001300000000
#00815:0013
#00817:00000013
#00715:00131300
#0071b:23131300
#00712:2300001300000013
#00718:0000000000000013
#01115:0000130000130000
#0111b:23130000
#01118:0013
#01112:23000013
#01110:41
#01216:1300000000000013
#01212:0000001300000000
#0121b:00000013
#0131b:0013
#01315:0000000013000013
#01318:00000013
#01312:00130013
#0141b:13
#01412:00000013
#01415:0013000000000000
#0151b:13
#01512:13
#01515:00130000
#01518:00000013
#0161b:0013000000000000
#01618:00130013
#01615:0000001300000013
#01612:0013
#0281b:13
#02812:00130000
#03012:13
#0301b:00130000
#0311b:1313
#03112:00130013
#03116:0013
#03117:00130000
#03212:00131300
#03217:0000001300000000
#0321b:13000013
#03216:0000000000000013
#03312:0000001300000000
#0341b:00130000
#03412:00130000
#03418:00001313
#03415:0000001300130013
#03612:13
#03618:00130000
#0381b:13
#03815:00130000
#04012:00000013
#04016:0000131300000000
#0401b:0000000000130000
#04015:0000000000000013
#04018:0000000000000013
#04017:13
#03912:1313
#03917:0013
#0391b:00130000
#03916:00130013
#0271b:13
#02717:00130000
#02716:0013
#02712:00000013
#02715:23
#02710:41
#02912:13
#02916:00130000
#02917:0013
#0291b:00000013
#03512:13
#03516:00130000
#0351b:2313
#03517:00000013
#0371b:13
#03717:00130000
#03712:0013
#03716:00000013
#0411b:00000000001300000000000000000000
#04112:00000000001300000000000000000000
#0171b:1300130000130000
#01712:1300000000130000
#01715:00130013
#01718:0000001300000000
#01812:0000130000130000
#01815:00001313
#0181b:0013
#01818:0000000000000013
#01918:0000130000130000
#01912:2300130000000013
#01915:0013
#0191b:23000013
#02017:13
#0201b:0000001300000000
#02012:00000013
#0211b:00131300
#02117:13
#02118:0000000000130013
#02112:00000013
#02115:0013
#02312:13
#0231b:13
#02318:00130000
#02315:00000013
#02412:0013000000000000
#02415:00130013
#02418:0000001300000013
#0241b:0013
#02512:1300130000130000
#0251b:1300000000130000
#02518:00130013
#02515:0000001300000000
#0261b:0000130000130000
#02612:0000001300000000
#02618:0000001300000000
#02615:0000000000130000
#05912:23000013
#0591f:11
#0591b:0000000000000023
#0821b:0000000000130000
#08215:00001313
#08218:0000001300000013
#08212:0013000000000000
#08217:0013000000000000
#08518:0000000000000013
#08512:0000130000000013
#08517:00130000
#08615:0013001300000013
#0861b:0000130000130000
#08618:00001313
#08612:0013
#08412:00130013
#08417:00000013
#0841b:0013000013000000
#08418:0000001300000000
#08415:0013
#08315:00131300
#0831b:23131300
#08312:2300001300000013
#08318:0000000000000013
#08310:41
#08915:0000000000000013
#0891b:0000000000000013
#08917:1313
#08912:13
#08916:00130000
#09018:0013001300000013
#09012:0000130000130000
#09015:00001313
#0901b:0013
#0881b:00130013
#08812:0013000013000000
#08815:0000001300000000
#08818:0013
#08816:00000013
#08718:00131300
#08712:23131300
#0871b:2300001300000013
#08715:0000000000000013
#0931b:0000130000000013
#09316:0000130000000013
#09312:13
#09317:0013
#09412:0013000000130000
#0941b:00130000
#09415:0000001300000013
#09418:00001313
#09215:00130000
#0921b:0000001300001300
#09212:0013
#09218:0013000000000000
#09216:00000013
#09112:23130000
#09115:0013
#0911b:2300000000000013
#09618:00130000
#09612:0000001300001300
#0961b:00001313
#09615:0013000000000000
#0951b:23130000
#09518:0013
#09512:2300000000000013
#0981a:0012000000000000
#09818:00120000
#09816:0000001200000000
#09814:0012
#09712:00130000
#0971b:0013
#04318:0000001300001300
#04315:0000130000130013
#04312:23
#04310:41
#04415:0000001300000000
#04418:00130000
#04412:0013
#0441b:23
#0451b:13131300
#04512:0000001300001300
#04515:00130000
#04518:0000000000130013
#04716:00131300
#0471b:0013001300001313
#04712:0000000000000023
#04612:0000130013000013
#0461b:00131300
#04615:1300001300000000
#04618:0013000000000000
#04617:0000000000000023
#04812:0013001300000013
#04817:00131300
#04917:0000001300000000
#04912:00130000
#0491b:1300000000000013
#04914:0013
#04919:0000000000130000
#04916:00000013
#05015:0000000000130013
#05018:00000013
#05012:00130000
#06415:0013000000001300
#0641b:0000000000000013
#06418:0000000000130000
#06118:00000013
#06115:2300000000130000
#06112:0000000000000023
#06515:0013000000000000
#06518:0000000000130000
#0651a:0000000000000024
#06512:0000000000002324
#06612:0014
#06715:00130013
#06712:2300000000130000
#06718:0013001300000013
#0671b:13
#0671f:21
#0691b:13131300
#06912:00130013
#06918:0000000000130013
#06915:0000001300000000
#07015:1300000000000013
#0701b:0013130013000023
#07012:00130000
#07014:0000001300000000
#07016:0013
#07017:00000000000000000000001300000000
#07118:0000130000001313
#07115:0000001300130000
#0711b:0013000013000000
#07112:1300000013000023
#0731b:0013001300000013
#07315:0013
#07318:1300000000130000
#07312:00130013
#06818:00130000
#06812:1300001300000000
#06815:0013000000000000
#06816:00000013
#06817:0013
#0681b:23
#06810:41
#0221b:00000013
#02215:0013000000000000
#02218:00130000
#06318:0000000000130000
#05115:0000001300001300
#05118:0000130000130013
#0511b:23
#05218:0000001300000000
#05215:00130000
#0521b:0013
#05212:23
#05312:13131300
#0531b:0000001300001300
#05318:00130000
#05315:0000000000130013
#05310:41
#05517:00131300
#05512:0013001300001313
#0551b:0000000000000023
#0541b:0000130013000013
#05412:00131300
#05418:1300001300000000
#05415:0013000000000000
#05416:0000000000000023
#05617:0000000000000013
#05616:00131300
#0561b:0013001300000000
#07218:00130000
#07212:0013000013000013
#0721b:1313
#07217:00000000000000000000001300000000
#07215:0000001300000000
#07412:0000130000130000
#07417:00130000000000000000000000000000
#07418:0000000000000013
#07415:00000013
#07518:00130013
#0751b:2300000000130000
#07515:0013001300000013
#07512:13
#07712:13131300
#0771b:00130013
#07715:0000000000130013
#07718:0000001300000000
#07818:1300000000000013
#07812:0013130013000023
#0781b:00130000
#07819:0000001300000000
#07817:0013
#07816:00000000000000000000001300000000
#07915:0000130000001313
#07918:0000001300130000
#07912:0013000013000000
#0791b:1300000013000023
#07615:00130000
#0761b:1300001300000000
#07618:0013000000000000
#07617:00000013
#07616:0013
#07612:23
#08015:00130000
#0801b:0013000013000013
#08012:1313
#08016:00000000000000000000001300000000
#08018:0000001300000000
#08118:0013000000000000
#08112:2300000000230000
#08117:0000000000230000
#0811b:2300002300000023
#08116:0000232300000023
#04219:23000023000023000000000000000000
#04214:23000023000023000000000000000000
#04212:0023
#0421b:0023
#0571b:2300000000230000
#05716:0000000000230000
#05717:0000002300000023
#05712:2300230000000023
#0045b:00000063
#00456:00000063
#0055b:00630000
#00556:00630000
#00557:1313
#00552:1313
#00852:00000053
#00956:63
#00952:00130000
#0095b:6313
#00957:00530000
#0275b:63
#02757:00230000
#02756:0063
#02752:00000023
#02952:53
#02956:00230000
#02957:0053
#0295b:00000023
#03552:53
#03556:00230000
#0355b:0063
#03557:00000023
#0375b:63
#03757:00230000
#03752:0053
#03756:00000023
#04055:0000000000000063
#04058:0000000000000053
#04057:53
#04056:0000006300000000
#0415b:00000000002300000000000000000000
#04152:00000000002300000000000000000000
#0315b:0063
#03152:00000053
#03156:0063
#03157:00530000
#03957:0053
#0395b:00630000
#03956:00000063
#03952:0053
#03252:0053
#0325b:63
#08452:00000053
#08457:00000053
#08552:00530000
#08557:00530000
#08556:1313
#0855b:1313
#0885b:00000063
#08957:53
#08952:5313
#08956:00630000
#0895b:00130000
#0925b:00000063
#09356:00630000
#09357:13
#09352:0013
#0965b:00000063
#09752:00130000
#0975b:0013
#09757:13
#04358:0000001300000000
#04352:13
#0445b:13
#04657:0000000000000013
#04652:0000000000000023
#0465b:0063
#04752:0000000000000013
#0475b:0000000000000023
#04756:0063
#05752:1300000000000053
#0575b:63
#06152:0000000000000013
#06652:0014
#0665a:0014
#06752:13
#06758:0023001300000000
#0675b:63
#0685b:13
#06855:0023000000000000
#06852:53
#06856:00000063
#06857:0053
#04552:0000002300000000
#04555:00630000
#04558:0000000000230000
#0455b:0063
#06958:0000000000230000
#0695b:0063
#06955:0000002300000000
#06952:00530000
#02158:0000000000000013
#04857:0053
#05155:0000001300000000
#0515b:13
#0535b:0000002300000000
#05358:00530000
#05355:0000000000230000
#05352:0053
#0545b:0000000000000023
#05452:0053
#05456:0000000000000013
#05552:0000000000000023
#05557:0053
#0555b:0000000000000013
#05656:0063
#05252:13
#07057:00000000000000000000002300000000
#0705b:0000000063000043
#07055:0000000000000063
#07152:2300000053000033
#07155:0000000000230000
#07158:0000000000000053
#0725b:2363
#07257:00000000000000000000002300000000
#0495b:6300000000000063
#0735b:0023000000000063
#07358:53
#07457:00230000000000000000000000000000
#07555:0023001300000000
#07552:53
#0755b:13
#07658:0023000000000000
#0765b:63
#07657:00000053
#07656:0063
#07652:13
#07755:0000000000230000
#07752:0053
#07758:0000002300000000
#0775b:00630000
#07856:00000000000000000000002300000000
#07852:0000000053000033
#07858:0000000000000053
#0795b:2300000063000043
#07958:0000000000230000
#07955:0000000000000063
#08052:2353
#08056:00000000000000000000002300000000
#08158:0023000000000000
#0815b:63
#08152:33
#05952:13
#01455:0013000000000000
#0035b:13
#00752:13
#08352:13
#0875b:13
#0043b0:00000013
#004370:000000000000000000000053
#005370:23
#004361:00000013
#004321:000000000000000000000053
#005321:23
#0053b1:00130000
#005371:000000000053230000000000
#005360:00130000
#005320:000000000053230000000000
#008320:00000013
#008360:000000000000000000000053
#009360:33
#009320:000053230000000000000000
#0093b1:130000000053230000000000
#009371:000053330000000000000000
#0123b1:13
#012371:0000002300000000
#012321:0013
#012361:00000023
#0133b1:13230000
#0143b1:0000001300000000
#014371:00000023
#0153b1:00130000
#015381:0023
#015350:0013
#015320:00000023
#015320:0000000000000013
#016350:0023000000000000
#017380:0000000000000013
#018380:00230000
#020320:13
#020360:0000002300000000
#0203b0:0013
#020370:00000023
#021320:13230000
#022320:0000001300000000
#022360:00000023
#023320:00130000
#023350:0023
#023381:0013
#0233b1:00000023
#0233b1:0000000000000013
#024381:0023000000000000
#025351:0000000000000013
#026351:00230000
#0273b1:1323
#027371:00530000
#027360:0013
#027320:00000053
#028360:23
#0283b0:00130000
#028380:0023
#028351:0013
#028321:00000023
#0283b0:00000013
#029380:23
#029321:1323
#029361:00530000
#029370:0013
#0293b0:00000053
#030370:23
#030320:00130000
#030350:0023
#030381:0013
#0303b1:00000023
#030320:00000013
#031350:23
#031370:00130023
#0313b0:0033
#031361:0013
#031321:00000033
#032361:23
#0323b0:13
#032370:00230000
#032320:0013
#032360:00000023
#0333b0:13
#0343b0:23
#033321:0013
#034321:23
#035321:1323
#035361:00530000
#0353b0:0013
#035370:00000053
#0363b0:23
#036350:00130000
#036320:0023
#0363b1:0013
#036381:00000023
#036350:00000013
#037320:23
#0373b1:1323
#037371:00530000
#037320:0013
#037360:00000053
#038320:23
#038380:00130000
#0383b0:0023
#038321:0013
#038351:00000023
#038380:00000013
#0393b0:23
#0393b0:00130023
#039370:0033
#039321:0013
#039361:00000033
#040321:23
#040370:13
#0403b0:00230000
#040360:0000001300000000
#040320:0000000000230000
#040380:0000000000000013
#0413b0:00000000005300000000000000000000
#041380:00000023
#040351:0000000000000013
#041321:00000000005300000000000000000000
#041351:00000023
#0433b1:13
#043381:00230000
#044321:13
#044351:00230000
#0443b1:0013
#044371:00000023
#044320:00000013
#045360:23
#045350:00132300
#045320:0000005300000000
#0453b1:00001323
#045381:0000000000530000
#0463b1:0013
#046371:0000000000000023
#046320:0000000000000013
#047360:0023000000000000
#047360:0013
#047320:00000023
#0473b0:0000000000000013
#048370:0023000000000000
#048370:0013
#0483b0:0000000000000023
#0493b0:13
#049370:00230000
#0493b0:0000000000000013
#050370:00230000
#051320:13
#051350:00230000
#0523b0:13
#052380:00230000
#052320:0013
#052360:00000023
#0523b1:00000013
#053371:23
#053381:00132300
#0533b1:0000005300000000
#053320:00001323
#053350:0000000000530000
#054320:0013
#054360:0000000000000023
#0543b1:0000000000000013
#055371:0023000000000000
#055371:0013
#0553b1:00000023
#055321:0000000000000013
#056361:0023000000000000
#056361:0013
#056321:0000000000000023
#0573b1:13
#057371:00230000
#057321:0000000000000013
#058361:00230000
#0583b0:0000132300000000
#058361:0000001323000000
#058390:0000000013230000
#058341:0000000000132300
#058370:0000000000001323
#058321:0000000000000013
#059321:23
#0593b0:135353535353230000000000000000000000000000000000
#0593a0:005300530053005300530053000000000000000000000000000000000000000000000000000000000000000000000000
#059321:000000000000135353535353230000000000000000000000
#059331:000000000000000000000000005300530053005300530053000000000000000000000000000000000000000000000000
#059380:000000000000000000000000135353535353230000000000
#059390:000000000000000000000000000000000000000000000000005300530053005300530053000000000000000000000000
#059350:000000000000000000000000000000000000000000135353
#059340:000000000000000000000000000000000000000000000000000000000000000000000000000000000000005300530053
#060350:535353230000000000000000000000000000000000000000
#060340:005300530053000000000000000000000000000000000000000000000000000000000000000000000000000000000000
#060381:000000135353230000000000000000000000000000000000
#060391:000000000000005300530053000000000000000000000000000000000000000000000000000000000000000000000000
#060320:000000000000135353230000000000000000000000000000
#060330:000000000000000000000000005300530053000000000000000000000000000000000000000000000000000000000000
#0603b1:000000000000000000135353230000000000000000000000
#0603a1:000000000000000000000000000000000000005300530053000000000000000000000000000000000000000000000000
#060350:000000000000000000000000135353230000000000000000
#060340:000000000000000000000000000000000000000000000000005300530053000000000000000000000000000000000000
#060381:000000000000000000000000000000135353230000000000
#060391:000000000000000000000000000000000000000000000000000000000000005300530053000000000000000000000000
#060320:000000000000000000000000000000000000135353230000
#060330:000000000000000000000000000000000000000000000000000000000000000000000000005300530053000000000000
#0603b1:000000000000000000000000000000000000000000135353
#0603a1:000000000000000000000000000000000000000000000000000000000000000000000000000000000000005300530053
#0613b1:23
#061381:000000135353230000000000000000000000000000000000
#061391:000000000000005300530053000000000000000000000000000000000000000000000000000000000000000000000000
#061320:000000000000135353230000000000000000000000000000
#061330:000000000000000000000000005300530053000000000000000000000000000000000000000000000000000000000000
#0613b1:000000000000000000135353535353230000000000000000
#0613a1:000000000000000000000000000000000000005300530053005300530053000000000000000000000000000000000000
#0613b1:000000000000000000000000000000000000000000135353
#0613a1:000000000000000000000000000000000000000000000000000000000000000000000000000000000000005300530053
#0623b1:535353535353535353535353535353535353535353535353
#0623a1:005300530053005300530053005300530053005300530053005300530053005300530053005300530053005300530053
#0633b1:23
#063350:1323000000000000
#063381:0013230000000000
#063320:0000132300000000
#0633b1:0000001323000000
#063350:0000000013230000
#0633b0:0000000000000013
#0643b0:0023000000000000
#064320:0000001300230000
#065380:0013002300000000
#065351:0000001300230000
#0653a1:000000000000000000000000000000000000000000145454
#065391:000000000000000000000000000000000000000000000000000000000000000000000000000000000000005400340054
#0663a1:345454345454345454345454240000000000000000000000
#066391:005400340054005400340054005400340054005400340054000000000000000000000000000000000000000000000000
#0673b1:13230000
#067381:0053000000000000
#068321:13230000
#068351:0053000000000000
#068371:0013
#0683b1:00000023
#068360:00000013
#069320:23
#069320:00132300
#069350:0000005300000000
#0693b1:00001323
#069381:0000000000530000
#0703b1:0000000013000023
#070371:00000000000000000000005300000000
#070350:0000000000000013
#071320:53
#071350:0023000000000000
#071320:00001323
#071350:0000000000530000
#071380:0000000000000013
#0723b0:53
#072380:0023000000000000
#0723b0:0000000013000023
#072370:00000000000000000000005300000000
#073380:13230000
#0733b0:0053000000000000
#0733b0:0000000000000013
#074370:00530000000000000000000000000000
#0743b0:00230000
#075320:13230000
#075350:0053000000000000
#0763b0:13230000
#076380:0053000000000000
#076360:0013
#076320:00000023
#076371:00000013
#0773b1:23
#0773b1:00132300
#077381:0000005300000000
#077320:00001323
#077350:0000000000530000
#078320:0000000013000023
#078360:00000000000000000000005300000000
#078381:0000000000000013
#0793b1:53
#079381:0023000000000000
#0793b1:00001323
#079381:0000000000530000
#079351:0000000000000013
#080321:53
#080351:0023000000000000
#080321:0000000013000023
#080361:00000000000000000000005300000000
#0813b1:13230000
#081381:0053000000000000
#084321:00000013
#084361:000000000000000000000053
#085361:23
#084370:00000013
#0843b0:000000000000000000000053
#0853b0:23
#085320:00130000
#085360:000000000053230000000000
#085371:00130000
#0853b1:000000000053230000000000
#0883b1:00000013
#088371:000000000000000000000053
#089371:33
#0893b1:000053230000000000000000
#089320:130000000053230000000000
#089360:000053330000000000000000
#091380:00132300
#091350:0000000000000013
#092350:0023000000000000
#0923b0:00000013
#092370:000000000000000000000053
#093370:23
#093360:00130000
#093320:000000000053230000000000
#095350:00132300
#095380:0000000000000013
#096380:0023000000000000
#0963b0:00000013
#096370:000000000000000000000053
#097370:23
#097360:0000000000000012
#098360:0022000000000000
