This file was generated by Ched 2.6.4.0.
#TITLE ""
#ARTIST ""
#DESIGNER ""
#DIFFICULTY 0
#PLAYLEVEL
#SONGID ""
#WAVE ""
#WAVEOFFSET 0
#JACKET ""
#REQUEST "ticks_per_beat 480"
#00002: 4
#BPM01: 195
#00008: 01
#TIL00: ""
#HISPEED 00
#MEASUREHS 00
#0011b:1300130000000013
#00112:0000000000000013
#00115:1300130000130000
#00118:0013
#00515:0000130000000013
#0051b:0000000000000013
#00618:0013001300000013
#00612:00131300
#0061b:0000000000130000
#00615:00000013
#0041b:0013001300001300
#00415:00131300
#00318:0000001300000013
#00312:0000000000000013
#00315:00131300
#0031b:23
#00918:0000000000000013
#00912:0000000000000013
#00915:00130000
#01012:0000000000130000
#01018:00000013
#01015:0013001300000013
#0101b:00131300
#01112:00130000
#0111b:2313
#01115:0000000000130000
#01118:00000013
#01110:41
#0131b:0013
#01315:0013
#01312:00000013
#01318:0000000000000013
#0161b:00130000
#01615:0000001300001300
#01618:0000000013000013
#02815:00130000
#0281a:00130000
#02819:0013
#02814:0013
#02818:00000013
#02813:00000013
#02716:13
#02712:0013
#0271b:13
#02717:0013
#02710:41
#01718:0000130000130000
#01715:0000001300001300
#01712:13
#0821b:0000000000130000
#08218:0013001300000013
#08215:00001313
#08212:0013000000000000
#09318:0000000000000013
#09312:0000130000000013
#09415:0013001300000013
#0941b:00131300
#09412:0000000000130000
#09418:00000013
#09215:00130000
#0921b:0000001300000000
#09212:0013
#09218:0013000000001300
#09819:0012000000000000
#09815:0012
#09816:00120000
#09818:0000001200000000
#0971b:0000130000000013
#09715:0013
#09712:0000000000000013
#04318:0000001300000000
#04315:0000130000000013
#04312:0000000000130000
#0431b:23000013
#04310:41
#04715:00131300
#0471b:0013001300000000
#04712:0000000000000023
#04812:00131300
#04818:0013001300000000
#0491b:1300000000003313
#04918:0000003300000000
#04919:0033
#0491a:0000000000330000
#07418:0000000000000013
#07415:00000013
#0741b:0000000000130000
#00715:0000001300000013
#0071b:0000000000000013
#00718:00131300
#00712:23
#00812:0013001300001300
#00818:00131300
#01415:13
#01418:0000001300000000
#0181b:0000000000130000
#01815:00000013
#01818:0000000000000013
#01812:0013
#0191b:0000130000000013
#01912:2313
#01918:0000000000130000
#01915:00000013
#02112:0000000000130000
#02118:0013
#0211b:00000013
#02412:00130000
#02418:0000001300001300
#02415:0000000013000013
#02515:0000130000130000
#02518:0000001300001300
#0251b:13
#03018:00130000
#03013:00130000
#03014:0013
#03019:0013
#03015:00000013
#0301a:00000013
#02917:13
#0291b:0013
#02912:13
#02916:0013
#03215:0000001300001300
#03218:0000000013000013
#0321b:00130000
#03517:13
#0351b:0013
#03512:13
#03516:0013
#0371b:13
#03717:0013
#03716:13
#03712:0013
#04018:0000001300001300
#04012:00130000
#04015:0000000000130000
#04418:2300001300000000
#04415:00130013
#04412:0013
#04515:00000013
#0451b:00130000
#04518:0000000000000013
#04612:0013
#04615:0000130000000023
#04618:0000001300000000
#0461b:0013000000000000
#05115:0000001300000000
#05118:0000130000000013
#0511b:0000000000130000
#05112:23000013
#0561b:00131300
#05615:0013001300000000
#05215:2300001300000000
#05218:00130013
#0521b:0013
#0501b:0000000000130000
#05015:00000013
#05018:0000000000000013
#0581b:00130000
#05818:0013
#05815:00000013
#06112:00140000
#06718:0000001300000000
#06712:0000130000000013
#06715:0000000000130000
#0671b:23000013
#0671f:21
#07115:0000130000000023
#07118:0000001300000000
#0711b:0013000000000000
#07112:0013
#06918:0000000000000013
#06912:00000013
#0691b:00130000
#07015:00000000130000000000001300000000
#0701b:0000001300000000
#07012:0000000013000023
#07018:0013000000000000
#0681b:0000001300000000
#06812:00130013
#06815:0013
#06818:23
#06810:41
#07215:00131300
#0721b:0013001300000000
#07312:00001313
#07318:0000000000130013
#0731b:13
#07515:0000001300000000
#0751b:0000130000000013
#07518:0000000000130000
#07512:23000013
#07918:0000130000000023
#07915:0000001300000000
#07912:0013000000000000
#0791b:0013
#07612:0000001300000000
#0761b:00130013
#07618:0013
#07615:23
#08518:0000130000000013
#08512:0000000000000013
#08615:0013001300000013
#0861b:00131300
#08612:0000000000130000
#08618:00000013
#08412:0013001300001300
#08418:00131300
#08315:0000001300000013
#0831b:0000000000000013
#08318:00131300
#08312:23
#08310:41
#08915:0000000000000013
#0891b:0000000000000013
#08918:00130000
#0901b:0000000000130000
#09015:00000013
#09018:0013001300000013
#09012:00131300
#08718:0000001300000013
#08712:0000000000000013
#08715:00131300
#0871b:23
#0881b:0013001300001300
#08815:00131300
#09112:2300000000000013
#0911b:0000000000000013
#09618:00130000
#09612:0000001300000000
#0961b:0013
#09615:0013000000001300
#0951b:2300000000000013
#09512:0000000000000013
#00212:0000000000130000
#00218:00131313
#00215:0013001300000013
#05518:00131300
#05512:0013001300000000
#0551b:0000000000000023
#0151b:00130000
#01518:0013
#01515:0000000000000013
#02012:13
#02312:00130000
#02315:0013
#02318:0000000000000013
#05312:00130000
#05318:00000013
#05315:0000000000000013
#05310:41
#07712:00130000
#07715:0000000000000013
#0771b:00000013
#08018:00131300
#08012:0013001300000000
#02215:0000001300000000
#02214:00330000
#04212:13
#04215:00000033000000000000000000000000
#04216:0000003400000000
#0541b:0013
#05418:0000130000000023
#05415:0000001300000000
#05412:0013000000000000
#07818:00000000130000000000001300000000
#07812:0000001300000000
#0781b:0000000013000023
#07815:0013000000000000
#03617:00001313
#03612:00001313
#03616:00130000
#0361b:00130000
#03816:00001313
#0381b:00001313
#03817:00130000
#03812:00130000
#06515:0000000000130000
#06518:0000001300002400
#0651b:0013000000000000
#06514:0000000000000024
#03416:00130000
#0341b:0000001300000000
#03412:00000013
#03414:0013
#03419:0000000000130000
#03417:0000000000000013
#01215:0000000000000013
#0121b:0013
#0591f:11
#05718:2300002300230000
#05712:0000000000230000
#05715:0000230000000023
#0571b:0000000000000023
#08112:0000000000230000
#08118:0000002300230000
#0811b:2300000000000023
#08115:0000230000000023
#06414:00000033
#0045b:00000063
#02756:63
#02752:0053
#0275b:63
#02757:0053
#0435b:13
#04458:13
#04452:0053
#04455:00000063
#04752:0000000000000013
#04755:0063
#05758:13
#04852:0053
#0495b:6300000000000063
#00555:00630000
#00955:00630000
#00852:00000053
#02957:53
#0295b:0063
#02952:53
#02956:0063
#03557:53
#0355b:0063
#03552:53
#03556:0063
#0375b:63
#03757:0053
#03756:63
#03752:0053
#04652:0053
#04655:0000000000000013
#0565b:0063
#05152:13
#05255:13
#0525b:0063
#05258:00000053
#06654:0014
#07052:0000000053000013
#07055:00000000000000000000002300000000
#0675b:13
#06858:13
#06852:00000053
#06855:0063
#07152:0053
#07155:0000000000000013
#07255:0063
#07358:0000000000000053
#0735b:63
#07552:13
#07655:13
#0765b:00000063
#07658:0053
#08452:00000053
#08558:00530000
#0885b:00000063
#08958:00530000
#09258:00000053
#09352:00530000
#09655:00000063
#05558:0053
#0555b:0000000000000013
#0155b:00630000
#01558:0053
#01555:0000000000000063
#02052:53
#02352:00530000
#02355:0063
#02358:0000000000000053
#0455b:00630000
#05352:00530000
#07752:00530000
#0695b:00630000
#0795b:0063
#07958:0000000000000013
#08058:0053
#0815b:13
#01458:0000005300000000
#02255:0000006300000000
#04252:53
#0545b:0063
#05458:0000000000000013
#0785b:0000000063000013
#07858:00000000000000000000002300000000
#0035b:13
#00752:13
#08352:13
#0875b:13
#0043b0:00000013
#005380:23
#005350:00130000
#005320:0023
#008320:00000013
#009350:33330000
#009320:0023
#012320:13
#012350:0000002300000000
#013380:13230000
#0143b0:0013000000002300
#014380:0000003300000000
#0153b0:00130023
#015380:0033
#015350:0000000000000013
#016320:0023000000000000
#0173b0:0000000000000013
#0183b0:00230000
#020320:13
#020350:0000002300000000
#0203b0:00001323
#021350:13230000
#021350:0000000000000013
#022320:0033000000002300
#022340:00330000
#022350:0000003300000000
#023320:00130023
#023350:0033
#023380:0000000000000013
#0243b0:0023000000000000
#025320:0000000000000013
#026320:00000023
#027360:13
#027320:0033
#028360:23
#0273b1:13
#027371:0033
#0283b1:23
#029371:13
#0293b1:0033
#030371:23
#029320:13
#029360:0033
#030320:23
#0313b0:00130000
#031380:0023
#031320:00000013
#032350:23
#033320:1300002300000000
#0333b0:0013
#0343b0:23
#035370:13
#0353b0:0033
#036370:23
#035321:13
#035361:0033
#036321:23
#0373b1:13
#037371:0033
#0383b1:23
#037360:13
#037320:0033
#038360:23
#039320:00130000
#039350:0023
#0393b0:00000013
#040380:23
#040350:0000000000000013
#042320:33
#042350:00000033000000000000000000000000
#042360:0000003424000000
#044320:0013
#044350:00000033
#045320:23
#0453b0:00130000
#045380:0023
#046320:0013
#046350:0000000000000023
#047350:0013
#047320:0000000000003323
#048320:0013
#048350:0000000000000023
#0493b0:1300000000003333
#049380:0000333300000000
#049390:0033
#0493a0:0000000000330000
#050370:00230000
#0523b0:0013
#052380:00000033
#0533b0:23
#053320:00130000
#053350:0023
#0543b0:0013
#054380:0000000000000023
#055380:0013
#0553b0:0000000000003323
#0563b0:0013
#056380:0000000000000033
#057380:23
#059330:14545454345454542400000000000000
#059320:0054005400540054000000000000000000000000000000000000000000000000
#059340:0000000000000000005400540054005400000000000000000000000000000000
#059390:00000000000000000000000000001454
#0593a0:0000000000000000000000000000000000000000000000000000000000540054
#060390:54543454345434543454345434543454
#0603a0:0054005400540054000000000000000000540054005400540000000000000000
#060380:0000000000000000005400540054005400000000000000000054005400540054
#061390:24
#061380:00000000000014545454240000000000
#061390:0000000000000000000000000054005400540054000000000000000000000000
#061320:00000000000000000000000000001454
#061330:0000000000000000000000000000000000000000000000000000000000540054
#062320:54545454545454545454545454545454
#062330:0054005400540054005400540054005400540054005400540054005400540054
#063320:54545454545454542400000000000000
#063330:0054005400540054005400540054005400000000000000000000000000000000
#063380:0000000000000013
#0643b0:0023000000000000
#064350:0000001300000023
#064320:0000000000330000
#064340:00000033
#065340:000000000000000000000000000000000000000000145454
#065330:000000000000000000000000000000000000000000000000000000000000000000000000000000000000005400340054
#066340:345454345454345454345454240000000000000000000000
#066330:005400340054005400340054005400340054005400340054000000000000000000000000000000000000000000000000
#068350:0013
#068320:00000033
#069350:23
#0693b0:00130000
#069380:0023
#070320:0000000013000023
#070350:00000000000000000000005300000000
#071320:0013
#071350:0000000000003323
#072350:0013
#072320:0000000000000023
#0733b0:13
#073380:0000332300000000
#073380:0000000000000013
#0743b0:00230000
#076380:0013
#0763b0:00000033
#077380:23
#077320:00130000
#077350:0023
#0783b0:0000000013000023
#078380:00000000000000000000005300000000
#0793b0:0013
#079380:0000000000003323
#080380:0013
#0803b0:0000000000000033
#0813b0:23
#084320:00000013
#085350:23
#085380:00130000
#0853b0:0023
#0883b0:00000013
#089380:33330000
#0893b0:0023
#091380:00132300
#092380:00000013
#0933b0:23
#093320:00130000
#093350:0023
#095350:00132300
#096350:00000013
#097320:23
