This file was generated by Ched 2.6.4.0.
#TITLE ""
#ARTIST ""
#DESIGNER ""
#DIFFICULTY 0
#PLAYLEVEL
#SONGID ""
#WAVE ""
#WAVEOFFSET 0
#JACKET ""
#REQUEST "ticks_per_beat 480"
#00002: 4
#BPM01: 195
#00008: 01
#TIL00: ""
#HISPEED 00
#MEASUREHS 00
#00015:0000000000000013
#00018:00000000000000000000000000000013
#00112:1300000013000014
#0011b:1300130000130000
#00116:0000130000130000
#00117:0013
#0011a:0000000000000014
#00212:0013000000130000
#0021b:0013
#00215:0000001300001300
#00218:0000130000000013
#00216:0014000014000000
#00516:0000000000000013
#0051b:0000000000000013
#00512:00000013
#00619:0013001300000000
#00616:00130013
#00612:1313
#00617:1313
#00614:0000000000130000
#00618:0000000000000013
#0061b:00130000
#00615:00000000000000000000000000000013
#00317:00130000
#00312:23130000
#0031b:2300000013001313
#00316:0000000013000013
#00319:0000001300000000
#00414:0013001300000000
#0041b:00130000
#00417:1313
#00412:1313
#00416:00130000
#01115:00130013
#01112:2313
#0111b:13001313
#01118:0000000000130000
#01117:0013000000000000
#01110:41
#01212:1313
#01215:00130013
#0151b:1313
#01512:1300130000000013
#01518:00130013
#01516:0013
#0161b:1313
#01618:00130013
#01612:00131313
#01615:0000001300000000
#01616:13
#0321b:1300001300000000
#03212:0000000013000013
#03216:13000013
#03217:00131300
#03316:2400001400002400
#0341b:00130013
#03415:0000130000161300
#03418:0000001613000000
#03412:0000000013000016
#0341a:14
#0401b:0000000013000013
#04012:1300001313000013
#04017:13
#04016:00130000
#04018:0000000000130000
#04015:00000013
#04116:000000000000000000000000000000000000000000000000000000000000000000000000000000000000000000000000000000000000000000000000000000000000000000000000000000000000000000000000000000000000000000000000000000000000000000000000000000000000000000000000000000000000000000000000000000000000000000000000000000000000000000000000000000000000000000000000000000000000000000000000000000000000000000000000000000000000000000000000000000000000000000000000000000000000000000000000000000000000000000000000000000000000000000000000000000000000000000000000000000000000000000000000000000000000000000000000000000000000000000000000000000000000000000000000000000000000000000000000000000000000000000000000000000000000000000000000000000000000000000000000000000000000000000000000000000000000000000000000000000000000000000000000000000000000000000000000000000000000000000000000000000000000000000000000000000000000000000000000000000000000000000000000000000000000000000000000000000000000000000000000000000000000000000000000000000000000000000000000000000000000000000000000000000000000000000000000000000000000000000000000000000000000000000000000000000000000000000000000000000000000000000000000000000000000000000000000000000000000000000000000141400000000000000000000000000000000000000000000000000000000000000000000000000000000000000000000000000000000000000000000000000000000000000000000000000000000000000000000000000000000000000000000000000000000000000000000000000000000000000000000000000000000000000000000000000000000000000000000000000000000000000000000000000000000000000000000000000000000000000000000000000000000000000000000000000000000000000000000000000000000000000000000000000000000000000000000000000000000000000000000000000000000000000000000000000000000000000000000000000000000000000000000000000000000000000000000000000000000000000000000000000000000000000000000000000000000000000000000000000000000000000000000000000000000000000000000000000000000000000000000000000000000000000000000000000000000000000000000000000000000000000000000000000000000000000000000000000000000000000000000000000000000000000000000000000000000000000000000000000000000000000000000000000000000000000000000000000000000000000000000000000000000000000000000000000000000000000000000000000000000000000000000000000000000000000000000000000000000000000000000000000000000000000000000000000000000000000000000000000000000000000000000000000000000000000000000000000000000000000000000000000000000000000000000000000000000000000000000000000000000000000000000000000000000000000000000000000000000000000000000000000000000000000000000000000000000000000000000000000000000000000000000000000000000000000000000000000000000000000000000000000000000000000000000000000000000000000000000000000000000000000000000000000000000000000000000000000000000000000000000000000000000000000000000000000000000000000000000000000000000000000000000000000000000000000000000000000000000000000000000000000000000000000000000000000000000000000000000000000000000000000000000000000000000000000000000000000000000000000000000000000000000000000000000000000000000000000000000000000000000000000000000000000000000000000000000000000000000000000000000000000000000000000000000000000000000000000000000000000000000000000000000000000000000000000000000000000000000000000000000000000000000000000000000000000000000000000000000000000000000000000000000000000000000000000000000000000000000000000000000000000000000000000000000000000000000000000000000000000000000000000000000000000000000000000000000000000000000000000000000000000000000000000000000000000000000000000000000000000000000000000000000000000000000000000000000000000000000000000000000000000000000000000000000000000000000000000000000000000000000000000000000000000000000000000000000000000000000000000000000000000000000000000000000000000000000000000000000000000000000000000000000000000000000000000000000000000000000000000000000
#03112:13001313
#0311b:00130000
#03117:0013
#03116:00130000
#0171b:1313
#01718:00130013
#01712:0000131300000013
#01714:00000013
#01716:0000000000130000
#0181b:13131313
#01812:13130000
#01812:13
#01815:0013000013001300
#01818:00000013000000000000130000001300
#0191b:23131313
#01916:0013000000130000
#01917:0000000000000013
#01912:23000013
#02017:1300000000130000
#02014:0000001300000000
#02012:13000013
#0201b:00131300
#02016:0013000013000000
#0211b:1300000013001313
#02117:00130000
#02118:0000000000130000
#02116:13
#02312:1300130000130013
#0231b:1300001300001300
#02315:0013
#02317:00130000
#02419:0013000000000000
#02416:00130000
#02414:0000001300000000
#02417:1313
#02412:13001313
#02415:0000000000000013
#0241b:00130013
#02518:13
#02517:0000000000130013
#0251b:00000013
#02512:0000001300000000
#02612:0000001300000000
#02617:0000001300000000
#02616:0000130000130000
#0261b:0000000000130000
#05912:00000013
#05914:00130000
#05913:0013
#0591f:11
#05915:23
#0591b:0000000000000023
#0931b:1300000000001313
#09316:0000000000000013
#09312:00131300
#09412:0013000000130000
#0941b:0000130000130000
#09418:0000001300000013
#09415:00001313
#09417:0013000000000000
#09414:13
#09215:0000131300000000
#09212:1313
#09218:1313000013000000
#0921b:00130013
#0911b:0000000013001313
#09115:00000013
#09112:23
#09612:00130013
#09618:0000131300131300
#0961b:1300000013000013
#09615:13001300000000001300001300001300
#09712:00140000
#09715:16
#0971a:0014
#09714:0000000000000012
#0431b:1300001300130013
#04315:0000000000130013
#04318:00000013
#04312:2313
#04317:0013000000000000
#04310:41
#0451b:13
#04517:00130000
#04512:00000013
#04519:0000000000000013
#04717:0000130013000013
#0471b:0013001300001300
#04712:1300130013000023
#04716:0000000000130000
#04616:1300000013000013
#04619:0013000000000000
#04617:00000000130000000000001300000000
#04612:0000130000131300
#04614:0000001300000000
#0461b:1300000000000023
#0491b:1300001313001300
#04917:0000130000000013
#04916:1300001300001300
#04912:0000000013000013
#04914:0000000000130000
#05015:00000000000000130000130013000013
#05018:00000000000013001300001300001300
#0501b:00130000
#05017:00130000000000000000000000000000
#06112:0000131300001323
#0611b:00000013
#06115:0013000000130000
#06712:1300000000131300
#06712:13
#06716:0013001300000013
#0671b:2300000013000013
#06717:0000000000130000
#0671f:21
#06912:1300000000000013
#0691b:00130000
#06916:00000013
#07016:13
#07014:0013000000000000
#07017:00130013
#07012:00000000130000000000001300001300
#07019:0000001300000000
#0701b:1300000013130023
#0711b:0000130013001313
#07112:0000001300130023
#07117:0013000000000000
#07116:13131300
#07317:1300001300001313
#07316:0013
#07319:0000000000130000
#07312:1300001300001300
#0731b:0000130013000013
#0821b:0013000013000000
#08216:0014001414000000
#08212:0000001300130000
#08215:00000013
#08218:0000000000000013
#0221b:0000130000131300
#02212:1313001300001300
#02216:00130000
#02217:13
#00716:00130000
#0071b:23130000
#00712:2300000013001313
#00717:0000000013000013
#00714:0000001300000000
#00819:0013001300000000
#00812:00130013
#00816:1313
#0081b:1313
#00817:00130000
#00917:0000000000000013
#00912:0000000013000013
#0091b:00000013
#01014:0013001300000000
#01017:00130013
#0101b:1313
#01016:1313
#01019:0000000000130000
#01015:0000000000000013
#01012:00130000
#01412:13131300
#01418:00001300000000000000001300000000
#01415:0000000000131300
#0141b:13
#01417:0000001300000000
#01312:1313
#01315:00130013
#01318:0000000000000013
#0131b:13130000
#01317:0013000013000000
#02712:13
#02716:00130013
#02717:0013
#0271b:23130013
#02714:0000000000000013
#02719:0000001300000000
#02710:41
#02814:0000001300000013
#02819:0000000000130000
#02912:13
#02916:00130013
#02917:0013
#0291b:00130013
#02914:0000000000000013
#02919:0000001300000000
#03014:0000001300000013
#03019:0000000000130000
#0351b:13
#03517:00130013
#03516:0013
#03512:23130013
#03519:0000000000000013
#03514:0000001300000000
#03619:0000001300000013
#03614:0000000000130000
#0371b:13
#03717:00130013
#03716:0013
#03712:00130013
#03719:0000000000000013
#03714:0000001300000000
#03819:0000001300000013
#03814:0000000000130000
#0391b:13001313
#03912:00130000
#03916:0013
#03917:00130000
#0581a:0013
#05819:00000013
#05816:00130000000000000000000000000000
#04816:00131300
#04812:0013001300001313
#0481b:13131300
#04817:0000000000130013
#05112:1300001300130013
#05118:0000000000130013
#05115:00000013
#0511b:2313
#05116:0013000000000000
#05312:13
#05316:00130000
#0531b:00000013
#05314:0000000000000013
#05310:41
#05516:0000130013000013
#05512:0013001300001300
#0551b:1300130013000023
#05517:0000000000130000
#05417:1300000013000013
#05414:0013000000000000
#05416:00000000130000000000001300000000
#0541b:0000130000131300
#05419:0000001300000000
#05412:1300000000000023
#05617:00131300
#0561b:0013001300001313
#05612:13131300
#05616:0000000000130013
#04412:1300000000000013
#04416:0013000000001300
#0441b:2313
#04417:0000000000130000
#0521b:1300000000000013
#05217:0013000000001300
#05212:2313
#05216:0000000000130000
#08517:0000000000000013
#08512:0000000000000013
#0851b:00000013
#08614:0013001300000000
#08617:00130013
#0861b:1313
#08616:1313
#08619:0000000000130000
#08615:0000000000000013
#08612:00130000
#08618:00000000000000000000000000000013
#08316:00130000
#0831b:23130000
#08312:2300000013001313
#08317:0000000013000013
#08314:0000001300000000
#08310:41
#08419:0013001300000000
#08412:00130000
#08416:1313
#0841b:1313
#08417:00130000
#08717:00130000
#08712:23130000
#0871b:2300000013001313
#08716:0000000013000013
#08719:0000001300000000
#08814:0013001300000000
#0881b:00130013
#08817:1313
#08812:1313
#08816:00130000
#08916:0000000000000013
#0891b:0000000013000013
#08912:00000013
#09019:0013001300000000
#09016:00130013
#09012:1313
#09017:1313
#09014:0000000000130000
#09018:0000000000000013
#0901b:00130000
#09015:00000000000000000000000000000013
#09512:0000000013001313
#09518:00000013
#0951b:23
#06317:0000001313000000
#06314:00000000000000130000000000000000
#0631b:1300130000130013
#06316:0013000000001300
#06312:1300230000000023
#06415:1300000000000013
#06418:0013000000001300
#0641b:0000130000130000
#06416:0000001313000000
#06419:00000000000000130000000000000000
#06412:00230023
#06519:13
#06516:0013000000000000
#0651b:00130000
#06517:0000001300130000
#06514:0013
#06513:0000000000002a2a
#06512:00230000
#06215:0013000013131300
#06218:00000000000000000013001300000000
#06212:0000001300000000
#06817:0013000000000013
#0681b:13000013
#0681b:13
#06812:2313
#06816:0000000000130000
#06810:41
#07212:00131313
#0721b:0000001300130013
#07216:0013000000000013
#07217:13131300
#0741b:0000130000131300
#07412:00130000000013001300000000001300
#07417:00000000000000130000000000000013
#07416:00000000000000000000001300000000
#0751b:1300000000131300
#0751b:13
#07517:0013001300000013
#07512:2300000013000013
#07516:0000000000130000
#0771b:1300000000000013
#07712:00130000
#07717:00000013
#07817:13
#07819:0013000000000000
#07816:00130013
#0781b:00000000130000000000001300001300
#07814:0000001300000000
#07812:1300000013130023
#07912:0000130013001313
#0791b:0000001300130023
#07916:0013000000000000
#07917:13131300
#07616:0013000000000013
#07612:13000013
#07612:13
#0761b:2313
#07617:0000000000130000
#0801b:00131313
#08012:0000001300130013
#08017:0013000000000013
#08016:13131300
#0981a:0012
#0421b:23
#04212:2326
#0421a:00000023000000000000000000000000
#04213:00000023000000000000000000000000
#04219:0000002300000000
#04214:0000002300000000
#04218:0026
#05712:2300230000230000
#0571b:2300002300000023
#05716:0000002400240024
#05715:0023000000000000
#05718:00000023000000000000000000000000
#0811b:2300230000230000
#08112:2300002300000023
#08116:0000002400240024
#08118:0023000000000000
#08115:00000023000000000000000000000000
#0405b:0000000000000063
#04057:53
#04052:0000000000000053
#04156:000000000000000000000000000000000000000000000000000000000000000000000000000000000000000000000000000000000000000000000000000000000000000000000000000000000000000000000000000000000000000000000000000000000000000000000000000000000000000000000000000000000000000000000000000000000000000000000000000000000000000000000000000000000000000000000000000000000000000000000000000000000000000000000000000000000000000000000000000000000000000000000000000000000000000000000000000000000000000000000000000000000000000000000000000000000000000000000000000000000000000000000000000000000000000000000000000000000000000000000000000000000000000000000000000000000000000000000000000000000000000000000000000000000000000000000000000000000000000000000000000000000000000000000000000000000000000000000000000000000000000000000000000000000000000000000000000000000000000000000000000000000000000000000000000000000000000000000000000000000000000000000000000000000000000000000000000000000000000000000000000000000000000000000000000000000000000000000000000000000000000000000000000000000000000000000000000000000000000000000000000000000000000000000000000000000000000000000000000000000000000000000000000000000000000000000000000000000000000000000000242400000000000000000000000000000000000000000000000000000000000000000000000000000000000000000000000000000000000000000000000000000000000000000000000000000000000000000000000000000000000000000000000000000000000000000000000000000000000000000000000000000000000000000000000000000000000000000000000000000000000000000000000000000000000000000000000000000000000000000000000000000000000000000000000000000000000000000000000000000000000000000000000000000000000000000000000000000000000000000000000000000000000000000000000000000000000000000000000000000000000000000000000000000000000000000000000000000000000000000000000000000000000000000000000000000000000000000000000000000000000000000000000000000000000000000000000000000000000000000000000000000000000000000000000000000000000000000000000000000000000000000000000000000000000000000000000000000000000000000000000000000000000000000000000000000000000000000000000000000000000000000000000000000000000000000000000000000000000000000000000000000000000000000000000000000000000000000000000000000000000000000000000000000000000000000000000000000000000000000000000000000000000000000000000000000000000000000000000000000000000000000000000000000000000000000000000000000000000000000000000000000000000000000000000000000000000000000000000000000000000000000000000000000000000000000000000000000000000000000000000000000000000000000000000000000000000000000000000000000000000000000000000000000000000000000000000000000000000000000000000000000000000000000000000000000000000000000000000000000000000000000000000000000000000000000000000000000000000000000000000000000000000000000000000000000000000000000000000000000000000000000000000000000000000000000000000000000000000000000000000000000000000000000000000000000000000000000000000000000000000000000000000000000000000000000000000000000000000000000000000000000000000000000000000000000000000000000000000000000000000000000000000000000000000000000000000000000000000000000000000000000000000000000000000000000000000000000000000000000000000000000000000000000000000000000000000000000000000000000000000000000000000000000000000000000000000000000000000000000000000000000000000000000000000000000000000000000000000000000000000000000000000000000000000000000000000000000000000000000000000000000000000000000000000000000000000000000000000000000000000000000000000000000000000000000000000000000000000000000000000000000000000000000000000000000000000000000000000000000000000000000000000000000000000000000000000000000000000000000000000000000000000000000000000000000000000000000000000000000000000000000000000000000000000000000000000000000000000000000000000000000000000000000000000000000000000000000000000000000000
#03256:63
#03257:0053
#03152:00000053
#0315b:00630000
#03157:0053
#05752:13
#0575b:1300000000000063
#05756:0000003400440034
#06152:0000000000000013
#0615b:13
#06155:13
#04956:63
#04952:0000000000000053
#00352:13
#0055b:4343
#00556:4343
#0075b:13
#00957:33
#00952:00333300
#0095b:0043
#01152:13
#0115b:63
#01157:0023000000000000
#0195b:13
#02752:5333
#02756:00230000
#02757:0053
#0275b:43000023
#02857:33
#02952:5333
#02956:00230000
#02957:4353
#0295b:00000023
#03057:33
#0355b:6343
#03557:00230000
#03556:0063
#03552:33000023
#0375b:6343
#03757:00230000
#03756:3363
#03752:00000023
#03656:43
#03856:43
#0395b:00000063
#03952:00530000
#03956:0063
#04258:0046
#04252:0036
#04352:33
#0435b:6300004300000000
#04357:0023000000000000
#0445b:43006343
#04452:5300000033000023
#04456:0023000000006300
#04457:0000000000230000
#0465b:0000000000000013
#04656:0000000000000063
#04752:2300000053000013
#04756:0000000000230000
#04757:0000000000000053
#05152:5300003300000000
#0515b:43
#05156:0023000000000000
#05252:33005333
#0525b:6300000043000023
#05257:0023000000005300
#05256:0000000000230000
#05452:0000000000000013
#05457:0000000000000053
#0555b:2300000063000013
#05557:0000000000230000
#05556:0000000000000063
#0485b:2363
#04857:0000000000230000
#05652:2353
#05656:0000000000230000
#02355:0063
#02352:0000000000230000
#02357:00530000
#0235b:0000002300000000
#02052:53
#02056:0023000000000000
#0205b:0063
#02057:0000000000230000
#01552:0000530000000053
#01556:0063
#01656:23
#01457:0000005300000000
#0135b:63630000
#01357:0023000053000000
#02156:63
#02252:0000005300000000
#0895b:00434300
#08956:43
#08952:0033
#0835b:13
#08752:13
#08552:3333
#08557:3333
#0935b:0043
#09356:43
#09755:16
#09752:00340000
#0975a:0044
#05955:13
#05856:00230000000000000000000000000000
#06653:001a
#06255:00000013
#0635b:13
#06756:0023003300000000
#06752:53
#0675b:43
#06857:0023000000000023
#0685b:63004363
#06852:33005333
#06856:0000000000230000
#07052:0000000000000053
#0705b:0000000000000043
#07156:2363
#07152:0000000000230033
#0715b:0000000000000063
#07257:2353
#0725b:0000000000230000
#07352:53
#07357:0000000000000063
#07452:00230000000000000000000000000000
#05057:00230000000000000000000000000000
#07557:0023004300000000
#0755b:63
#07552:33
#07656:0023000000000023
#07652:53003353
#0765b:43006343
#07657:0000000000230000
#0785b:0000000000000063
#07852:0000000000000033
#07957:2353
#0795b:0000000000230043
#07952:0000000000000053
#08056:2363
#08052:0000000000230000
#0815b:13
#08152:13
#08156:0000004400340044
#0043b0:00000013
#004370:00000000000000000000000000530053
#0053b0:23
#004361:00000013
#004321:00000000000000000000000000530053
#005361:23
#0053b1:00132300
#005371:00000000005300530000000000000000
#005360:00132300
#005320:00000000005300530000000000000000
#008370:00000013
#0083b0:00000000000000000000000000530053
#009370:23
#009321:13230000
#009361:00530053000000000000000000000000
#0093b0:00132300
#009370:00000000005300530000000000000000
#0113b0:13230000
#011370:0053000000000000
#012370:13
#0123b0:0000002300000000
#0123b0:0013
#012370:0000000000000023
#0133b0:13330023
#013370:0053000033000000
#014370:0000001300000000
#0143b0:0000000000230000
#015320:00130023
#015360:0033
#015320:0000000000000013
#016360:53
#016320:0023000000000000
#016350:0000000000000013
#017350:23
#019320:00130000
#019360:0023
#020320:13230000
#020360:0053000000000000
#0203b0:00001323
#020370:0000000000530000
#021360:13
#021320:00230000
#021360:0000000013003323
#021320:0000000000330000
#022320:0000001300000000
#022360:0000000000230000
#023370:00130000
#0233b0:0000005300000000
#023380:0023
#023351:0013
#023321:0000000000530000
#023361:00000023
#025321:13230000
#0253b0:00132300
#025370:0000003300000000
#025361:00001323
#025321:0000000000330000
#025321:0000000000000013
#026361:23
#0263b0:13230000
#027320:1323
#027360:00530000
#027371:0013
#0273b1:00000053
#028371:23
#028320:13
#028360:00230000
#0283b1:00130000
#028371:0023
#028320:0013
#028360:00000023
#0283b1:00000013
#029371:23
#029320:1323
#029360:00530000
#029371:0013
#0293b1:00000053
#030371:23
#030320:13
#030360:00230000
#0303b1:00130000
#030371:0023
#030320:0013
#030360:00000023
#0303b1:00000013
#031371:23
#0313b1:00130023
#031371:0033
#031320:00000013
#032360:33
#032320:00230000
#032370:0013
#0323b0:00000023
#0333a0:1424
#033321:0014
#034321:24
#0353b1:1323
#035371:00530000
#035360:0013
#035320:00000053
#036360:23
#0363b1:13
#036371:00230000
#036320:00130000
#036360:0023
#0363b1:0013
#036371:00000023
#036320:00000013
#037360:23
#0373b1:1323
#037371:00530000
#037360:0013
#037320:00000053
#038360:23
#0383b1:13
#038371:00230000
#038320:00130000
#038360:0023
#0383b1:0013
#038371:00000023
#038320:00000013
#039360:23
#039320:00130023
#039360:0033
#0393b1:00000013
#040371:33
#0403b1:00230000
#0403b1:0000000000000013
#041361:00000000005400000000000000000000
#0413b1:00000023
#040320:0000000000000013
#041360:000000000000000000000000000000000000000000000000000000000000000000000000000000000000000000000000000000000000000000000000000000000000000000000000000000000000000000000000000000000000000000000000000000000000000000000000000000000000000000000000000000000000000000000000000000000000000000000000000000000000000000000000000000000000000000000000000000000000000000000000000000000000000000000000000000000000000000000000000000000000000000000000000000000000000000000000000000000000000000000000000000000000000000000000000000000000000000000000000000000000000000000000000000000000000000000000000000000000000000000000000000000000000000000000000000000000000000000000000000000000000000000000000000000000000000000000000000000000000000000000000000000000000000000000000000000000000000000000000000000000000000000000000000000000000000000000000000000000000000000000000000000000000000000000000000000000000000000000000000000000000000000000000000000000000000000000000000000000000000000000000000000000000000000000000000000000000000000000000000000000000000000000000000000000000000000000000000000000000000000000000000000000000000000000000000000000000000000000000000000000000000000000000000000000000000000000000000000000000000000000005400000000000000000000000000000000000000000000000000000000000000000000000000000000000000000000000000000000000000000000000000000000000000000000000000000000000000000000000000000000000000000000000000000000000000000000000000000000000000000000000000000000000000000000000000000000000000000000000000000000000000000000000000000000000000000000000000000000000000000000000000000000000000000000000000000000000000000000000000000000000000000000000000000000000000000000000000000000000000000000000000000000000000000000000000000000000000000000000000000000000000000000000000000000000000000000000000000000000000000000000000000000000000000000000000000000000000000000000000000000000000000000000000000000000000000000000000000000000000000000000000000000000000000000000000000000000000000000000000000000000000000000000000000000000000000000000000000000000000000000000000000000000000000000000000000000000000000000000000000000000000000000000000000000000000000000000000000000000000000000000000000000000000000000000000000000000000000000000000000000000000000000000000000000000000000000000000000000000000000000000000000000000000000000000000000000000000000000000000000000000000000000000000000000000000000000000000000000000000000000000000000000000000000000000000000000000000000000000000000000000000000000000000000000000000000000000000000000000000000000000000000000000000000000000000000000000000000000000000000000000000000000000000000000000000000000000000000000000000000000000000000000000000000000000000000000000000000000000000000000000000000000000000000000000000000000000000000000000000000000000000000000000000000000000000000000000000000000000000000000000000000000000000000000000000000000000000000000000000000000000000000000000000000000000000000000000000000000000000000000000000000000000000000000000000000000000000000000000000000000000000000000000000000000000000000000000000000000000000000000000000000000000000000000000000000000000000000000000000000000000000000000000000000000000000000000000000000000000000000000000000000000000000000000000000000000000000000000000000000000000000000000000000000000000000000000000000000000000000000000000000000000000000000000000000000000000000000000000000000000000000000000000000000000000000000000000000000000000000000000000000000000000000000000000000000000000000000000000000000000000000000000000000000000000000000000000000000000000000000000000000000000000000000000000000000000000000000000000000000000000000000000000000000000000000000000000000000000000000000000000000000000000000000000000000000000000000000000000000000000000000000000000000000000000000000000000000000000000000000000000000000000000000000000000000000000000000000000000000000000
#041320:00000023
#0433b0:13230000
#043370:0053000000000000
#043361:0000132300000000
#044321:13230000
#044361:0053000000000000
#044370:0000132300000000
#044321:0000001323000000
#0443b0:00001323
#044370:0000000000530000
#044361:00000013
#044321:0000000000000053
#045361:23
#045321:00130000
#045361:00000000005300002300000000000000
#0453b0:0013
#045370:00000000000000000053000023000000
#0463b0:0013
#046370:0000000000230000
#046360:0000000000000013
#047320:53
#047360:0023000000000000
#047320:00001323
#047360:0000000000530000
#047370:0000000000000013
#0483b0:53
#048370:0023000000000000
#0483b0:00001323
#048370:0000000000530000
#049360:13
#049320:00230000
#049320:0000000000000013
#050370:00530000000000000000000000000000
#050320:00230000
#051320:13230000
#051360:0053000000000000
#051371:0000132300000000
#0523b1:13230000
#052371:0053000000000000
#052360:0000132300000000
#0523b1:0000001323000000
#052320:00001323
#052360:0000000000530000
#052371:00000013
#0523b1:0000000000000053
#053371:23
#0533b1:00130000
#053371:00000000005300002300000000000000
#053320:0013
#053360:00000000000000000053000023000000
#054320:0013
#054360:0000000000230000
#054370:0000000000000013
#0553b0:53
#055370:0023000000000000
#0553b0:00001323
#055370:0000000000530000
#055360:0000000000000013
#056320:53
#056360:0023000000000000
#056320:00001323
#056360:0000000000530000
#0573b0:0000000000000013
#058360:00530000000000000000000000000000
#0583b0:00230000
#058381:00130000
#058341:0000003300000000
#058371:0033
#058331:0000000000330000
#058361:00000033
#058321:0000000000000033
#059351:23
#0593b0:135353535353000000000000000000000000000000000000
#0593a0:005300530053005300530053000000000000000000000000000000000000000000000000000000000000000000000000
#059390:000000000000335353535353000000000000000000000000
#059380:000000000000000000000000005300530053005300530053000000000000000000000000000000000000000000000000
#059370:000000000000000000000000335353535353230000000000
#059360:000000000000000000000000000000000000000000000000005300530053005300530053000000000000000000000000
#059330:000000000000000000000000000000000000000000135353
#059320:000000000000000000000000000000000000000000000000000000000000000000000000000000000000005300530053
#060330:535353000000005353000000005353000000005353000000
#060320:000000000000000000000000000000000000000000000000000000000000000000000000000000005300000000000000000000000000000000000000000000000000000000000000000000000000000000000000000000000000000000000000000000000000000000000000000000000000000000000000530000000000000000000000000000000000000000000000000000000000000000000000000000000000000000000000000000000000000000000000000000000000000000000000000000000000000053570000000000000000000000000000000000000000000000000000000000000000000000000000370000000000000000000000000000000000000000000000000000000000000000000000000000570000000000000000000000000000000000000000000000000000000000000000000000000000000000000000000000000000000000000000000000000000000000000000000000000000000000000000000000000000000000000000000000000000000000000000000000000000000000000000000000000000000000000000000000000000000000000000000000000000000000000000000000000000000000570000000000000000000000000000000000000000000000000000000000000000000000000000370000000000000000000000000000000000000000000000000000000000000000000000000000575300000000000000000000000000000000000000000000000000000000000000000000000000000000000000000000000000000000000000000000000000000000000000000000000000000000000000530000000000000000000000000000000000000000000000000000000000000000000000000000000000000000000000000000000000000000000000000000000000000000000000000000000000000053570000000000000000000000000000000000000000000000000000000000000000000000000000370000000000000000000000000000000000000000000000000000000000000000000000000000570000000000000000000000000000000000000000000000000000000000000000000000000000000000000000000000000000000000000000000000000000000000000000000000000000000000000000000000000000000000000000000000000000000000000000000000000000000000000000000000000000000000000000000000000000000000000000000000000000000000000000000000000000000000570000000000000000000000000000000000000000000000000000000000000000000000000000370000000000000000000000000000000000000000000000000000000000000000000000000000575300000000000000000000000000000000000000000000000000000000000000000000000000000000000000000000000000000000000000000000000000000000000000000000000000000000000000530000000000000000000000000000000000000000000000000000000000000000000000000000000000000000000000000000000000000000000000000000000000000000000000000000000000000053570000000000000000000000000000000000000000000000000000000000000000000000000000370000000000000000000000000000000000000000000000000000000000000000000000000000570000000000000000000000000000000000000000000000000000000000000000000000000000000000000000000000000000000000000000000000000000000000000000000000000000000000000000000000000000000000000000000000000000000000000000000000000000000000000000000000000000000000000000000000000000000000000000000000000000000000000000000000000000000000570000000000000000000000000000000000000000000000000000000000000000000000000000370000000000000000000000000000000000000000000000000000000000000000000000000000575300000000000000000000000000000000000000000000000000000000000000000000000000000000000000000000000000000000000000000000000000000000000000000000000000000000000000530000000000000000000000000000000000000000000000000000000000000000000000000000000000000000000000000000000000000000000000000000000000000000000000000000000000000053570000000000000000000000000000000000000000000000000000000000000000000000000000370000000000000000000000000000000000000000000000000000000000000000000000000000570000000000000000000000000000000000000000000000000000000000000000000000000000000000000000000000000000000000000000000000000000000000000000000000000000000000000000000000000000000000000000000000000000000000000000000000000000000000000000000000000000000000000000000000000000000000000000000000000000000000000000000000000000000000000000000000000000000000000000000000000000000000000000000000000000000000000000
#060360:000000000000005300530053000000000000005300530053000000000000005300530053000000000000005300530053
#060350:000000005353000000005353000000005353000000005353
#061350:23
#0593b1:0000000000000013
#0603b1:0033333333333333
#0613b1:23
#0613a1:000000135353000000005353535353230000000000000000
#0613b1:000000000000005300530053000000000000005300530053005300530053000000000000000000000000000000000000
#061371:000000000000000000000000000000000000000000000000000000000000000000000000000000000000000000000000000000000000000000000000000000000000000000000000000000000000000000000000000000000000000000000000000000000000000000000000000000000000000000000000000000000000000000000000000000000000000000000000000000000000000000000000000000000000000000000000000000000000000000000000000000000000000000000000000000000000000000000000000000000000000000000000000000000000000000000000000000000000000000000000000000000000000000000000000000000000000000000000000000000000000000000000000000000000000000000000000000000000000000000000000000000000000000000000000000000000000000000000000000000000000000000000000000000000000000000000000000000000000000000000000000000000000000000000000000000000000000000000000000000000000000000000000000000000000000000000000000000000000000000000000000000000000000000000000000000000000000570000000000000000000000000000000000000000000000000000000000000000000000000000370000000000000000000000000000000000000000000000000000000000000000000000000000575300000000000000000000000000000000000000000000000000000000000000000000000000000000000000000000000000000000000000000000000000000000000000000000000000000000000000530000000000000000000000000000000000000000000000000000000000000000000000000000000000000000000000000000000000000000000000000000000000000000000000000000000000000053570000000000000000000000000000000000000000000000000000000000000000000000000000370000000000000000000000000000000000000000000000000000000000000000000000000000570000000000000000000000000000000000000000000000000000000000000000000000000000000000000000000000000000000000000000000000000000000000000000000000000000000000000000000000000000000000000000000000000000000000000000000000000000000000000000000000000000000000000000000000000000000000000000000000000000000000000000000000000000000000000000000000000000000000000000000000000000000000000000000000000000000000000000000000000000000000000000000000000000000000000000000000000000000000000000000000000000000000000000000000000000000000000000000000000000000000000000000000000000000000000000000000000000000000000000000000000000000000000000000000000000000000000000000000000000000000000000000000000000000000000000000000000000000000000000000000000000000000000000000000000000000000000000000000000000000000000000000000000000000000000000000000000000000000000000000000000000000000000000000000000000000000000000000000000000000000000000000000000000000000000000000000000000000000000000000000000000000000000000000000000000000000000000000000000000000000000000000000000000000000000000000000000000000000000000000000000000000000000000000000000000000000000000000000000000000000000000000000000000000000000000000000000000000000000000000000000000000000000000000000000000000000000000000000000000000000000000000000000000000000000000000000000000000000000000000000000000000000000000000000000000000000000000000000000000000000000000000000000000000000000000000000000000000000000000000000000000000000000000000000000000000000000000000000000000000000000000000000000000000000000000000000000000000000000000000000000000000000000000000000000000000000000000000000000000000000000000000000000000000000000000000000000000000000000000000000000000000000000000000000000000000000000000000000000000000000000000000000000000000000000000000000000000000000000000000000000000000000000000000000000000000000000000000000000000000000000000000000000000000000000000000000000000000000000000000000000000000000000000000000000000000000000000000000000000000000000000000000000000000000000000000000000000000000000000000000000000000000000000000000000000000000000000000000000000000000000000000000000000000000000000000000000000000000000000000000000000000000000000000000000000000000000000000000000000000000000000000000000000000000000000000000000000000000000000000000000000000000000000000000000000000000000000
#061381:000000000000005353000000000000000000000000000000
#0613b1:000000000000000000000000000000000000000000135353
#0613a1:000000000000000000000000000000000000000000000000000000000000000000000000000000000000005300530053
#0623b1:535353535353535353535353230000000000000000000000
#0623a1:005300530053005300530053005300530053005300530053000000000000000000000000000000000000000000000000
#065331:000000000000001a
#065321:000000000000000000000000000000000000000000000000000000000000000000000000000000000000005a003a005a
#065341:000000000000000000000000000000000000000000005a5a
#066341:3a5a5a3a5a5a3a5a5a3a5a5a000000000000000000000000
#066321:005a003a005a005a003a005a005a003a005a005a003a005a000000000000000000000000000000000000000000000000
#066331:002a
#067321:13230000
#067361:0053000000000000
#067370:00130000
#0673b0:0000002300000000
#0683b0:13230000
#068370:0053000000000000
#068361:00130000
#068321:0000002300000000
#068370:0000001300000000
#0683b0:0023
#068321:00001323
#068361:0000000000530000
#0683b0:00000013
#068370:0000000000000053
#0693b0:23
#069360:00130000
#069320:00000000005300002300000000000000
#069371:0013
#0693b1:00000000000000000053000023000000
#070361:0013
#070321:0000000000230000
#070321:0000000000000013
#071361:53
#071321:0023000000000000
#071361:00001323
#071321:0000000000530000
#0713b1:0000000000000013
#072371:53
#0723b1:0023000000000000
#072371:00001323
#0723b1:0000000000530000
#073321:13
#073361:00230000
#073371:0000000000000013
#074321:00530000000000000000000000000000
#074371:00230000
#0753b1:13230000
#075371:0053000000000000
#075360:00130000
#075320:0000002300000000
#076320:13230000
#076360:0053000000000000
#076371:00130000
#0763b1:0000002300000000
#076360:0000001300000000
#076320:0023
#0763b1:00001323
#076371:0000000000530000
#076320:00000013
#076360:0000000000000053
#077320:23
#077370:00130000
#0773b0:00000000005300002300000000000000
#077361:0013
#077321:00000000000000000053000023000000
#078371:0013
#0783b1:0000000000230000
#0783b1:0000000000000013
#079371:53
#0793b1:0023000000000000
#079371:00001323
#0793b1:0000000000530000
#079321:0000000000000013
#080361:53
#080321:0023000000000000
#080361:00001323
#080321:0000000000530000
#084321:00000013
#084361:00000000000000000000000000530053
#085321:23
#084370:00000013
#0843b0:00000000000000000000000000530053
#085370:23
#085320:00132300
#085360:00000000005300530000000000000000
#085371:00132300
#0853b1:00000000005300530000000000000000
#088361:00000013
#088321:00000000000000000000000000530053
#089361:23
#0893b0:13230000
#089370:00530053000000000000000000000000
#089321:00132300
#089361:00000000005300530000000000000000
#0913b1:13
#091371:00530000230000000000000000000000
#091320:00130000
#091360:00000000005300002300000000000000
#092360:00000013
#092320:00000000000000000000000000530053
#093360:23
#0933b0:00132300
#093370:00000000005300530000000000000000
#095320:13
#095360:00530000230000000000000000000000
#0953b1:00130000
#095371:00000000005300002300000000000000
#0973a1:0000000000000012
#0983a1:0022000000000000
#098360:0012220000000000
#098381:0000122200000000
#098340:0000001222000000
