This file was generated by Ched 2.6.4.0.
#TITLE ""
#ARTIST ""
#DESIGNER ""
#DIFFICULTY 0
#PLAYLEVEL
#SONGID ""
#WAVE ""
#WAVEOFFSET 0
#JACKET ""
#REQUEST "ticks_per_beat 480"
#00002: 4
#BPM01: 195
#00008: 01
#TIL00: ""
#HISPEED 00
#MEASUREHS 00
#00118:14
#00114:0014
#00218:1414
#00214:00140000
#0111a:14140000
#01114:00001414
#01110:41
#01312:14140000
#01318:00001414
#0151a:1414
#01514:00140014
#01612:00000014
#01718:1414
#01712:00140014
#01814:0014
#0181a:00000014
#01912:14140000
#01918:00001414
#0211a:14140000
#02114:00001414
#02312:1414
#02318:00140014
#0241a:00000014
#02514:1414
#0251a:00140014
#0281a:0014
#02812:00140014
#03012:00140014
#0301a:0014
#0311a:00140014
#03114:0014
#03214:14
#03218:00140014
#03212:0014
#03612:0014
#0361a:00140014
#0381a:00140014
#03812:0014
#03912:00140014
#03918:0014
#04018:14
#04014:00140000
#0401a:0014
#04016:00000014
#03414:0014
#03418:00000014
#0341a:00140000
#04312:00140000
#04318:0014
#04314:00000014
#0431a:24
#04310:41
#0441a:14
#04412:00140000
#04418:0014
#04414:00000014
#04512:00140000
#04518:0014
#04514:00000014
#0451a:14
#0461a:14
#04612:00140000
#04618:0014
#04614:00000014
#05914:00140000
#0591a:14
#05918:0014
#0591f:11
#06512:00140000
#0651a:0014
#03512:14
#03515:0014
#03712:14
#03715:0014
#0291a:14
#02917:0014
#0271a:14
#02717:0014
#02710:41
#00312:1414
#00318:00140000
#00418:1414
#00412:00140000
#00514:14
#0051a:0014
#00614:1414
#00618:00140000
#0071a:1414
#00714:00140000
#00814:1414
#0081a:00140000
#00918:14
#00912:0014
#01018:1414
#01014:00140014
#05112:00140000
#05118:0014
#05114:00000014
#0511a:24
#0521a:14
#05212:00140000
#05218:0014
#05214:00000014
#05312:00140000
#05318:0014
#05314:00000014
#0531a:14
#05310:41
#0541a:14
#05412:00140000
#05418:0014
#05414:00000014
#06714:00140000
#06718:0014
#06712:00000014
#0671a:24
#0671f:21
#0681a:14
#06814:00140000
#06818:0014
#06812:00000014
#06810:41
#06912:00140000
#0691a:0014
#06914:00000014
#06918:14
#07018:14
#07012:00140000
#0701a:0014
#07014:00000014
#07514:00140000
#07518:0014
#07512:00000014
#0751a:24
#0761a:14
#07614:00140000
#07618:0014
#07612:00000014
#07712:00140000
#0771a:0014
#07714:00000014
#07718:14
#07818:14
#07812:00140000
#0781a:0014
#07814:00000014
#0831a:14
#08314:00140000
#08318:0014
#08310:41
#08414:14
#08418:00140000
#08412:0014
#08518:14
#08514:0014
#08618:1414
#08612:00140000
#08712:14
#08718:00140000
#08714:0014
#08818:14
#08814:00140000
#0881a:0014
#08914:14
#08918:0014
#09014:1414
#0901a:00140000
#09118:14
#09112:00140000
#0911a:0014
#09212:14
#0921a:00140000
#09214:0014
#0931a:14
#09312:0014
#0941a:1414
#09414:00140000
#09514:14
#0951a:00140000
#09512:0014
#0961a:14
#09612:00140000
#09618:0014
#09712:14
#04112:14
#09818:0000003400000000
#09819:00340000
#03552:54
#03555:0024
#03752:54
#03755:0024
#0295a:64
#02957:0024
#0275a:64
#02757:0024
#04152:54
#04256:14
#0123a0:14
#012380:0024
#014320:14
#014340:0024
#0163a0:14
#016390:00340000
#016380:0024
#018380:14240000
#020320:14
#020340:0024
#0223a0:14
#022380:0024
#024320:14
#024330:00340000
#024340:0024
#026340:14240000
#0273a0:14
#027370:0034
#0283a0:24
#0293a0:14
#029370:0034
#0303a0:24
#033320:14
#033340:0034
#034340:24
#035320:14
#035350:0034
#036320:24
#037320:14
#037350:0034
#038320:24
#041320:14
#042360:24
#0473a0:14
#047380:0034
#0483a0:34
#048380:0024
#049320:14
#049340:0034
#050320:34
#050340:0024
#0553a0:14
#055380:0034
#0563a0:34
#056380:0024
#057320:14
#057340:0034
#058320:34
#058340:0024
#059320:0000000000001434
#060350:00340000
#060340:0034
#060330:00000034
#061320:24
#0613a0:0000143400003434
#065360:24
#065320:0000000000001434
#066360:0024
#071380:14
#0713a0:0034
#072380:34
#0723a0:0024
#073340:14
#073320:0034
#074340:34
#074320:0024
#079380:14
#0793a0:0034
#080380:34
#0803a0:0024
#081340:14
#081320:0034
#082340:34
#082320:0024
#0973a0:0000000014000034
#0983a0:0034000000000000
#098390:00340000
#098380:0000003424000000
