This file was generated by Ched 2.6.4.0.
#TITLE ""
#ARTIST ""
#DESIGNER ""
#DIFFICULTY 0
#PLAYLEVEL
#SONGID ""
#WAVE ""
#WAVEOFFSET 0
#JACKET ""
#REQUEST "ticks_per_beat 480"
#00002: 4
#BPM01: 135
#00008: 01
#TIL00: ""
#HISPEED 00
#MEASUREHS 00
#0011a:14
#00212:14
#00318:14
#00414:14
#00614:0014
#00610:41
#00718:14
#00814:14
#00818:0014
#00914:14
#0101a:14
#01014:0014
#0111a:14
#01212:14
#01218:0014
#01312:14
#02618:14
#02714:14
#03018:2616
#0301f:21
#03218:1616
#03412:0016
#03418:26
#03112:1616
#03110:41
#03312:1616
#03518:16
#03512:0016
#03618:16
#03612:0016
#03812:2616
#04012:1616
#04218:0016
#04212:26
#04210:41
#03918:1616
#04118:1616
#04312:16
#04318:0016
#04412:16
#04418:0016
#04612:0016
#04618:26
#04812:16
#04818:0016
#05018:2616
#05112:1616
#05218:16
#05212:0016
#05512:14
#05618:14
#05714:14
#0581a:14
#05912:14
#06018:14
#06114:14
#06314:0014
#06310:41
#0641a:14
#06514:14
#06518:0014
#06612:14
#0671a:14
#06714:0014
#06818:14
#06912:14
#06918:0014
#0141a:14
#01512:14
#0161a:14
#01712:14
#01818:14
#01810:41
#01914:14
#02018:14
#02114:14
#0221f:11
#05410:41
#005380:14
#006380:24
#0223a0:14
#0233a0:24
#024320:14
#025320:24
#028380:14
#029380:24
#037380:1626
#045320:1626
#047380:1626
#049320:1626
#053380:16
#054380:26
#062380:14
#063380:24
#070340:14
#071340:24
