This file was generated by Ched 2.6.4.0.
#TITLE ""
#ARTIST ""
#DESIGNER ""
#DIFFICULTY 0
#PLAYLEVEL
#SONGID ""
#WAVE ""
#WAVEOFFSET 0
#JACKET ""
#REQUEST "ticks_per_beat 480"
#00002: 4
#BPM01: 135
#00008: 01
#TIL00: ""
#HISPEED 00
#MEASUREHS 00
#0221f:11
#02212:13
#02215:0000001300000013
#02218:00000000001300000000000013000000
#0221b:1313000000130000
#04916:0000000000000014
#04918:2300230000240000
#0491b:0023002300000000
#04915:0000002300000000
#04912:23230000
#04914:00000024
#03316:0000000000000014
#03315:14
#03314:0014000000000000
#03313:0000140000241400
#03312:0000001400000000
#03319:0024000000142400
#0331a:24
#03318:00240000
#03317:0000002400000000
#04116:0000000000000014
#04112:1300001300000000
#0411b:1300001300000000
#04115:0013000000000000
#04118:00130024
#04114:0000000000240000
#02812:13231323
#02815:0000001300000013
#0281b:23132313
#02818:0013000000130000
#03718:00000000003300000000130000001300
#03715:00000013
#0371b:13
#03712:13
#03713:0033000000000000
#03714:00330000
#03719:00000033000000000000000000000000
#0371a:00330000000000000000000000000000
#06118:0000001300000013
#0611b:13131313
#06115:1300130000130000
#06112:0013000000001300
#0471b:0000000000130023
#0471a:1400141400000000
#04712:1400141400130000
#04716:0014000000000000
#04718:00000013
#04715:0000000000000023
#05112:1400141400130013
#0511a:1400141400000000
#05116:0014000000000000
#0511b:0000000000130000
#05115:00000013
#05118:0000000000000013
#05715:0000001300000000
#05712:13131313
#05718:1300130000130000
#0571b:0013000000001300
#05618:0000001300001300
#0561b:1313
#05615:0000000000130013
#05616:00000013000000000000000000000000
#05612:13
#06215:0000001300000013
#06212:13000013000000001300001300000000
#06218:0013000000130000
#0621b:13000000001300001300000000130000
#06015:0000001300001300
#06012:1313
#06018:0000000000130013
#06017:00000013000000000000000000000000
#0601b:13
#05418:0013001300001300
#05415:0000130000000013
#0541b:2300130000130000
#05412:1300001300000000
#05410:41
#05512:1300000000130000
#05518:13130013
#05515:0013001300000013
#0551b:0000001300000000
#05815:0013001300001300
#05818:0000130000000013
#05812:2300130000130000
#0581b:1300001300000000
#0591b:1300000000130000
#05915:13130013
#05918:0013001300000013
#05912:0000001300000000
#0121b:0000001300001300
#01218:13000013000000001300000000001300
#01215:00000000001300000000000000000000
#01018:00000013000013000000000013000000
#0101b:2300000013000013
#01015:00000000001300000000000000000000
#01012:23
#00812:0000001300001300
#00815:13000013000000001300000000001300
#00818:00000000001300000000000000000000
#00615:00000013000013000000000013000000
#00612:2300000013000013
#00618:00000000001300000000000000000000
#0061b:23
#00610:41
#0701b:00000000001300000000000000000000
#07012:00000013000000000000001300000000
#07015:1300000000000013
#07018:0000000000130000
#07016:0000001300000000
#0681b:00000013
#06815:13
#06818:00000000001300000000000000001300
#06816:0000000000130000
#06812:0000001300000000
#06918:0000000000000013
#06912:1313
#06915:00000013000013000000000000000000
#0691b:00000000001300000000000000000000
#06718:00000000001300000000000000001300
#06715:00000013000000001300000000000000
#06712:2300001300000000
#0671b:23
#06612:00000000001300000000000000000000
#0661b:00000013000000000000001300000000
#06618:1300000000000013
#06615:0000000000130000
#06617:0000001300000000
#00315:00130013
#00318:0000001300000013
#00312:0000000000130000
#0031b:13
#00415:0013001300000013
#00418:00130013
#0041b:1300000000130000
#00412:13
#00515:00000013000013000000001300001300
#00512:1313
#0051b:1313
#00518:00001300001300000000130000130000
#01118:00000013
#01115:00000013000013000000000000000000
#0111b:00000000001300000000000000001300
#01112:13
#00715:00000013
#00718:00000013000013000000000000000000
#00712:00000000001300000000000000001300
#0071b:13
#0391a:1400001400000000
#03912:0014001400130000
#03916:00140000
#03915:00000013
#03918:0000000000000013
#0381b:2300001300001300
#03815:0013001300000013
#03818:0000130000130000
#03812:23001313
#03112:1400001400000000
#0311a:0014001400000000
#03116:00140000
#03118:00000013
#03115:0000000000000013
#0311b:0000000000130000
#03110:41
#03012:2300001300001300
#03018:0013001300000013
#03015:0000130000130000
#0301b:23001313
#0301f:21
#04215:00131313
#04218:0013000000130013
#0421b:2300001300001300
#04212:2300001300000000
#04210:41
#0431b:1300001300130000
#04312:1300000000000013
#04315:0013000000130000
#04318:0000130000001313
#03418:00131313
#03415:0013000000130013
#03412:2300001300001300
#0341b:2300001300000000
#06412:00000013
#06418:13
#06415:00000000001300000000000000001300
#06417:0000000000130000
#0641b:0000001300000000
#06515:0000000000000013
#0651b:1313
#06518:00000013000013000000000000000000
#06512:00000000001300000000000000000000
#06315:00000000001300000000000000001300
#06318:00000013000000001300000000000000
#0631b:2300001300000000
#06312:23
#06310:41
#01315:13000013
#0131b:0000001300000000
#01312:0000000000130000
#01318:0000000000000013
#00918:13
#00912:0000001300000013
#00916:00000000000000000000001300000000
#0091b:0000000000130000
#0271a:14000014
#02716:0000001400000000
#02712:26
#02515:00000000000000000013001300130013
#02518:0000000013131313
#0251b:13130000
#02512:13
#03515:0000130000001313
#03518:0013000000130000
#0351b:1300000000000013
#03512:1300001300130000
#02115:00130000000000001300130013000000
#02118:00000013000000000013001300001300
#02112:0000131300000000
#0211b:1300001300000000
#03212:2400002400130000
#03215:00240013
#03218:0000000000000013
#0321a:24240000
#03217:0000002400000000
#0361b:0000131300000000
#03612:1300000000130000
#03618:13001313
#03615:0013001300000013
#0401b:0000000000130000
#04018:00000013
#04015:0000002400000013
#0401a:2400002400000000
#04012:24240000
#04017:00240000
#04412:0000131300000000
#0441b:1300000000130000
#04415:13001313
#04418:0013001300000013
#04612:2300001300001300
#0461b:23131323
#04618:0013001300000013
#04615:0000230000130000
#0501b:2300001300001300
#05012:23131323
#05015:0013001300000013
#05018:0000230000130000
#05212:0013001300130000
#0521b:13131300
#05218:0000001300001300
#05215:1300000000000013
#04515:0000000000130013
#04518:00000013
#04512:13
#0451b:13
#0531a:12
#05312:0000000026000026
#05318:00000000000000000000002600000000
#0481b:0013002300230000
#04812:23231323
#04818:23000023
#04815:0000002300000023
#02912:13
#0291b:23
#02915:00000033000000000000000000000000
#02914:0033000000000000
#02417:1300000000000013
#0241b:00000000333313333300000000000000
#02412:13131313
#02418:00330000000000000000003300000000
#02419:0033000000330000
#0241a:00000033000000000033000000000000
#02318:0000001300000000
#0231b:13000013
#02315:00000000001300000000000013000000
#02312:1313000000130000
#02018:0013001300000013
#0201b:13001313
#02012:1300000000130013
#02015:00130013
#0161b:0000001300000013
#01618:13131313
#01612:13000013
#01615:0013000000130013
#0161a:00000000000000000000000000000033
#01815:0013001300000013
#01812:13001313
#0181b:1300000000130013
#01818:00130013
#01814:00000000000000000000000000000033
#01810:41
#01412:0000001300000013
#01415:23131313
#01418:0013000000130013
#0141b:23000013
#01413:00000000000000000000000000000033
#00212:13
#00216:0013
#00219:00000013
#0021a:0000001300000000
#0011b:13
#00117:0013
#00114:00000013
#00112:13
#00113:0000001300000000
#02612:00000014
#02616:0000001400000000
#02618:26
#01915:0000000000000013
#01918:0000001300001300
#0191b:0000000013130000
#01913:33
#01718:0000000000000013
#01715:00000013
#01712:0000000000130000
#01719:33
#01518:0000001313001300
#01515:0000000000000013
#0151b:0000000000130000
#01514:33
#0711b:23
#07112:23
#03758:0000001300000000
#03755:0000001300000000
#0375b:63
#03752:53
#04555:0000001300000000
#04558:0000001300000000
#04552:53
#0455b:63
#02956:0013
#02952:53
#06352:13
#0635b:1300006300000000
#06358:0023
#0675b:13
#06752:1300005300000000
#06755:0023
#0385b:13
#03852:0023
#03855:0000006300000000
#04252:1300005300000000
#04255:0023
#0715b:13
#07152:13
#01052:13
#0105b:1323
#01058:0000005300000000
#0065b:13
#00652:1323
#00655:0000006300000000
#03052:13
#0305b:0023
#03058:0000005300000000
#0325a:14
#03252:14
#0345b:1300006300000000
#03458:0023
#0405a:14
#04052:14
#04158:00000044
#04154:0000000000340000
#04152:0000001300000000
#0415b:0000001300000000
#04858:53
#04855:0000006300000000
#0485b:0023000000000000
#04852:0023
#04958:0000000000440000
#04954:00000034
#04652:13
#0465b:0023
#04658:0000005300000000
#0505b:13
#05052:0023
#05055:0000006300000000
#06158:0000005300000000
#0615b:0023
#0515a:0000001400000000
#05152:0000001400000000
#05755:0000006300000000
#05752:0023
#05658:0000005300000000
#0565b:1323
#05656:00000023000000000000000000000000
#05652:53
#06055:0000006300000000
#06052:1323
#06057:00000023000000000000000000000000
#0605b:63
#05452:0000005300000000
#0555b:0000006300000000
#0585b:0000006300000000
#05952:0000005300000000
#07056:0000006300000000
#06856:0000000000230000
#06852:0000005300000000
#06952:0023
#06955:0000006300000000
#06657:0000005300000000
#00358:0000005300000000
#00455:0000006300000000
#0395a:0000001400000000
#03952:0000001400000000
#03152:0000001400000000
#0315a:0000001400000000
#0435b:0000001300000000
#06457:0000000000230000
#0645b:0000006300000000
#0655b:0023
#06558:0000005300000000
#01258:0023
#0125b:0000006300000000
#0135b:0000006300000000
#01155:0000006300000000
#00855:0023
#00852:0000005300000000
#02155:00000013
#03552:0000001300000000
#04752:0000001400000000
#0475a:0000001400000000
#0535a:22
#03655:0023000000000000
#03652:53
#03658:0023
#0365b:0000006300000000
#04455:0023
#04452:0000005300000000
#04458:0023000000000000
#0445b:63
#05252:0023000000000000
#05255:63
#0525b:0023
#05258:0000005300000000
#02457:53
#0245b:0000002300000000
#02358:0000005300000000
#02255:0000006300000000
#02058:0000005300000000
#0205b:0023
#0165b:0000006300000063
#01658:0023
#01855:0000006300000063
#01852:0023
#01452:0000005300000053
#01455:0023
#00952:0000005300000000
#00758:0000005300000000
#00252:53
#00256:0023
#0015b:63
#00157:0023
#02552:13
#0013b0:13
#001370:0053
#0023b0:23
#002321:13
#002361:0053
#003321:23
#003381:0000001300000000
#0033b1:0000000000230000
#004351:0000001300000000
#004321:0000000000230000
#006351:0000001300230000
#006321:0053
#006380:0000000000130023
#0063b0:00000033
#007350:00130023000000000000000000000000
#007380:0000001300000000
#0073b0:0000000000000023
#0083b0:00130023000000000000000000000000
#008320:0000001300230000
#008350:0053
#0083b1:0000000000130023
#008381:00000033
#009351:00130023000000000000000000000000
#009380:00000013002300000000000000000000
#009321:00000000001333000000000000000000
#009361:0000000000230000
#0093b1:00000013
#009381:0000000000000023
#010381:0000001300230000
#0103b1:0053
#010350:0000000000130023
#010320:00000033
#011380:00130023000000000000000000000000
#011350:0000001300000000
#011320:0000000000000023
#012320:00130023000000000000000000000000
#0123b0:0000001300230000
#012380:0053
#012321:0000000000130023
#012351:00000033
#013381:00130023000000000000000000000000
#013350:00000013002300000000000000000000
#0133b1:00000000001333000000000000000000
#013371:0000000000230000
#014321:0000001300230000
#014351:0053
#014321:0000000000000013
#014331:00000000000000000000000000000033
#015341:33
#015351:0033333300230000
#0163b1:0000001300230000
#016381:0053
#0163b1:0000000000000013
#0163a1:00000000000000000000000000000033
#017391:33
#017381:0033333300230000
#018351:0000001300230000
#018321:0053
#018351:0000000000000013
#018341:00000000000000000000000000000033
#019331:33
#019321:0033333300230000
#020381:0000001300230000
#0203b1:0053
#022351:00000013002300000000000000000000
#022351:0000001300000000
#022321:0000000000230000
#023381:00000013002300000000000000000000
#023381:0000001300000000
#0233b1:0000000000230000
#024371:13000023
#024381:00330000000000000000003300000000
#024391:0033000000330000
#0243a1:00000033000000000033000000000000
#0243b1:00000000333333333300000000000000
#029321:13
#029341:0033000000000000
#029351:00000033000000000000000000000000
#029361:00000000003333002300000000000000
#030381:0000001300230000
#0303b1:0053
#0343b1:0000001300230000
#034381:0053
#036321:13230000
#036351:0053000000000000
#0363b1:0000001300230000
#036381:0053
#0373b1:13
#0373a1:00330000000000000000000000000000
#037391:00000033000000000000000000000000
#037381:00000000003323000000000000000000
#037320:13
#037330:0033000000000000
#037340:00330000
#037350:0000002300000000
#038350:0000001300230000
#038320:0053
#042320:0000001300230000
#042350:0053
#0443b0:13230000
#044380:0053000000000000
#044320:0000001300230000
#044350:0053
#045320:13
#045350:0000002300000000
#0453b1:13
#045381:0000002300000000
#046381:0000001300230000
#0463b1:0053
#048381:13230000
#0483b1:0053000000000000
#048351:0000001300230000
#048321:0053
#050351:0000001300230000
#050321:0053
#052351:13230000
#052321:0053000000000000
#052381:0000001300230000
#0523b1:0053
#0533a1:12
#053381:0026
#054321:0000001300000000
#054351:0000000000230000
#0553b1:0000001300000000
#055381:0000000000230000
#056321:1300002300000000
#056361:00000053000000000000000000000000
#056380:0000001300230000
#0563b0:0053
#057350:0000001300230000
#057320:0053
#0583b0:0000001300000000
#058380:0000000000230000
#059320:0000001300000000
#059350:0000000000230000
#0603b0:1300002300000000
#060370:00000053000000000000000000000000
#060351:0000001300230000
#060321:0053
#061381:0000001300230000
#0613b1:0053
#0633b1:0000001300230000
#063381:0053
#063350:0000000000130000
#063320:00000023
#063381:0000000000001323
#064321:00130000000000000000000000000000
#064351:00000023000000000000000000000000
#064380:00000013000000000000000000000000
#0643b0:00000000002300000000000000000000
#0643b0:0000001300000023
#064370:0000000000530000
#065350:00130023000000000000000000000000
#065380:0000001300230000
#0653b0:0053
#065321:0000000000130000
#065351:00000023
#0653b0:0000000000001323
#066350:00130000000000000000000000000000
#066320:00000023000000000000000000000000
#066370:0000001300000000
#0663b0:0000000000230000
#066320:00000013
#066350:0000000000000023
#067320:0000001300230000
#067350:0053
#067381:0000000000130000
#0673b1:00000023
#067350:0000000000001323
#0683b0:00130000000000000000000000000000
#068380:00000023000000000000000000000000
#068351:00000013000000000000000000000000
#068321:00000000002300000000000000000000
#068321:0000001300000023
#068361:0000000000530000
#069381:00130023000000000000000000000000
#069351:0000001300230000
#069321:0053
#0693b0:0000000000130000
#069380:00000023
#069321:0000000000001323
#070381:00130000000000000000000000000000
#0703b1:00000023000000000000000000000000
#070361:0000001300000000
#070321:0000000000230000
#0703b1:00000013
#070381:0000000000000023
