This file was generated by Ched 2.6.4.0.
#TITLE ""
#ARTIST ""
#DESIGNER ""
#DIFFICULTY 0
#PLAYLEVEL
#SONGID ""
#WAVE ""
#WAVEOFFSET 0
#JACKET ""
#REQUEST "ticks_per_beat 480"
#00002: 4
#BPM01: 135
#00008: 01
#TIL00: ""
#HISPEED 00
#MEASUREHS 00
#00115:0000001300001300
#00112:13
#0011b:13
#00118:0000130000130013
#00218:0000001300001300
#00212:13
#0021b:13
#00215:0000130000130013
#0031b:1300001300000000
#00312:13
#00318:0000000000000013
#00315:00000013
#01418:0013000000000013
#01415:00130013
#0141b:0000001300000000
#01412:23
#01515:0000001300000013
#0151b:0013
#01512:0000000000130000
#01518:00000013
#01615:0013000000000013
#01618:00130013
#0161b:13
#01612:0000001300000000
#0171b:0000000000130000
#01715:00000013
#01718:0000000000000013
#01812:13
#0181b:0013000000000000
#01815:00130013
#01818:0000001300000013
#01810:41
#01915:0000001300000013
#0191b:0013
#01912:0000000000130000
#01918:00000013
#0221b:13
#02218:00001300001300000000000013000000
#02215:00000013000013000000000000001300
#02212:13
#0221f:11
#02412:0000000000000013
#0241b:13
#02417:00000000333333333333333300000000
#02418:00000033000000000000000000000000
#02419:0033000000000000
#0241a:00330000000000000000000000000000
#0251b:0013
#02517:13
#02512:0013
#02515:00000013
#02518:0000000000000013
#05515:0013001300000013
#05518:00130013
#0551b:13
#05412:0000001300000013
#05418:00130013
#05415:0013000000000000
#0541b:23
#05410:41
#05218:0000001300000013
#0521b:0013
#05215:13000013
#05212:0013000000000000
#05015:0013001300000013
#05012:2313
#0501b:23
#05018:00230023
#04818:0013000000002300
#04815:0000000013000023
#0481b:23
#04812:0000002300000000
#03018:0013001300000013
#03015:00130013
#03012:23
#0301b:23
#0301f:21
#05718:00130013
#05712:0013000000000000
#0571b:13
#05715:0000001300000000
#05615:0000000000000013
#05618:00000013
#0561b:13
#05612:0000001300000000
#05118:0000140000130013
#05115:00000013
#05112:0014000000000000
#05114:0000001400000000
#0511a:24
#04718:0000001400001300
#04715:0000000000130023
#04714:00140000
#0471a:0014000000000000
#04712:14
#03212:0000240000000013
#03218:24000013
#03215:0000000000130000
#0321a:0000002400000000
#0311a:0000001400000000
#03114:00140000
#03118:0014000000001300
#03112:14
#03115:0000000000130013
#03110:41
#00412:13
#00415:00130013
#0041b:0013000000000000
#00418:0000001300000013
#00512:1400001400000000
#00518:00000014000000000000000000000000
#0051a:0000000014000014
#00514:00000000000000000000001400000000
#01318:1300001300000013
#01315:00130000001300000000000013000000
#0131b:00000013000000000000000000000000
#0201b:13
#02012:0013000000000000
#02018:00130013
#02015:0000001300000013
#02312:13
#02315:00001300001300000000000013000000
#02318:00000013000013000000000000000000
#0231b:13
#02618:0000001400000000
#02614:00000014
#02612:26
#02714:0000001400000000
#02718:26000014
#02818:0013000000000013
#0281b:0000001300130000
#02812:23
#02816:0023
#02814:00230023
#03815:0013001300000013
#03818:00130013
#0381b:23
#03812:23
#0401b:0000000000000013
#04015:00000013
#04018:0000000000130000
#04012:0000002400000000
#04014:24
#0401a:00240000
#03912:0000001400000000
#03918:0000140000130013
#03914:0014000000000000
#0391a:14
#03915:00000013
#04115:0000000000230013
#04114:00140000
#04118:0014000000002300
#04112:14
#0411a:0000001400000000
#03318:0000240000230013
#03315:00000023
#03312:0000002400000000
#03314:0024000000000000
#0331a:24
#03412:2300001300000000
#03415:0013000000000013
#03418:00130013
#0341b:23
#03515:0000001300000000
#03518:0000130000130000
#03512:0013000000001300
#0351b:1300000000000013
#03712:13
#03718:0000000000130013
#03715:00000013
#03618:0000001300000013
#03615:13000013
#0421b:2300001300000000
#04218:0013000000000013
#04215:00130013
#04212:23
#04210:41
#04318:0000001300000000
#04315:0000130000130000
#0431b:0013000000001300
#04312:1300000000000013
#0451b:13
#04515:0000000000130013
#04518:00000013
#04415:0000001300000013
#04418:13000013
#04618:0013001300000013
#0461b:2313
#04612:23
#04615:00230023
#04918:0023000000230013
#04915:00230023
#04912:0000002300000000
#0491b:23
#05312:1300000000000026
#05318:00000000000000000000002600000000
#05918:0013001300000013
#05915:00130013
#05912:13
#0581b:0000001300000013
#05815:00130013
#05818:0013000000000000
#05812:23
#06115:00130013
#0611b:0013000000000000
#06112:13
#06118:0000001300000013
#06018:0000000000000013
#06015:00000013
#06012:13
#0601b:0000001300000000
#06212:14000000000000000000001400000000
#06214:0000001400000000
#0621a:00000014000000001400000000000000
#06218:0000000000000014
#01215:13000013000000000000000000000000
#01218:00130000001300000000000000000000
#01212:0000001300000000
#01118:13000013000013000000000000000000
#01115:00130000001300000000000000000000
#00912:00000013000000000000130000000000
#00918:00130000001300000000000000000000
#00915:1300001300000000
#00914:00000033
#00913:00000000000000000000003300000000
#0081b:0000001300000000
#00815:00130000001300000000000000000000
#00818:13000013000000000000000000000000
#00715:13000013000013000000000000000000
#00718:00130000001300000000000000000000
#06415:1300001300000000
#06418:00130000001300000000000000000000
#06412:00000013000000000000130000000000
#06518:1300001300000000
#06515:00130000001300000000000000000000
#0651b:00000013000000000000000000000000
#06615:13000013000000000000130000000000
#06618:00000000001300000000000000000000
#0661b:00130000000000000000000000000000
#06612:0000001300000000
#06613:00000033
#06614:00000000000000000000003300000000
#06818:1300001300000000
#06815:00130000001300000000000000000000
#0681b:00000013000000000000130000000000
#06915:1300001300000000
#06918:00130000001300000000000000000000
#06912:00000013000000000000000000000000
#07018:13000013000000000000130000000000
#07015:00000000001300000000000000000000
#07012:00130000000000000000000000000000
#0701b:0000001300000000
#0701a:00000033
#07019:00000000000000000000003300000000
#00618:00000013000000000000000000000000
#00615:00000000001300000000000000000000
#00612:23
#00610:41
#01015:00000013000000000000000000000000
#01018:00000000001300000000000000000000
#0101b:23
#06318:00000013000000000000000000000000
#06315:23000000001300000000000000000000
#06310:41
#06715:00000013000000000000000000000000
#06718:23000000001300000000000000000000
#02912:23
#07115:26
#02255:0000006300000000
#0485b:63
#04852:0000005300000000
#04858:0023000000000000
#04855:0023
#03258:14
#05555:0000006300000000
#05452:0000005300000000
#05258:0000005300000000
#0525b:0023
#05255:63
#05252:0023000000000000
#05055:0000006300000000
#05052:0023
#03058:0000005300000000
#0315a:0000001400000000
#0035b:0000006300000000
#00458:0000005300000000
#01358:0000005300000000
#0145b:0000006300000000
#01652:0000005300000000
#01858:0000005300000000
#02055:0000006300000000
#02158:00000013
#02155:00000013
#02358:0000005300000000
#0245b:63
#02557:13
#03855:0000006300000000
#03952:0000001400000000
#04054:14
#03452:0000005300000000
#03555:0000001300000000
#03752:53
#03756:0000001300000000
#03658:0000005300000000
#03655:63
#0425b:0000006300000000
#04358:0000001300000000
#0455b:63
#04557:0000001300000000
#04455:0000006300000000
#04458:53
#04758:0000001400000000
#04658:0000005300000000
#0465b:0023
#05352:23
#0565b:13
#05652:0000005300000000
#05755:0000006300000000
#05958:0000005300000000
#0585b:0000006300000000
#06052:13
#0605b:0000006300000000
#06158:0000005300000000
#07155:16
#01158:0000005300000000
#01252:0000005300000000
#00952:0000000000530000
#00955:0000006300000000
#0085b:0000006300000000
#00755:0000006300000000
#06455:0000006300000000
#06452:0000000000230000
#06558:0000005300000000
#06655:0000000000630000
#06652:0000005300000000
#06858:0000005300000000
#0685b:0000000000230000
#06955:0000006300000000
#07058:0000000000530000
#0705b:0000006300000000
#05154:0000001400000000
#00652:13
#0105b:13
#06355:13
#06758:13
#0415a:0000001400000000
#0033b0:0000001300000000
#003380:0000000000230000
#004380:0000001300000000
#0043b0:0000000000230000
#006380:0000001300330023
#0063b0:00000033
#007350:0000001300000000
#007320:0000000000000023
#0083b0:0000001300003300
#008380:0000000000330023
#009350:0000001300000023
#009320:0000000000330000
#009330:00000000000000000000003300000000
#009340:00000033
#010350:0000001300330023
#010320:00000033
#011380:0000001300000000
#0113b0:0000000000000023
#012320:0000001300003300
#012350:0000000000330023
#013380:0000001300000000
#0133b0:0000000000230000
#0143b0:0000001300000000
#014380:0000000000230000
#016320:0000001300000000
#016350:0000000000230000
#018380:0000001300000000
#0183b0:0000000000230000
#020350:0000001300000000
#020320:0000000000230000
#021380:00130023
#021351:00001323
#022351:0000001300000000
#022321:0000000000230000
#023381:0000001300000000
#0233b1:0000000000230000
#0243b1:13
#0243a1:00330000000000000000000000000000
#024391:0033000000000000
#024381:00000033000000000000000000000000
#024371:00000000333333333333333323000000
#030381:0000001300000000
#0303b1:0000000000230000
#034321:0000001300000000
#034351:0000000000230000
#036351:13
#036321:00230000
#036381:0000001300000000
#0363b1:0000000000230000
#037321:13
#037361:0000002300000000
#038351:0000001300000000
#038321:0000000000230000
#0423b1:0000001300000000
#042381:0000000000230000
#044381:13
#0443b1:00230000
#044351:0000001300000000
#044321:0000000000230000
#0453b1:13
#045371:0000002300000000
#046381:0000001300230000
#0463b1:0053
#0483b1:13230000
#048381:0053000000000000
#048321:0000001300230000
#048351:0053
#050351:0000001300230000
#050321:0053
#052351:13230000
#052321:0053000000000000
#052381:0000001300230000
#0523b1:0053
#053321:1326
#054321:0000001300000000
#054351:0000000000230000
#055351:0000001300000000
#055321:0000000000230000
#056321:0000001300000000
#056351:0000000000230000
#057351:0000001300000000
#057321:0000000000230000
#0583b1:0000001300000000
#058381:0000000000230000
#059381:0000001300000000
#0593b1:0000000000230000
#0603b1:0000001300000000
#060381:0000000000230000
#061381:0000001300000000
#0613b1:0000000000230000
#0633b1:0000001300330023
#063381:00000033
#064351:0000001300000023
#064321:0000000000530000
#065381:0000001300003300
#0653b1:0000000000330023
#066321:0000001300000023
#066351:0000000000330000
#066341:00000000000000000000003300000000
#066331:00000033
#067321:0000001300330023
#067351:00000033
#068381:0000001300000023
#0683b1:0000000000530000
#069351:0000001300003300
#069321:0000000000330023
#0703b1:0000001300000023
#070381:0000000000330000
#070391:00000000000000000000003300000000
#0703a1:00000033
