This file was generated by Ched 2.6.4.0.
#TITLE ""
#ARTIST ""
#DESIGNER ""
#DIFFICULTY 0
#PLAYLEVEL
#SONGID ""
#WAVE ""
#WAVEOFFSET 0
#JACKET ""
#REQUEST "ticks_per_beat 480"
#00002: 4
#BPM01: 135
#00008: 01
#TIL00: ""
#HISPEED 00
#MEASUREHS 00
#0011b:1300001300130000
#00112:13
#00112:13
#00118:00130013
#00115:0013000000000013
#00412:13
#0041b:13131313
#0041b:00131313
#00416:0000131300001300
#00414:0013000000000013
#00315:00130000
#00312:1300001300000000
#00314:0000000000000013
#00316:00000013
#0031b:13131313
#0031b:13131313
#0151b:1313
#01512:0000001300130013
#01516:00001313
#01517:0000330000130000
#01518:0033000000000000
#01716:0000330000130000
#01712:1300000013000013
#01717:0013
#01714:00000013
#0171b:0000001300000000
#01715:0033000000000000
#02214:0013000000000000
#0221b:00000000001300000000000000001300
#02216:0000131300000000
#02212:1313
#02217:00130000000000000000000000000000
#02219:00000013000000000000000000000000
#0221f:11
#0261b:00000013
#02612:29
#02818:2313241425152616
#02815:00130013000000000000000000000000
#02814:00000000001400140000000000000000
#02813:00000000000000000015001500000000
#02812:00000000000000000000000000160016
#00812:00000000001300000000000013000000
#0081b:1300001300000013
#00816:00130000000000000000130000001300
#00817:00001313
#05016:00001414000014002400000000001400
#05012:2400140014001414
#0501a:0000241400142400
#05018:26
#04816:0014240014242424
#0481a:24002424
#04812:2624002400000024
#04818:0000002600000000
#03612:1300000000000013
#03616:00000000001300000000000013000000
#0361b:0000131300001300
#03617:1300000000130013
#03619:0013000013000000
#05712:13000013
#05713:0013000000130000
#05714:00131300
#05715:0000001300000000
#05718:1313
#0571b:00130013
#05214:0013000000000013
#05216:13001313
#05219:0000000013000013
#0521b:1300000000131300
#05212:0000131300000000
#05217:0013001300000000
#05117:0000000000000013
#0511a:1414
#05112:0014000014000013
#05119:00000013
#05116:1400000000130000
#05114:00000013
#0511b:0000000000130000
#03517:1300001300001300
#03514:0013000000000000
#03516:0000130000130013
#03512:00001313
#0351b:00000013000000001300130000000000
#03214:0000000000000013
#03215:00000013
#03216:0014242400130000
#03217:00000000000000000000000000000013
#03212:2400002413000000
#0321b:0013
#03219:00000000000000000000001300000000
#03218:00000000000000000000000000130000
#0321a:24
#03312:1414141400002400
#03316:0000000000141400
#03315:0000000000000013
#0331b:0000000000000013
#03317:0000002400000000
#03318:00240000
#03319:0024000000000000
#0331a:2400000000240000
#03113:0000000000000013
#03114:00000013
#0311a:1400140000000013
#03116:0014001400000000
#03112:0013
#0311b:0013
#03115:0000000000130000
#03119:00000013
#03118:0000000000130000
#03110:41
#03016:0014001400000014
#0301b:23131313
#03014:00001414
#03012:2600140000140000
#0301f:21
#00916:1300000000000013
#0091b:1300000000000013
#00912:00000000001300000000000000000000
#00917:0000001300001300
#00914:000033
#00913:000000000000000000000000000000000033000000000000
#03417:00000013
#03412:2313
#0341b:0000000000130013
#03418:26000013000000000000000000000000
#03415:0013000000000000
#00518:1600001300130000
#0051b:00000013000000001300000000130000
#00512:13000000001300001600001300000000
#00515:0013000000000013
#00212:1300001300130000
#0021b:13
#0021b:13
#00215:00130013
#00218:0013000000000013
#01319:00000013
#01316:00000000000013000000001300000000
#01317:1300000000000013
#01314:00000000000000000000000000130000
#01312:13000000000000000000000000000013
#0131b:00000000001300000000130000000000
#02117:00000013000000000000001300000000
#02112:00000013130000000000000013000000
#02114:0000001300130000
#0211b:13130000000000130000000000000000
#02116:00130000000000001300000000000000
#02119:00000000001300000013000000000000
#02319:0013000000000000
#02312:00000000001300000000000000001300
#0231b:1313
#02317:0000131300000000
#02316:00130000000000000000000000000000
#02314:00000013000000000000000000000000
#0251b:00000000000000000013000000000000
#02515:0013
#02513:00000013
#02512:0000000000000013
#02514:0000000000130000
#0251a:00000000000000000000001300000000
#02519:00000000000000000000000000130000
#02518:00000000000000000000000000000013
#02712:00000013
#02715:29
#02912:1c003c3c003c3c000000000000000000
#05312:1200000000130026
#05318:00000000000000002600000000130000
#05317:13
#05315:00000000000000000000002600000000
#0621b:13000000001300000000000000000000
#06215:0013000019000000
#06212:19000000000016001300001600130000
#06218:00000016000000000000130000001600
#0371b:1313000000000000
#03712:00130013000000000000000000000000
#03718:0000130000000013
#03715:00000000001316000000000000000013
#03714:00000000000000000000000000130000
#0371a:0000000000130000
#03719:00000013
#03713:00000000000000000000001300000000
#05418:1313
#05415:0013130013001313
#0541b:00130013
#05412:2300001300000000
#05410:41
#05512:1313
#05518:1313
#05513:0013000000000013
#0551b:00130013
#05514:00130013
#05515:0000001300000000
#05612:1300001300000000
#05615:0000000000001313
#05618:1313
#0561b:00130013
#06118:0000001300001300
#0611b:1300000000000013
#0611a:0013000000000000
#06119:00130000
#06115:1313
#06112:00130013
#05818:0013130013001313
#0581b:2300001300000000
#05815:1313
#05812:00130013
#0591b:1313
#0591a:0013000000000013
#05919:00130013
#05918:0000001300000000
#05915:1313
#05912:00130013
#0601b:1300001300000000
#06018:0000000000001313
#06015:1313
#06012:00130013
#0401b:0000000013130000
#04012:2400000013000013
#04014:00000013
#04019:00000013
#04017:0000000000000013
#04016:0014242400130000
#0401a:2400002400000000
#04118:0000000000002613
#04112:0000000013260013
#04116:13
#0411b:00131300
#04117:0000001300000000
#04517:13
#04512:1300000013130000
#04515:0000000000001313
#04518:00000000000000000000000000130013
#0451b:00003313330000000013001300000000
#04516:00003313330000000000000000000000
#04916:0000000024000014
#04912:221500000000000000000000000000000000000000000000000000000000000000000000260000000000000000000000
#04918:221500000000000000000000000000000000000000000000000000000000260000000000000000000000000000000000
#04913:000000000000000000000000221500000000000000000000000000000000000000000000000000000000000000000000
#04919:000000000000000000000000221500000000000000000000000000000000000000000000000000000000000000000000
#04616:00000014000013000000130000001400
#0461a:0014241400142400
#04612:26142400
#04617:0013
#0461b:23
#01418:0000131300130013
#01412:0000001300000013
#01415:23001300000000000000000013000013
#0141b:00001313
#01416:0013
#01917:13001313
#0191b:0000330000130013
#0191a:0033000000000000
#02012:00131313
#02016:0000001300000013
#02017:13131300
#0201b:0013001300000000
#06517:13000013000000000000000013000000
#06516:00000000001313000000000000001300
#06512:13000013000000001300000013000000
#0651b:0000000000130000
#06412:00000000001300000000130000000000
#0641b:13000000000013000000001300001300
#06416:13130000000000000000000013000000
#06417:0013
#06612:13000013000000000000000013000000
#06617:13000013000000000000000000000000
#0661b:00000000001300000000000000001300
#06616:0000001300000000
#06619:000033
#06618:000000000000000000000000000000000033000000000000
#04416:1300000000130013
#04416:0000000000000013
#04417:00000000001300000000000013000000
#04417:00000013
#0441b:1300000000000013
#0441b:0000000000000013
#04412:0000131300001300
#04412:00000013
#04414:0013000013000000
#0471a:0000000014001424
#04712:0000000014001424
#04716:0000000000140000
#00712:1300001300000013
#00717:00000000001300000000000000001300
#00716:00000000000000000000001300000000
#0071b:1300000000131300
#00619:00000013
#00614:00000013
#00616:0000000000000013
#0061b:0000001300000013
#00612:00000000001300000000130000000000
#00618:26
#00610:41
#01618:00001300000000000000000013000013
#0161b:0000001300000013
#01615:0000131300130013
#01612:00001313
#01617:0013
#01812:00001300000013000000000000000013
#0181b:00131313
#01817:0000001300000013
#01816:13131300
#01810:41
#0391a:0000000000000013
#03919:00000013
#03912:14141300
#03916:0014001400000000
#0391b:0013
#03918:0000000000130000
#03913:0000000000000013
#03914:00000013
#03915:0000000000130000
#03816:0014001400000014
#03812:23131313
#03818:26001414
#0381a:0000140000140000
#04316:1300001300001300
#04319:0013000000000000
#04317:0000130000130013
#0431b:00001313
#04312:00000013000000001300130000000000
#04216:00000013
#0421b:2313
#04212:2600000000130013
#04215:00000013000000000000000000000000
#04218:0013000000000000
#04210:41
#0631b:00000000001300000000130000000000
#06312:26001313
#06316:0000001300000013
#06317:00000013
#06310:41
#06916:13000013000000000000000013000000
#06917:00000000001313000000000000001300
#0691b:13000013000000001300000013000000
#06912:0000000000130000
#0681b:00000000001300000000130000000000
#06812:13000000000013000000001300001300
#06817:13130000000000000000000013000000
#06816:0013
#0701b:13000013000000000000000013000000
#07016:13000013000000000000000000000000
#07012:00000000001300000000000000001300
#07017:0000001300000000
#07014:000033
#07015:000000000000000000000000000000000033000000000000
#06712:00000000001300000000130000000000
#0671b:00001313
#06717:0000001300000013
#06716:00000013
#06718:26
#0121b:00000000001300000000000013000000
#01212:1300001300000013
#01217:00130000000000000000130000001300
#01216:00001313
#0111b:1300001300000013
#01116:00000000001300000000000000001300
#01117:00000000000000000000001300000000
#01112:1300000000131300
#01014:00000013
#01019:00000013
#01017:0000000000000013
#01012:2600001300000013
#0101b:00000000001300000000130000000000
#02412:14
#02414:00141400
#02419:00000014000000000014000000000000
#0241a:00140000000000000000001400000000
#02418:00000000001400140000000000000000
#02413:0014000000140000
#02415:0000001400000000
#07112:2c
#02256:0000006300000000
#02252:0023
#0485a:64
#04856:0024000024000000
#04852:3600005400000000
#04858:0000004600000000
#05056:0000006400000000
#05052:0024
#05058:46
#03652:53
#03656:00000000002300000000000000000000
#03557:0000001300002300
#03552:0000001300000000
#03556:00630000
#0355b:0000000000630000
#00456:0000006300000000
#00352:0000005300000000
#00558:1600001300000000
#0055b:00000013000000000000000000000000
#00552:00000000000000001600001300000000
#00555:0000000000000013
#02152:00000013
#02957:0012
#02952:5c
#02652:19
#02755:19
#06252:19000000000016000000001600000000
#06258:00000016000000000000000000001600
#06255:0019
#03352:1414141400000000
#03356:0000000000344400
#03156:0000001400000000
#03755:0000001600000000
#03052:16
#05652:1300005300000000
#05658:1313
#0565b:00130013
#05452:0000005300000000
#05455:0023
#05458:1313
#0545b:00130013
#05555:0000006300000000
#05552:0023
#05558:1313
#0555b:00130013
#0605b:1300006300000000
#06055:1313
#06052:00130013
#0585b:0000006300000000
#05858:0023
#05855:1313
#05852:00130013
#05958:0000005300000000
#0595b:0023
#05955:1313
#05952:00130013
#06158:0000005300000000
#06155:1313
#06152:00130013
#04557:5300003300000000
#04552:5300003300000000
#0455b:00000023000000000000000000000000
#04556:00000023000000000000000000000000
#04158:00000046
#04152:0000000000360000
#04157:0000001300000000
#04952:522500000000000000000000000000000000000000000000000000000000000000000000360000000000000000000000
#04958:522500000000000000000000000000000000000000000000000000000000460000000000000000000000000000000000
#04953:000000000000000000000000522500000000000000000000000000000000000000000000000000000000000000000000
#04959:000000000000000000000000522500000000000000000000000000000000000000000000000000000000000000000000
#05152:0000001400000000
#05156:0000001400000000
#0525b:63
#05257:0023000000000000
#05252:0000005300000000
#05256:0023
#04652:3600000000000014
#04656:0000000000000014
#00856:00630000000000000000000000000000
#00857:0023
#0085b:0000006300000000
#0155b:63
#01456:0023
#01452:0000005300000000
#01957:53
#06352:1623
#06357:00000053
#0635b:0000000000230000
#06356:0000005300000000
#06557:00000053000000000000000053000000
#06556:0000006300000000
#06552:0023
#06656:0000006300000000
#06652:00000053000000000000000053000000
#07152:4c
#0475a:0000001400000000
#04756:0000001400000000
#05352:2200000000000016
#05358:0016
#05355:00000000000000000000001600000000
#05758:1313
#0575b:00130013
#03256:0024000000000000
#0325a:64440000
#03252:3400003400000000
#00658:16
#0065b:0000006300000000
#00957:0000005300000000
#01752:53
#01657:0023
#0165b:0000006300000000
#0185b:0023
#01857:0000005300000000
#02052:0023
#02056:0000006300000000
#02357:0000005300000000
#0235b:0023
#03458:16
#03956:0000001400000000
#04056:0024000000000000
#04052:54340000
#0405a:4400004400000000
#03858:16
#0445b:63
#04457:00000000002300000000000000000000
#04356:0000001300002300
#04357:00530000
#04352:0000000000530000
#0435b:0000001300000000
#04252:16
#06456:00630000000000000000000063000000
#0645b:0000006300000000
#06457:0023
#06956:00000063000000000000000063000000
#06957:0000005300000000
#0695b:0023
#07057:0000005300000000
#0705b:00000063000000000000000063000000
#06756:00000063
#06752:0000000000230000
#0675b:0023
#06757:0000006300000000
#06758:16
#06857:00530000000000000000000053000000
#06852:0000005300000000
#06856:0023
#00752:0000005300000000
#01257:00530000000000000000000000000000
#01256:0023
#01252:0000005300000000
#01052:1600005300000000
#01356:0000006300000000
#0115b:0000006300000000
#0255a:14
#001350:0000001300230000
#002380:0000001300230000
#003320:0000001300000000
#003360:0000000000230000
#004360:0000001300000000
#004320:0000000000230000
#006320:00130023000000000000000000000000
#006371:00000013002300000000000000000000
#0063b1:0000001300000000
#006371:0000000000230000
#0073b1:00130023000000000000000000000000
#007360:00000013000000000000000000000000
#007320:00000000002300000000000000000000
#007320:0000001300000000
#007360:0000000000230000
#008360:00130000000000000000000000000000
#008320:00000023000000000000000000000000
#0083b1:00000013002300000000000000000000
#0083b1:0000001300230000
#008371:0053
#009361:00130023000000000000000000000000
#0093b0:00000013002300000000000000000000
#009370:0000001300000000
#0093b0:0000000000230000
#009361:0000000000130000
#009341:000033
#009331:000000000000000000000000000000000033000000000000
#009321:00000023
#0103b1:00130023000000000000000000000000
#010360:00000013002300000000000000000000
#010320:0000001300000000
#010360:0000000000230000
#011320:00130023000000000000000000000000
#011371:00000013000000000000000000000000
#0113b1:00000000002300000000000000000000
#0113b1:0000001300000000
#011371:0000000000230000
#012371:00130000000000000000000000000000
#0123b1:00000023000000000000000000000000
#012320:00000013002300000000000000000000
#012320:0000001300230000
#012360:0053
#013370:00130023000000000000000000000000
#013321:00000013002300000000000000000000
#013361:0000001300000000
#013321:0000000000230000
#0143b1:1323000000000000
#014321:0000133300230000
#014361:0053
#0153b1:13
#015381:0033000000000000
#015371:0000332300000000
#0153b1:00000013
#015371:0000000000000033
#0163b1:23
#016320:1323000000000000
#0163b0:0000133300230000
#016370:0053
#017320:13
#017350:0033000000000000
#017360:0000332300000000
#0173b0:0000000000130000
#0173a0:0000000000000000000000000000000000000000003300000000000000000000
#017390:00000000000000000000003300000000
#017380:0000000000000000000000000000000000000000000000330000000000000000
#017370:0000000000003323
#0183b0:1323000000000000
#018370:0000001300230000
#0183b0:0053
#018321:0000000000130023
#018361:00000033
#019371:13
#0193a1:0033000000000000
#0193b1:0000332300000000
#019360:0000001300330023
#019320:00003333
#020320:1323000000000000
#020360:0000001300230000
#020320:0053
#0203b1:0000000000130023
#020371:00000033
#0213b1:00000013
#0213a1:00000000000000000000000000330000
#021391:0000000000000033
#021381:00000000000000000000000000000033
#022371:23
#022361:0000001300230000
#022321:0053
#0223b0:0000000000130000
#022370:00000023
#022321:00000013
#022361:0000000000000023
#023371:0000001300230000
#0233b1:0053
#023320:0000000000130000
#023360:00000023
#0233b1:00000013
#023371:0000000000000023
#024321:0000000000001424
#0243a0:0000000000000014
#0253a0:24
#025321:12
#025331:00320000000000000000000000000000
#025341:0032000000000000
#025351:00000032000000000000000000000000
#025361:00220000
#025380:00120000
#025390:00000000003200000000000000000000
#0253a0:0000003200000000
#0253b0:00000000000000320000000000000000
#0253c0:0022
#0263b0:13
#026360:0000002300000000
#026321:0000001300000000
#026371:00000023
#027321:13
#027371:0000002300000000
#0273b0:0000001300000000
#027360:00000023
#029320:1c003c3c003c3c000000000000000000
#029370:0022
#031360:14340000
#031320:0034002400000000
#0323a0:14240000
#032360:0054000000000000
#034320:00130000
#034360:0000002300000000
#0343b1:0000001300000000
#034371:0023
#034361:0000000000130033
#034321:00000033
#035321:23
#035361:00130000
#035321:0000002300000000
#0353b1:0000000000130023
#035371:00000053
#036321:1300000000230000
#036361:00000000005300000000000000000000
#039361:14340000
#0393a1:0034002400000000
#040321:14240000
#040361:0054000000000000
#0413b1:1323000000000000
#041320:0013002300000000
#041360:00330000
#0423b0:00130000
#042370:0000002300000000
#042321:0000001300000000
#042361:0023
#042371:0000000000130033
#0423b1:00000033
#0433b1:23
#043371:00130000
#0433b1:0000002300000000
#043321:0000000000130023
#043361:00000053
#0443b1:1300000000230000
#044371:00000000005300000000000000000000
#045371:1300002300000000
#0453b1:00003333330000000000000000000000
#045320:1300002300000000
#045360:00003333330000000000000000000000
#046360:00000014
#046320:00000000000000000000000000542400
#0473a0:14003400005424000000000000000000
#047360:00000054340000000000000000000000
#047361:14000000005424000000000000000000
#047321:00543400340000000000000000000000
#0483a1:13240000
#048361:0054000000000000
#048321:0000001400240000
#048361:0054
#049381:125500000000000000000000000000000000000000000000000000000000000000000000000000000000000000000000
#0493b1:000000000000000000000000000000000000000000000000000000000000000000000000000000000000000000000000000000000000000000000000000000000000000000000000000000000000000052000000000000000000000000000000000000000000000000000000000000000000000000000000000000000000000000000000000000000000000000000000000000000000000000000000000000000000000000000000000000000000000000000000000000000000000000000000000000000000005200000000000000000000000000000000000000000000000000000000000000000000000000000000000000000000000000000000000000000000000000000000000000000000000000000000000000000000000000000000000000000000000000000000000000000000000000000000000000000000000000000000000000000000000000000000000000000000000000000000000000000000000000000000000000000000000000000000000000000000000000000000000000000000000000000000000000000000000000000000000000000000000000000000000000000000000000000000000000000000000000000000000000000000000000000000000000000000000000000000000000000000000000000000000000000000000000000000000000000000000000000000000000000000000000000000000000000000000000000000000000000000000000000000000000000000000000000000000000000000000000000000000000000000000000000000000000000000000000000000000000000000000000000000000000000000000000000000000000000000000000000000000000000000000000000000000000000000000000000000000000000000000000000000000000000000000000000000000000000000000000000000000000000000000000000000000000000000000000000000000000000000000000000000000000000000000000000000000000000000000000000000000000000000000000000000000000000000000000000000000000000000000000000000000000000000000000000000000000000000000000000000000000000000000000000000000000000000000000000000000000000000000000000000000000000000000000000000000000000000000000000000000000000000000000000000000000000000000000000000000000000000000000000000000000000000000000000000000000000000000000000000000000000000000000000000000000000000000000000000000000000000000000000000000000000000000000000000000000000000000000000000000000000000000000000000000000000000000000000000000000000000000000000000000000000000000000000000000000000000000000000000000000000000000000000000000000000000000000000000000000000000000000000000000000000000000000000000000000000000000000000000000000000000000000000000000000000000000000000000000000000000000000000000000000000000000000000000000000000000000000000000000000000000000000000000000000000000000000000000000000000000000000000000000000000000000000000000000000000000000000000000000000000000000000000000000000000000000000000000000000000000000000000000000000000000000000000000000000000000000000000000000000000000000000000000000000000000000000000000000000000000000000000000000000000000000000000000000000000000000000000000000000000000000000000000000000000000000000000000000000000000000000000000000000000000000000000000000000000000000000000000000000000000000000000000000000000000000000000000000000000000000000000000000000000000000000000000000000000000000000000000000000000000000000000000000000000000000000000000000000000000000000000000000000000000000000000000000000000000000000000000000000000000000000000000000000000000000000000000000000000000000000000000000000000000000000000000000000000000000000000000000000000000000000000000000000000000000000000000000000000000000000000000000000000000000000000000000000000000000000000000000000000000000000000000000000000000000000000000000000000000000000000000000000000000000000000000000000000000000000000000000000000000000000000000000000000000000000000000000000000000000000000000000000000000000000000000000000000000000000000000000000000000000000000000000000000000000000000000000000000000000000000000000000000000000000000000000000000000000000000000000000000000000000000000000000000000000000000000000000000000000000000000000000000000000000000000000000000000000000000000000000000000000000000000000000000000000000000000000000000000000000000000
#049391:000000000054240000000000000000000000000000000000000000000000000000000000000000000000000000000000
#049320:125500000000000000000000000000000000000000000000000000000000000000000000000000000000000000000000
#049350:000000000000000000000000000000000000000000000000000000000000000000000000000000000000000000000000000000000000000000000000000000000000000000000000000000000000000052000000000000000000000000000000000000000000000000000000000000000000000000000000000000000000000000000000000000000000000000000000000000000000000000000000000000000000000000000000000000000000000000000000000000000000000000000000000000000000005254000000000000000000000000000000000000000000000000000000000000000000000000000000240000000000000000000000000000000000000000000000000000000000000000000000000000000000000000000000000000000000000000000000000000000000000000000000000000000000000000000000000000000000000000000000000000000000000000000000000000000000000000000000000000000000000000000000000000000000000000000000000000000000000000000000000000000000000000000000000000000000000000000000000000000000000000000000000000000000000000000000000000000000000000000000000000000000000000000000000000000000000000000000000000000000000000000000000000000000000000000000000000000000000000000000000000000000000000000000000000000000000000000000000000000000000000000000000000000000000000000000000000000000000000000000000000000000000000000000000000000000000000000000000000000000000000000000000000000000000000000000000000000000000000000000000000000000000000000000000000000000000000000000000000000000000000000000000000000000000000000000000000000000000000000000000000000000000000000000000000000000000000000000000000000000000000000000000000000000000000000000000000000000000000000000000000000000000000000000000000000000000000000000000000000000000000000000000000000000000000000000000000000000000000000000000000000000000000000000000000000000000000000000000000000000000000000000000000000000000000000000000000000000000000000000000000000000000000000000000000000000000000000000000000000000000000000000000000000000000000000000000000000000000000000000000000000000000000000000000000000000000000000000000000000000000000000000000000000000000000000000000000000000000000000000000000000000000000000000000000000000000000000000000000000000000000000000000000000000000000000000000000000000000000000000000000000000000000000000000000000000000000000000000000000000000000000000000000000000000000000000000000000000000000000000000000000000000000000000000000000000000000000000000000000000000000000000000000000000000000000000000000000000000000000000000000000000000000000000000000000000000000000000000000000000000000000000000000000000000000000000000000000000000000000000000000000000000000000000000000000000000000000000000000000000000000000000000000000000000000000000000000000000000000000000000000000000000000000000000000000000000000000000000000000000000000000000000000000000000000000000000000000000000000000000000000000000000000000000000000000000000000000000000000000000000000000000000000000000000000000000000000000000000000000000000000000000000000000000000000000000000000000000000000000000000000000000000000000000000000000000000000000000000000000000000000000000000000000000000000000000000000000000000000000000000000000000000000000000000000000000000000000000000000000000000000000000000000000000000000000000000000000000000000000000000000000000000000000000000000000000000000000000000000000000000000000000000000000000000000000000000000000000000000000000000000000000000000000000000000000000000000000000000000000000000000000000000000000000000000000000000000000000000000000000000000000000000000000000000000000000000000000000000000000000000000000000000000000000000000000000000000000000000000000000000000000000000000000000000000000000000000000000000000000000000000000000000000000000000000000000000000000000000000000000000000000000000000000000000000000000000000000000000000000000000000000000000000000000000000000000000000000000000000000000000000000000000000000000000000000000000000000000000000000000000000000000000000000000000000000000000000000000
#049390:000000000000000000000000125500000000000000000000000000000000000000000000000000000000000000000000
#0493c0:000000000000000000000000000000000000000000000000000000000000000000000000000000000000000000000000000000000000000000000000000000000000000000000000000000000000000000000000000000000000000000000000000000000000000000000000000000000000000000000000000000000000000000000000000000000000000000000000000000000000000000000000000000000000000000000000000000000000000000000000000000000000000000000000000000000000000000000000000000000000000000000000000000000000000000000000000000000000000000000000000000000000000000000000000000000000000000000000000000000000000000000000000000000000000000000000000000000000000000000000000000000000000000000000000000000000000000000000000000000000000000000000000000000000000000000000000000000000000000000000000000000000000000000000000000000000000000000000000000000000000000000000000000000000000000000000000000000000000000000000000000000000000000000000000000000000000000000000000000000000000000000000000000000000000000000000000000000000000000000000000000000000000000000000000000000000000000000000000000000000000000000000000000000000000000000000000000000000000000000000000000000000000000000000000000000000000052000000000000000000000000000000000000000000000000000000000000000000000000000000000000000000000000000000000000000000000000000000000000000000000000000000000000000000000000000000000000000000000000000000000000000000000000000000000000000000005200000000000000000000000000000000000000000000000000000000000000000000000000000000000000000000000000000000000000000000000000000000000000000000000000000000000000000000000000000000000000000000000000000000000000000000000000000000000000000000000000000000000000000000000000000000000000000000000000000000000000000000000000000000000000000000000000000000000000000000000000000000000000000000000000000000000000000000000000000000000000000000000000000000000000000000000000000000000000000000000000000000000000000000000000000000000000000000000000000000000000000000000000000000000000000000000000000000000000000000000000000000000000000000000000000000000000000000000000000000000000000000000000000000000000000000000000000000000000000000000000000000000000000000000000000000000000000000000000000000000000000000000000000000000000000000000000000000000000000000000000000000000000000000000000000000000000000000000000000000000000000000000000000000000000000000000000000000000000000000000000000000000000000000000000000000000000000000000000000000000000000000000000000000000000000000000000000000000000000000000000000000000000000000000000000000000000000000000000000000000000000000000000000000000000000000000000000000000000000000000000000000000000000000000000000000000000000000000000000000000000000000000000000000000000000000000000000000000000000000000000000000000000000000000000000000000000000000000000000000000000000000000000000000000000000000000000000000000000000000000000000000000000000000000000000000000000000000000000000000000000000000000000000000000000000000000000000000000000000000000000000000000000000000000000000000000000000000000000000000000000000000000000000000000000000000000000000000000000000000000000000000000000000000000000000000000000000000000000000000000000000000000000000000000000000000000000000000000000000000000000000000000000000000000000000000000000000000000000000000000000000000000000000000000000000000000000000000000000000000000000000000000000000000000000000000000000000000000000000000000000000000000000000000000000000000000000000000000000000000000000000000000000000000000000000000000000000000000000000000000000000000000000000000000000000000000000000000000000000000000000000000000000000000000000000000000000000000000000000000000000000000000000000000000000000000000000000000000000000000000000000000000000000000000000000000000000000000000000000000000000000000000000000000000000000000000000000000000000000000000000000000000000000000000000000000000000000000000000000000000000000000000000000000
#0493a0:000000000000000000000000000000000054240000000000000000000000000000000000000000000000000000000000
#049331:000000000000000000000000125500000000000000000000000000000000000000000000000000000000000000000000
#049361:000000000000000000000000000000000000000000000000000000000000000000000000000000000000000000000000000000000000000000000000000000000000000000000000000000000000000000000000000000000000000000000000000000000000000000000000000000000000000000000000000000000000000000000000000000000000000000000000000000000000000000000000000000000000000000000000000000000000000000000000000000000000000000000000000000000000000000000000000000000000000000000000000000000000000000000000000000000000000000000000000000000000000000000000000000000000000000000000000000000000000000000000000000000000000000000000000000000000000000000000000000000000000000000000000000000000000000000000000000000000000000000000000000000000000000000000000000000000000000000000000000000000000000000000000000000000000000000000000000000000000000000000000000000000000000000000000000000000000000000000000000000000000000000000000000000000000000000000000000000000000000000000000000000000000000000000000000000000000000000000000000000000000000000000000000000000000000000000000000000000000000000000000000000000000000000000000000000000000000000000000000000000000000000000000000000000000052000000000000000000000000000000000000000000000000000000000000000000000000000000000000000000000000000000000000000000000000000000000000000000000000000000000000000000000000000000000000000000000000000000000000000000000000000000000000000000005254000000000000000000000000000000000000000000000000000000000000000000000000000000240000000000000000000000000000000000000000000000000000000000000000000000000000000000000000000000000000000000000000000000000000000000000000000000000000000000000000000000000000000000000000000000000000000000000000000000000000000000000000000000000000000000000000000000000000000000000000000000000000000000000000000000000000000000000000000000000000000000000000000000000000000000000000000000000000000000000000000000000000000000000000000000000000000000000000000000000000000000000000000000000000000000000000000000000000000000000000000000000000000000000000000000000000000000000000000000000000000000000000000000000000000000000000000000000000000000000000000000000000000000000000000000000000000000000000000000000000000000000000000000000000000000000000000000000000000000000000000000000000000000000000000000000000000000000000000000000000000000000000000000000000000000000000000000000000000000000000000000000000000000000000000000000000000000000000000000000000000000000000000000000000000000000000000000000000000000000000000000000000000000000000000000000000000000000000000000000000000000000000000000000000000000000000000000000000000000000000000000000000000000000000000000000000000000000000000000000000000000000000000000000000000000000000000000000000000000000000000000000000000000000000000000000000000000000000000000000000000000000000000000000000000000000000000000000000000000000000000000000000000000000000000000000000000000000000000000000000000000000000000000000000000000000000000000000000000000000000000000000000000000000000000000000000000000000000000000000000000000000000000000000000000000000000000000000000000000000000000000000000000000000000000000000000000000000000000000000000000000000000000000000000000000000000000000000000000000000000000000000000000000000000000000000000000000000000000000000000000000000000000000000000000000000000000000000000000000000000000000000000000000000000000000000000000000000000000000000000000000000000000000000000000000000000000000000000000000000000000000000000000000000000000000000000000000000000000000000000000000000000000000000000000000000000000000000000000000000000000000000000000000000000000000000000000000000000000000000000000000000000000000000000000000000000000000000000000000000000000000000000000000000000000000000000000000000000000000000000000000000000000000000000000000000000000000000000000000000000000000000000000000000000000000000000000000000000000000000000000000000000000000
#050361:0000001400240000
#050321:0054
#051361:00001400005424000000000000000000
#0513a1:00000054340000000000000000000000
#051360:00140000
#051320:00000000005424000000000000000000
#0523b0:13230000
#052370:0053000000000000
#052320:0000001300230000
#052360:0053
#053320:1226
#054320:0000001300230000
#054350:0053
#055350:0000001300230000
#055320:0053
#056320:0000001300000000
#056350:0000000000230000
#0583b0:0000001300230000
#058380:0053
#059380:0000001300230000
#0593b0:0053
#0603b0:0000001300000000
#060380:0000000000230000
#061380:0000001300000000
#0613b0:0000000000230000
#0633b0:00130000000000000000000000000000
#063370:00000023000000000000000000000000
#063321:00000013000000000000000000000000
#063361:00000000002300000000000000000000
#063361:0000001300230000
#063321:0053
#0633b0:0000000000130023
#063370:00000033
#064360:00130000000000000000000000000000
#064320:00000023000000000000000000000000
#064371:00000013002300000000000000000000
#0643b1:0000001300230000
#064371:0053
#064361:00000013
#064321:0000000000000023
#065371:00130033000000000000000000000000
#0653b1:00000000002300000000000000000000
#065361:0000001300230000
#065321:0053
#065371:00000013
#0653b1:0000000000000023
#066321:00130033000000000000000000000000
#066361:00000000002300000000000000000000
#066361:0000001300000000
#066321:0000000000230000
#0663b0:0000000000130000
#066390:000033
#066380:000000000000000000000000000000000033000000000000
#066370:00000023
#066321:00000013
#066361:0000000000000023
#067321:00130000000000000000000000000000
#067361:00000023000000000000000000000000
#0673b0:00000013000000000000000000000000
#067370:00000000002300000000000000000000
#067370:0000001300230000
#0673b0:0053
#067321:0000000000130023
#067361:00000033
#068371:00130000000000000000000000000000
#0683b1:00000023000000000000000000000000
#068360:00000013002300000000000000000000
#068320:0000001300230000
#068360:0053
#068370:00000013
#0683b0:0000000000000023
#069360:00130033000000000000000000000000
#069320:00000000002300000000000000000000
#069370:0000001300230000
#0693b0:0053
#069360:00000013
#069320:0000000000000023
#0703b0:00130033000000000000000000000000
#070370:00000000002300000000000000000000
#070370:0000001300000000
#0703b0:0000000000230000
#070321:0000000000130000
#070341:000033
#070351:000000000000000000000000000000000033000000000000
#070361:00000023
#0703b0:00000013
#070370:0000000000000023
