This file was generated by Ched 2.6.4.0.
#TITLE ""
#ARTIST ""
#DESIGNER ""
#DIFFICULTY 0
#PLAYLEVEL
#SONGID ""
#WAVE ""
#WAVEOFFSET 0
#JACKET ""
#REQUEST "ticks_per_beat 480"
#00002: 4
#BPM01: 135
#00008: 01
#TIL00: ""
#HISPEED 00
#MEASUREHS 00
#0031a:1414
#00312:00140014
#00418:1414
#00414:00140014
#02612:14
#0261a:14
#0271a:14
#02712:14
#02814:1414
#02818:00140014
#02914:14
#03014:00140000
#03018:26
#0301f:21
#03114:14140000
#03118:0014000000000000
#03110:41
#03218:00000014
#03214:0014
#0321a:00140000
#03212:14
#03412:00140000
#03418:26
#03514:14140000
#0351a:0014000000000000
#0361a:00000014
#03614:0014
#03618:00140000
#03612:14
#03718:00000014
#03714:00000014000000000000000000000000
#03712:14
#04612:00140000
#0461a:0014
#04618:26
#04712:14
#0471a:0014000000001400
#04714:00140014
#04718:0000001400000000
#04512:00000014
#04518:00000014000000000000000000000000
#0451a:14
#0511a:14000014
#05112:0014000000000000
#05118:00140000
#05114:0000001400000000
#0541a:1414
#05412:00140014
#05410:41
#05518:1414
#05514:00140014
#0561a:1414
#05612:00140014
#05718:1414
#05714:00140014
#0581a:14
#05814:00140000
#05818:0014
#05812:00000014
#05918:14
#05912:00140000
#0591a:0014
#05914:00000014
#06018:14
#06014:00140000
#0601a:0014
#06012:00000014
#0611a:14
#06112:00140000
#06118:0014
#06114:00000014
#0621a:14
#00614:1414
#0061a:00140014
#00610:41
#00712:1414
#00718:00140000
#00818:1414
#00812:00140014
#0091a:1414
#00914:00140000
#03818:00140000
#03812:26
#03918:14140000
#03914:0014000000000000
#04014:00000014
#04018:0014
#04012:00140000
#0401a:14
#04318:14140000
#04312:0014000000000000
#04412:00000014
#04418:0014
#04414:00140000
#0441a:14
#0421a:00140000
#04212:26
#04210:41
#0501a:00140000
#05012:2614
#0491a:00000014
#04918:26260000
#04912:0026002600000000
#0521a:00000014
#05212:0014
#05218:00140000
#05214:14
#00518:14
#01012:1414
#01018:00140014
#01114:1414
#0111a:00140000
#0121a:1414
#01214:00140014
#01318:1414
#01312:00140000
#01412:14
#01418:00140000
#01414:0014
#0141a:00000014
#01718:00000014
#01714:0014
#0161a:14
#01614:00140000
#01618:0014
#01612:00000014
#01518:0014
#01514:00000014
#01812:14
#0181a:00140000
#01814:0014
#01818:00000014
#01810:41
#01918:0014
#01914:00000014
#0201a:14
#02012:00140000
#02018:0014
#02014:00000014
#02114:0014
#02118:00000014
#02317:0000341434000000
#0231a:14
#02215:0000341434000000
#02212:14
#0221f:11
#02416:0014
#02412:14
#02414:00340034
#02415:0000003400340000
#02413:0034000000000034
#02518:0014
#02514:00000014
#06318:00140000
#06314:0014
#0631a:00000014
#06312:14
#06310:41
#0651a:14
#06514:00140000
#06518:0014
#06512:00000014
#0671a:00140000
#06714:0014
#06718:00000014
#06712:14
#06812:14000014
#06816:00140000
#0681a:0014
#06912:00140000
#06918:0014
#06914:00000014
#0691a:14
#0701a:14000014
#07016:00140000
#07012:0014
#04812:0024
#04818:0024
#0481a:24
#04814:24
#07112:26
#03313:0034000000000000
#03314:00340000
#04119:0034000000000000
#04118:00340000
#02954:14
#0625a:64
#03058:16
#03458:16
#04658:16
#0465a:0064
#03852:16
#04252:16
#05052:1654
#03754:00000024000000000000000000000000
#03752:54
#04558:00000024000000000000000000000000
#0455a:64
#04858:0054
#04852:0054
#0485a:64
#04854:64
#00558:54
#02357:0000002400000000
#0235a:64
#02255:0000002400000000
#02252:54
#02456:0024
#02452:54
#02552:14
#07152:16
#0013a0:14
#001370:00000024
#002320:14
#002350:00000024
#005380:14
#0053a0:0024
#015320:14240000
#0173a0:14240000
#019340:14240000
#021380:14240000
#022320:14000024
#022350:0000345434000000
#0233a0:14000024
#023370:0000345434000000
#024320:14
#024330:0034000000000034
#024340:00340034
#024350:0000003400340000
#024360:0034
#025320:24
#0303a0:0014
#030380:00000024
#031380:0000001400000000
#0313a0:00000024
#033320:14
#033330:0034000000000000
#033340:0000343400002400
#034380:0014
#0343a0:00000024
#0353a0:0000001400000000
#035380:00000024
#037320:1400002400000000
#037340:00000054000000000000000000000000
#038320:0014
#038340:00000024
#039340:0000001400000000
#039320:00000024
#0413a0:14
#041390:0034000000000000
#041380:0000343400002400
#042340:0014
#042320:00000024
#043320:0000001400000000
#043340:00000024
#0453a0:1400002400000000
#045380:00000054000000000000000000000000
#0463a0:0014
#046380:00000024
#0483a0:14
#048380:00240000
#048341:14
#048321:00240000
#048321:0014
#048341:00000024
#048380:0014
#0483a0:00000024
#050320:0014
#050340:00000024
#053320:1624
#0623a0:14
#062370:0024
#064320:1434
#064340:00340024
#0663a0:1434
#066380:00340024
