This file was generated by Ched 2.6.4.0.
#TITLE ""
#ARTIST ""
#DESIGNER ""
#DIFFICULTY 0
#PLAYLEVEL
#SONGID ""
#WAVE ""
#WAVEOFFSET 0
#JACKET ""
#REQUEST "ticks_per_beat 480"
#00002: 4
#BPM01: 113
#00008: 01
#TIL00: ""
#HISPEED 00
#MEASUREHS 00
#00018:14
#00118:14
#00214:14
#00314:14
#00418:14
#00514:14
#00510:41
#00618:14
#00714:14
#0081a:14
#00912:14
#0101a:14
#01112:14
#01218:14
#01210:41
#01318:14
#01414:14
#01514:14
#0161a:14
#0171a:14
#01812:14
#01810:41
#01912:14
#02818:2616
#0281f:21
#02912:1616
#02910:41
#03018:16
#03012:0016
#03118:16
#03112:0016
#03418:16
#03412:0016
#03612:2616
#03718:1616
#03812:16
#03818:0016
#03912:16
#03918:0016
#04212:16
#04218:0016
#04518:14
#04612:14
#0471a:14
#0201f:11
#03510:41
#04110:41
#020380:14
#021380:24
#022340:14
#023340:24
#0243a0:14
#0253a0:24
#026320:14
#027320:24
#032380:1626
#033320:1626
#035380:1626
#040320:1626
#041380:1626
#043320:1636
#044320:26
#048320:14
#050320:24
