This file was generated by Ched 2.6.4.0.
#TITLE ""
#ARTIST ""
#DESIGNER ""
#DIFFICULTY 0
#PLAYLEVEL
#SONGID ""
#WAVE ""
#WAVEOFFSET 0
#JACKET ""
#REQUEST "ticks_per_beat 480"
#00002: 4
#BPM01: 113
#00008: 01
#TIL00: ""
#HISPEED 00
#MEASUREHS 00
#0201f:11
#02012:00000000000000000000001300000000
#02015:0013
#02017:00130000
#0201b:13
#02018:0000000000130000
#04418:00000000000000000000001313000000
#04419:00001313000000001313000000000000
#04416:0000001300000000
#0441b:0000001300000000
#04417:13
#02216:0000000000001313
#0221b:0000001300000013
#02212:1300000000130000
#02214:0013
#02217:13
#02219:0013
#02317:0013000000000013
#02312:00001300000000000000000000130000
#02314:00000000000000000000000000000013
#03817:0000000000000013
#03812:0000000000001313
#0381b:0000001300000000
#03816:0000001300000000
#03818:13
#03016:0000000000000013
#0301b:0000000000001313
#03017:0000001300000000
#03012:0000001300000000
#03015:13
#04216:00130000000000000000000000000000
#04218:00000000130023000000002300000000
#0421b:0000000000000000000000000000000023000000000000000013000000000000
#04212:0000000000000000000000002300000000000013000000000000000023000000
#04215:0023
#04112:0000001300000013
#04117:0000001300000013
#04114:00130013
#04119:00130013
#04116:0000000000130000
#0411b:0013000000000000
#04110:41
#00312:13131313
#00315:0013000000130013
#0031b:0000001300000013
#00318:13131313
#01912:1313
#01916:00130013
#01919:00000013000033000000001300000000
#01914:0013000000130000
#01917:00130000000000330013000000000000
#01915:00000000000000000000000000000023
#01918:0000000000000023
#0191b:00000000000000000000000000230000
#04012:00000000000023000000000000000013
#0401b:00001323
#04015:00002313
#04018:0000000000230000
#0391b:00000000000013000000000013000013
#03916:00000000000000000000000000000013
#03912:00001313
#03918:0013
#03915:0000000000130000
#0321b:00000000000013000000000013000013
#03216:00000000000000000000000000000013
#03212:00001313
#03218:0013
#03215:0000000000130000
#03117:00000000000000000000000000000013
#03112:00000000000013000000000013000013
#0311b:00001313
#03115:0013
#03118:0000000000130000
#00716:0000001400000000
#00712:0014000000000000
#00718:0000000000130013
#0071b:00000013
#00717:0024000000000000
#00412:0000001300000000
#00418:0000001300000000
#0061a:00000014000000000000000000002400
#00617:14
#00615:00000024000000000000240000000000
#00612:2400002400000000
#0091b:0000001300000000
#00916:00000013000000000000000000000000
#00912:1300000000130013
#00915:00000013
#01015:13
#01018:00131300
#0101b:0013001300000000
#00812:00131300
#00815:0013001300000000
#0081b:13
#01115:00130000001300000000000000000000
#01118:13000000130000000000000000000013
#01119:0000000013130000
#01114:0000000013130000
#01112:00000000000000000000000000130000
#0111b:00000000000000000000000000130000
#00512:1300000000130000
#00518:13000000130000000000130000130000
#0051b:0000000013000013
#00515:00001300001300001300000013000000
#00510:41
#00215:00000000000000001313000000000000
#0021b:1300001300000000
#00212:1300001300000000
#00218:00001313000000000000000000000000
#00112:00000013000000000000001300000000
#00118:0000130000130000
#00115:00000000001300001300000000000000
#0011b:00001300000000130000000000000000
#00018:00000000000000001313000000000000
#00012:1300001300000000
#0001b:1300001300000000
#00015:00001313000000000000000000000000
#04318:0000000000000013000000000000000000000000000000000000000000000000
#04312:0000000000230023
#04316:00000000002300000000000023000000
#04317:0000000000000023
#0431b:0023002300002300
#03616:00000014000000000000000000000000
#03615:0000000000000013
#03612:00000013
#03618:00000013
#0361b:0000000000130000
#0351b:0000000000130000
#03518:00130000000000001300000000000000
#03512:00130000000000001300000000002400
#03515:0000000000130000
#03517:0000000000000023
#03510:41
#03712:1300001300001313
#03718:1300001300001313
#0371b:0013130000130000
#03715:0013130000130000
#0341b:0013000000000000000000000000000013000000000000000000000013000000
#03415:0013000000000000000000000000000000000000130000000000000013000000
#03412:00001313
#03418:0000001300001300
#0331b:00002313
#03318:00000000000023000000000000000013
#03312:00000000000000002300000023000013
#03315:0000000000230000
#0291b:1300001300001313
#02915:1300001300001313
#02912:0013130000130000
#02918:0013130000130000
#02910:41
#02816:00000014000000000000000000000000
#02818:0000000000000013
#0281b:00000013
#02815:00000013
#02812:0000000000130000
#0281f:21
#0271a:00140000000000000000000000002400
#02715:00140000000000001300000000000000
#02718:0000000000130000
#02712:0000000000130000
#0271b:0013
#02716:0000000000000023
#02617:0014000014000014
#0261a:1400001400000000
#02612:0014000014000014
#02615:1400001400000000
#02618:00000034
#02613:00000034
#02517:2300000000000014
#0251a:00000014
#02512:0000000000000014
#02515:00000014
#02513:00330000
#02514:0033
#02519:0033
#02518:00330000
#0211b:00001300000000000000001300000000
#02118:0013
#02116:13
#02112:0000000000000013
#02115:0000000000130000
#01412:13000000001300000000000023000013
#0141b:00001300000000000023000000000013
#01415:00000013000000001300002300000000
#01418:0000130000230000
#04618:00000000000000001313001300000000
#04615:00001313000000000000000013000000
#0461b:0000001300000000
#04612:13
#0181b:00000000000000130000000000000000
#01817:00000013000000000000001300000000
#01814:00001300003300000000130000000000
#01819:00130000000000000013000000000000
#01816:1300003313000000
#01818:0000000000000023
#01815:00000000000000000000000000230000
#01812:00000023
#01810:41
#0171b:13000000000013002300000023000013
#01715:00130000001300230000230000000000
#01718:00001300130000000000002300000000
#01712:00000013000000000000000023000000
#04512:00000000001300000000001300000000
#0451b:0013000000130000
#04515:00131300
#04518:00000013000000130000000000000000
#02417:0000000000000013
#02412:00000000000000000000000000130013
#02418:0013
#02413:00000000000000130000000000000000
#02419:1300001300000000
#02414:00000000001300000000000000000000
#0241a:00130000
#02415:00000013000000000000000000000000
#0241b:0013000000000000
#02416:00130000000000000000000000000000
#01612:1300001300230000
#01618:00130000001300002300000000000000
#01615:00001300130000000023000000000000
#0161b:00000013000000230000000023000000
#0131b:13000000000000230023000000000013
#01315:00001300002300000000000000001300
#01318:00130000230023000000000000130000
#01312:00000023000000000023000000000000
#0121b:0000002300000013
#01215:13000000001300002300000000000013
#01218:00130000130000230000001300000000
#01212:00000013000000000023000000000000
#01210:41
#0471b:2300230023000023
#04715:0000230000230023
#04712:23002323
#04718:0023002300002300
#0151b:00000000000000000000000000230000
#01518:00003333330000002300000023000000
#01515:00003333330000230000002300000000
#01512:0000000000230000
#01514:00330000000000000000000000000000
#01513:33
#01519:00330000000000000000000000000000
#0151a:33
#0445b:0000000000000013
#04458:00000053
#04456:0000002300000000
#03956:00001300000000000000000000000063
#0395b:00001300000000000000000000000063
#03952:00000053
#03157:00001300000000000000000000000053
#03152:00001300000000000000000000000053
#0315b:00000063
#00252:0000000000000013
#00258:0000000000000013
#0005b:0000000000000013
#00055:0000000000000013
#04652:0000000000000013
#0465b:0000000000000013
#04658:00000000000000000000005300000000
#04655:00000063
#03452:0033000000000000
#03458:0033000000000000
#0345b:0023000000000000000000000000000000000000000000000000000063000000
#03455:0023000000000000000000000000000000000000000000000000000063000000
#01652:0000000000230000
#0275a:00240000000000000000000000006400
#02756:0000000000000013
#02755:00240000000000000000000000000000
#02752:0000000000530000
#03552:00230000000000000000000000005400
#03557:0000000000000013
#0355b:0000000000630000
#03558:00230000000000000000000000000000
#0475b:0000000000000063
#04352:0000000000000053
#0435b:0063006300000000
#04358:0000000000000023000000000000000000000000000000000000000000000000
#04252:0000000000000000000000000000000000000023000000000000000053000000
#04258:00000000000000000000005300000000
#04255:0063
#04256:00230000000000000000000000000000
#0425b:0000000000000000000000000000000000000000000000000023000000000000
#0175b:0063
#02256:0000000000000063
#02252:53
#02357:0053000000000000
#02352:0053000000000000
#03857:0000000000000053
#03852:0000000000000053
#0385b:0000006300000000
#03856:0000006300000000
#03858:53
#03056:0000000000000063
#0305b:0000000000000063
#03057:0000005300000000
#03052:0000005300000000
#03055:63
#04152:0000000000000053
#04157:0000005300000000
#04052:00000000000000000000000000000053
#0405b:00000063
#0325b:00000000000000000000000000000063
#03256:00000000000000000000000000000063
#03252:00000053
#00756:0000002400000000
#00752:0054000000000000
#00758:0000000000530053
#0075b:00000063
#00452:0000002300000000
#00458:0000002300000000
#00355:0000000000000063
#0035b:0000000000000063
#0095b:0000006300000000
#00956:00000063000000000000000000000000
#00952:5300000000530053
#00955:00000063
#01055:23
#01058:00532300
#0105b:0063006300000000
#00852:00532300
#00855:0063006300000000
#0085b:23
#03656:00000024000000000000000000000000
#03752:0000000000000053
#0335b:00000063
#03358:00000000000000000000000000000053
#03352:00000000000000000000000000000053
#0295b:0000000000000063
#02856:00000024000000000000000000000000
#02657:0024000024000054
#0265a:6400006400000000
#02652:0024000024000054
#02655:6400006400000000
#02557:0000000000000024
#0255a:00000064
#02552:0000000000000024
#02555:00000064
#0215b:00006300000000000000006300000000
#02158:0053
#02156:63
#02052:00000000000000000000005300000000
#02055:0063
#02057:00230000
#0205b:63
#01452:00000000000000000000000000000053
#0145b:00000000000000000000000000000063
#000350:00000000000000000000001300002300
#0003b1:0000000000001323
#002381:00000000000000000000001300002300
#002320:0000000000001323
#003350:0000000000000013
#004320:0000005300000000
#004350:0000000000000023
#0033b1:0000000000000013
#004381:0000005300000000
#0043b1:0000000000000023
#006371:0000001400000000
#0063a1:0000000000240000
#006351:0000000000000014
#007321:0034000000240000
#007361:0000005400000000
#007380:0000000000130033
#0073b0:00000033
#0083b0:53
#008380:0023000000000000
#008351:0013003300230000
#008321:00335300
#0083b0:0000000000133300
#0083a0:00000000000000000000000000330000
#008390:0000000000000033
#008380:00000000000000000000000000000033
#009370:23
#009321:1300002300000000
#009361:00000033000000000000000000000000
#0093b0:0000001300000000
#009370:0000000000230000
#009321:0000000000130033
#009351:00000033
#010351:53
#010321:0023000000000000
#0103b0:0013003300230000
#010380:00335300
#010361:0000000000133300
#010351:00000000000000000000000000330000
#010341:0000000000000033
#010331:00000000000000000000000000000033
#011321:23
#012351:0000000000001323
#014381:0000001300000000
#0143b1:0023
#014321:00000000000000000000000000000013
#015331:33
#015341:00330000000000000000000000000000
#015351:00003333332300000000000000000000
#0143b0:00000000000000000000000000000013
#0153a0:33
#015390:00330000000000000000000000000000
#015380:00003333332300000000000000000000
#015380:0000000013230000
#016320:0000000000130000
#016350:00000023
#0173b0:0013
#017380:0000000000230000
#018320:00130000
#018340:00000000003300000000000000000000
#018360:00000000000033230000000000000000
#0193b0:00000000001300000000000000000000
#019390:0000003300000000
#019370:00000000000000332300000000000000
#0203b0:1323
#020370:00530000
#020351:0013
#020321:0000000000230000
#020321:00000000000000000000001300000000
#020361:0000000000000023
#0203b0:0000000000000013
#0213b0:23
#021361:13
#021321:0000002300000000
#0213b0:0013000000000000
#021380:0000002300000000
#021380:0013
#0213b0:0000000000230000
#0213b0:00000000000000000000001300000000
#021370:0000000000000023
#022320:13
#022360:0000002300000000
#022370:0000000000130000
#0223b0:00000023
#022360:0000000000000013
#023320:0033000000000000
#023360:0023
#023371:0013000000000000
#0233b1:0023
#024321:00000000000000000013000000000000
#024361:00000000000000000000002300000000
#0243b0:00000000000000000000001300000000
#024370:00000000000000000000000000230000
#025320:1300000000000054
#025330:00330000
#025340:0033
#025350:00000034
#026350:3400343400340000
#026320:0054000054000034
#026330:00000034
#027350:00540000000000000000000000000000
#027320:00240000
#025371:1300000000000054
#025381:00330000
#025391:0033
#0253a1:00000034
#0263a1:3400343400340000
#026371:0054000054000034
#026381:00000034
#0273a1:00540000000000000000000000000000
#027371:00240000
#027321:0000000000130000
#027361:0000000000000023
#0273a0:0000000000000014
#028360:00000054000000000000000000000000
#0283a0:0024
#0293b0:0000000000000013
#030370:00230000
#030351:13
#030321:00230000
#030321:0000001300000000
#030361:0000000000230000
#030370:0000001300000000
#0303b0:0000000000230000
#030360:0000000000001333
#031320:0023000000000000
#0303b1:0000000000000013
#031371:0023000000000000
#0313b1:00000013
#031371:00000000000000000000000000000033
#0323b1:00230000
#031320:00000000000000000000000000000013
#032360:00230000
#032320:00000013
#032360:00000000000000000000000000000033
#033320:00230000
#0323b1:00000000000000000000000000000013
#033371:00230000
#0333b1:00000013
#033381:00000000000000000000000000000033
#0343b1:0053000000000000000000000000000000000000000000000000000000000000
#034381:0023000000000000
#033320:00000000000000000000000000000013
#034350:0053000000000000000000000000000000000000000000000000000000000000
#034320:0023000000000000
#0343b0:0000000000000013
#035380:00530000000000000000000000000000
#0353b0:00230000
#034351:0000000000000013
#035321:00530000000000000000000000000000
#035351:00230000
#0353b1:0000000000130000
#035371:0000000000000023
#035320:0000000000000014
#036360:00000054000000000000000000000000
#036320:0024
#037320:0000000000000013
#038360:00230000
#038381:13
#0383b1:00230000
#038361:0000001300000000
#038321:0000000000230000
#0383b0:0000001300000000
#038370:0000000000230000
#038370:0000000000001333
#0393b0:0023000000000000
#038321:0000000000000013
#039361:0023000000000000
#039321:00000013
#039361:00000000000000000000000000000033
#040321:00230000
#0393b0:00000000000000000000000000000013
#040370:00230000
#0403b0:00000013
#040370:00000000000000000000000000000023
#040321:00000000000000000000000000000013
#041361:0023000000000000
#041371:0000001300000000
#0413b1:0000000000230000
#041321:0000000000000013
#042361:00530000000000000000000000000000
#042321:00230000
#042351:00000000000000001300002300000000
#042321:0000000000000000000000000000000000000053000000000000000000000000
#042380:00000000000000000000001300002300
#0423b0:0000000000000000000000000000000000000000000000000053000000000000
#042321:0000000000000013
#043361:0023000000000000
#0433b0:00001300002300000000000000000000
#043380:0000000000000053000000000000000000000000000000000000000000000000
#0433b0:0000001300000000
#043370:0000000000230000
#043320:0000000000000013
#044360:0000005300000000
#044320:0000000000000023
#044381:00000013
#0443b1:0000000000000023
#0463b1:13
#046381:00003323000000000000000000000000
#046321:0000001300000000
#046351:00000000000000003323000000000000
#046381:00000000000000000000001300000000
#0463b1:0000000000000023
#046350:00000013
#046320:0000000000000023
#0473b0:0000000000000013
#050370:22
