This file was generated by Ched 2.6.4.0.
#TITLE ""
#ARTIST ""
#DESIGNER ""
#DIFFICULTY 0
#PLAYLEVEL
#SONGID ""
#WAVE ""
#WAVEOFFSET 0
#JACKET ""
#REQUEST "ticks_per_beat 480"
#00002: 4
#BPM01: 113
#00008: 01
#TIL00: ""
#HISPEED 00
#MEASUREHS 00
#02415:00000000000000000000000000000013
#02412:00000000000000000000000000130000
#02418:0000000000000013
#02718:0000000013130000
#02712:0000000013130000
#0271a:00140000000000000000000000002400
#02715:0000000000000024
#02918:00130000
#0291b:0000001300001300
#02915:0013000000130013
#02912:13
#02910:41
#03115:0000001300130000
#03118:0013
#03112:00000013
#03116:00000000000000000000000000000013
#0411b:0013000000000000
#04118:00130013
#04112:0000000000000013
#04115:0000001300000000
#04110:41
#04518:0013130000130000
#04515:00000013001300001300000000000000
#0451b:00000000000000130000000000000000
#04512:00000000000000000000001300000000
#02018:00000000000000000000001300000000
#0201b:13
#02015:0000000000000013
#0201f:11
#0221b:0013
#02212:1300000000000013
#02215:00000013
#02218:0000000000130000
#03018:0000001300000000
#0301b:0000000000000013
#03015:00000013
#03318:00000000000000002300000023000013
#03312:00000000000000000000000023000013
#03315:0000002300230000
#0001b:13000000000000000000001300000000
#00012:0000001300000000
#00018:00000013000000001300000000000000
#00015:00001300000000000013000000000000
#0001a:00000033
#0031b:1300000000000013
#00318:0013001300001300
#00315:0000130000130000
#00312:0013
#00518:0013000013001300
#00515:1300130000130000
#0051b:0000000000000013
#00512:0000001300000000
#00510:41
#00616:0000001300000000
#00612:0000000000000013
#00716:0013000000000000
#00719:00000033
#00417:0000001300000000
#00212:13000000000000000000001300000000
#0021b:0000001300000000
#00215:00000013000000001300000000000000
#00218:00001300000000000013000000000000
#00213:00000033
#0211b:13
#02115:0013000000000000
#02316:0013000000000000
#02516:00000014
#0251b:23
#02519:00330000
#02517:0033
#02616:0000001400000014
#0261a:14
#02812:00000014000000000000000000000000
#02817:00000014000000000000000000000000
#0281b:0000000000130000
#02818:00000013
#02815:0000000000000013
#0281f:21
#03218:0000001300130000
#03215:0013
#0321b:00000013
#03217:00000000000000000000000000000013
#03515:0000000013130000
#0351b:0000000013130000
#03517:0000000000000024
#03512:0000000000000024
#03510:41
#03715:00130000
#03712:0000001300001300
#03718:0013000000130013
#0371b:13
#03918:0000001300130000
#03915:0013
#0391b:00000013
#03917:00000000000000000000000000000013
#03815:0000001300000000
#03812:0000000000000013
#03818:00000013
#0361a:00000014000000000000000000000000
#03615:00000014000000000000000013000000
#03612:0000000000130000
#03618:0000000000000013
#03418:0000001300130000
#0341b:0013
#03415:00000013
#03412:0000000000000013
#0431b:0013000000230000
#04316:0013000000230000
#04319:00000023
#04314:00000023
#04317:0000000000000023
#04312:0000000000000023
#04416:0000001300000000
#0441b:0000001300000000
#0461b:13000000000000000000001300000000
#04615:00001300000000000013000000000000
#04618:00000013000000001300000000000000
#04612:0000001300000000
#0461a:00000033
#00912:1300001300000000
#00915:00000013000000000000000000000000
#0091a:00000033
#00115:0013130000130000
#00118:00000013001300001300000000000000
#00112:00000000000000130000000000000000
#0011b:00000000000000000000001300000000
#01118:00000000000000001300000000000013
#01115:0000000000130000
#01112:00000000000000000000000000130000
#0111b:00000000000000000000000000130000
#01215:13000000001300230000000013000000
#0121b:0000130000000013
#01218:00130000000023000000001300000000
#01212:00000013000000000000000000000000
#01210:41
#0181b:1313
#01818:0013001300002323
#01812:1313
#01815:00000000130000000000130000230000
#01810:41
#01912:1313
#01915:0013001300001323
#0191b:1313
#01918:00000000130000000000130000230000
#0161b:1300001300000000
#01612:1313000000000000
#01615:00000000130000230000000000000000
#01618:00000013000000002300000000000000
#01712:1300001300000000
#0171b:1313000000000000
#01718:00000000130000230000000000000000
#01715:00000013000000002300000000000000
#01318:00130023000000000000000000001300
#01315:13001300230000000000000000130000
#0131b:00000000002300000000000000000000
#01412:13
#01415:00000013001300001300000000000000
#0141b:00000000000013000023000000000013
#01418:0013130000000000
#01515:1323
#0151b:00130000000000000000000000000000
#01518:00000000130000230000000000000000
#01512:0000000000001300000013000000000000000000331333000000000000000000
#01514:00000033
#0421b:0000002323000000
#04217:0000000000000023
#04216:0000002323000000
#04212:0000000000000023
#04712:2300000000000023
#0471b:0023
#04715:0023002300002300
#04718:0000230000230000
#04015:0000002300230000
#04012:00000023
#04018:0023
#00819:00330000
#00812:00000000000000000000000000000033
#00813:0000000000000033
#00814:00000000000000000000000000330000
#0101a:00330000
#01012:00000000000000000000000000000033
#01013:0000000000000033
#01014:00000000000000000000000000330000
#02252:5300000000000053
#03058:0000005300000000
#0305b:0000000000000063
#03358:00000000000000000000000000000053
#03352:00000000000000000000000000000053
#04357:0000000000000053
#0435b:0053000000000000
#04356:0053000000000000
#04352:0000000000000053
#0425b:0063
#04257:0000000000000053
#04256:0063
#04252:0000000000000053
#00058:0000000000000013
#0005b:00000000000000000000006300000000
#00652:0000000000000053
#00656:0000006300000000
#00756:0063000000000000
#0035b:0000000000000063
#00457:0000002300000000
#04152:0000000000000053
#04155:0000006300000000
#03158:0013000000000000
#03152:00000053
#03156:00000000000000000000000000000063
#00252:00000000000000000000005300000000
#00255:0000000000000013
#0205b:63
#02155:0063000000000000
#02356:0063000000000000
#02556:00000054
#02656:0000005400000054
#0265a:64
#0275a:00240000000000000000000000006400
#02755:0000000000000064
#02852:00000024000000000000000000000000
#02857:00000024000000000000000000000000
#02955:0000000000000063
#0325b:00000063
#03257:00000000000000000000000000000053
#0345b:0013000000000000
#03455:0013000000000000
#03452:0000000000000053
#03855:0000006300000000
#03852:0000000000000053
#0365a:00000024000000000000000000000000
#03655:00000024000000000000000000000000
#03758:0000000000000053
#0395b:00000063
#03957:00000000000000000000000000000053
#03955:0013000000000000
#03557:0000000000000054
#03552:0000000000000054
#04456:0000002300000000
#0445b:0000002300000000
#0465b:00000000000000000000006300000000
#04658:0000000000000013
#00952:5300005300000000
#00955:00000063000000000000000000000000
#01555:0063
#01552:0000000000000000000000000000000000000000002300000000000000000000
#04052:00000053
#0003b0:00000000000000000000001300000000
#0003a0:00000033
#000380:0000000000000023
#002320:00000000000000000000001300000000
#002330:00000033
#002350:0000000000000023
#0033b0:0000000000000013
#004370:0000005300000000
#0043b0:0000000000000023
#006320:1300000000330033
#006340:00000033000000000000000000000000
#006360:0000003300000000
#007360:0033000000000000
#007320:0000000000230000
#0073b1:0000000000130000
#007391:00000033
#007381:0000000000000033
#0083b1:0033000000230000
#008391:00330000
#008381:0000003300000000
#008351:00000013
#008341:00000000000000000000000000330000
#008331:0000000000000033
#008321:00000000000000000000000000000033
#009321:3300003300000000
#009351:00000033000000000000230000000000
#009380:0000000000130000
#0093a0:00000033
#0093b0:0000000000000033
#010380:0033000000230000
#0103a0:00330000
#0103b0:0000003300000000
#010350:00000013
#010340:00000000000000000000000000330000
#010330:0000000000000033
#010320:00000000000000000000000000000033
#011320:33
#011350:00230000
#012350:00000000000000130023000000000000
#0133b0:00000000001300000023000000000000
#013380:00000000000000330000000000000000
#0143b0:00000000000000000013000000000000
#0143a0:0000000000330000
#014390:00000000000000000000003300000000
#014380:00000023
#015350:00000000000000001300000000230000
#015320:0000000000000000000000000000000000000000335333000000000000000000
#015340:00000033
#016380:00001323
#0163b0:0000000000330000
#017350:00001323
#017320:0000000000330000
#0203b0:13
#020370:00230000
#020320:0013
#020350:0000000000230000
#021350:0013000000000000
#021320:0000002300000000
#0213b0:0000000013000023
#021380:00000000000000000000333300000000
#022320:13
#022360:0000002300000000
#022320:0000000000000013
#023360:0033000000000000
#023320:0023
#0233b0:00000000000000000000000000130000
#0233a0:0000000000000033
#023390:00000000000000000000000000000033
#024380:3333000033000000
#024370:00330000000000000033002300000000
#024390:00000033000000330000000000000000
#0243a0:0000333300000000
#0243b0:00000000003300000000000000000000
#0253b0:13
#025390:00330000
#025370:0033
#025360:00000034
#0263a0:3400000000340000
#026360:0000343400000034
#026380:00000034
#0273a0:00540000000000000000000000000000
#027360:00240000
#027350:0000000000000014
#028320:00000054000000000000000000000000
#028350:0024
#0273a1:0000000000000014
#028371:00000054000000000000000000000000
#0283a1:0024
#029351:0000000000000013
#030321:00230000
#030381:0000001300000000
#0303b1:0000000000230000
#0303b1:0000000000000013
#031381:0023000000000000
#031321:00000013
#031361:00000000000000000000000000000033
#032321:00230000
#0323b1:00000013
#032371:00000000000000000000000000000033
#0333b1:00230000
#033381:00000000000000000000000000000013
#0343b1:0023000000000000
#033320:00000000000000000000000000000013
#034350:0023000000000000
#034320:0000000000000013
#035350:00230000
#035370:0000000000000014
#0363a0:00000054000000000000000000000000
#036370:0024
#035321:0000000000000014
#036351:00000054000000000000000000000000
#036321:0024
#037381:0000000000000013
#0383b1:00230000
#038351:0000001300000000
#038321:0000000000230000
#038321:0000000000000013
#039351:0023000000000000
#0393b1:00000013
#039371:00000000000000000000000000000033
#0403b1:00230000
#040321:00000013
#040351:00000000000000000000000000000023
#041351:0000001300000000
#041321:0000000000230000
#041321:0000000000000013
#042361:00230000
#0423b1:0013
#042371:00000000000000000000002300000000
#042360:0013
#042320:00000000000000000000002300000000
#042370:0000000000000013
#0433b0:0033000000000000
#043370:0000002300000000
#042321:0000000000000013
#043361:0033000000000000
#043321:0000002300000000
#043371:0000000000000013
#0443b1:0000005300000000
#044371:0000000000000023
#043320:0000000000000013
#044360:0000005300000000
#044320:0000000000000023
#0463b0:00000000000000000000001300000000
#0463a0:00000033
#046380:0000000000000023
#047320:0000000000000013
#050320:22
