This file was generated by Ched 2.6.4.0.
#TITLE ""
#ARTIST ""
#DESIGNER ""
#DIFFICULTY 0
#PLAYLEVEL
#SONGID ""
#WAVE ""
#WAVEOFFSET 0
#JACKET ""
#REQUEST "ticks_per_beat 480"
#00002: 4
#BPM01: 113
#00008: 01
#TIL00: ""
#HISPEED 00
#MEASUREHS 00
#0111a:00000000140000000000000000140000
#01118:00000000000000000000000000000013
#01112:14000000130000000000000000140000
#01119:0000000014140000
#01113:0000000014140000
#0111b:13
#01116:00140000001400000000000000000000
#01114:00000013000000000000000000000000
#01212:13000000130000000023001313000000
#01215:00130013000023002300000000001300
#01218:00000000130000230000000000000013
#0121b:13000000001300001300000000000000
#01210:41
#02418:00130000000000000000000000000013
#0241b:13001300000000000000001300000000
#02416:00000013000000000000130000000000
#02419:00130000
#02414:00000000001300000000000000000000
#02417:0000001300001300
#02412:00000000000000130013000000130000
#02415:0000000013000013
#0271a:00000014000000001400140000002400
#02712:00000000001400001400140000000000
#02718:120012000000000000120012000000000000000000000000
#02716:001200120000140000001200000000000000140000240000
#01318:00001300002300000023000000130000
#01315:00130023000023000000000000001300
#0131b:13000000130000230000000000000013
#01312:13000000230000230023000000000000
#01412:13130023
#0141b:00001300001300000023000013000000
#01415:00000013000000000000230000000000
#01418:13000000130000001300002300000013
#01612:13132323
#0161b:1300130013230000
#01615:00130013000013000023000000000000
#01618:00001300001300230000000000000000
#01617:00000000000000000000001300000000
#0171b:13131323
#01715:00001300001300230000002300000000
#01718:00130013000013000000230000000013
#01712:13132323
#01716:00000000000000000013000000000000
#02312:00001300000000000000000000130000
#0231b:00130013
#02317:00000000001300001300000000000000
#02318:0000000000000013
#02315:00000000000000000000000000000013
#02316:0000000000130000
#02812:0000130000130013
#02816:00120013
#02819:0012001200000000
#0281c:22
#0281f:21
#02817:00000032003200000000000000000000
#0281b:00320000000000320000000000000000
#02916:1313000000130013
#0291b:0000130000001313
#02912:00000013
#02917:0000002200000000
#0291a:00000000000000000032000000000000
#02919:0032
#02918:00000000000000320000000000000000
#02910:41
#0311b:00001313
#03117:0000001300130000
#03116:0000000000000000000000000000000013000000000000001300001300000000
#03112:00000000000013000000130000000014
#03119:00320000000000000000000000000000
#0311a:32
#03417:0013000000000000000000001300000000000000000000000000000000000000
#03416:0000000013000013
#0341b:0000000013000013
#03414:0000000000130000
#03418:00000013
#03412:0013000000000000000000001300000000000000000000001300000000000000
#03419:0000000000130000
#01812:13000013000000000013000026000000
#01818:00130000001300130000001300002600
#01815:00001300130013001300130000260000
#0181b:13131313
#01810:41
#02017:00000000000000000000131300000000
#0201b:13
#02016:00131300
#02012:23130013
#0201f:11
#03012:0000001300001300
#03016:0000000000000013
#03017:0000002200001300
#0301c:2200000000000022
#03019:00000032000000003200000000000000
#0301a:00003200000000000032000000000000
#0301b:00320000000000000000000000000032
#03018:00000000000000320000000000000000
#04217:0000000000000000000000000000000000000000000000000013000000000000
#04212:0000130023000024
#0421b:00130000000023000000002300000000
#04216:0000000000000000000000002400000024000013000000000000000000000000
#04314:0014
#04318:14
#0431b:0000000000000013000000000000000000000000000000002300000000000000
#04312:00000000002400000000240000002400
#0431a:0000002400000000
#04316:00000024
#04317:0023000000000023
#0001b:00000013000000001313000000000000
#00012:1300001300000000
#00016:00001313000000000013001300000000
#00017:1300001300000000
#0001c:00000012
#00118:00001300000000130000001300000000
#00115:00000013001300001300130000000000
#0011b:00131300
#00112:00000000130000000000001300000000
#0031b:13131313
#00312:1300131300130000
#00318:000000130013000000000000000000000000000000000000
#00317:0000001300130013
#00316:00001313
#00315:001300000000
#04112:0000000000160000000000000000000000000000130000000000000013000000
#0411b:00000013
#04116:00000013
#04117:0000000000130013
#04115:0000000022000016000000000000000000000000000000000000000000000000
#04113:000000000000000000000000000000000000221500000000000000000000000000000000000000000000000000000000
#04119:000000000000000000000000000000000000221500000000000000000000000000000000000000000000000000000000
#04110:41
#02212:0000130000131300
#02217:00001313
#02216:13000013000000000000000000001300
#0221b:1300000000130013
#00212:00000013000000001313000012000000
#0021b:1300001300000000
#00217:00001313000000000013001300000000
#00216:1300001300000000
#0041b:13000000001300001300001300000000
#00412:0013000013001300
#00415:00000013000013000000130000130000
#00418:0000130000001313
#00512:1300130000130000
#0051b:13000013000000001300000000130000
#00518:0013001300130013
#00515:00000000001300001300000013000000
#00510:41
#00819:00000000130000000000000000130000
#00816:0000000000001314
#00814:00000000000000000000000000000013
#00812:2313000013130000
#00815:0000131300000000
#00817:00000013000000000000000000000000
#0081b:23001300001300000000000000000000
#0071b:1313000013130000
#00718:0000131300001313
#00712:00000000001400000000001300000000
#00716:00002400000000000000130000130000
#00714:00000013
#0061b:1313000013130000
#00618:0000131300001313
#00616:24
#00614:00000024000000000000000000002400
#00612:0000002400240000
#00912:1313000013130000
#00915:0000131300001313
#0091b:13000000000000000000001300000000
#00917:00000013000000000000130000130000
#00919:00000013
#01014:00000000130000000000000000130000
#01016:00000013000000000000000000001400
#01019:00000000000000000000000000000013
#01018:0000131300000000
#0101b:1313000013130000
#01017:00000013
#01012:13001300001300000000000000000000
#0151b:13002323
#01512:13002313
#01515:00130000000000230000230000230000
#01518:00001300000000000000002300000000
#01516:00000014141400000000000000000000
#01517:00000000000000000013000000000000
#0191b:13000013000000000013000013000000
#01915:00130000001300130000001300002600
#01918:00001300130013001300130000260000
#01912:13000000130000001300000013000026
#0211b:13130013
#02112:0013000013000000
#02117:0013000013000013
#02116:00000000000000000000131300000000
#0251b:1300130000000013
#02517:0013001300001300
#02512:23231300
#02516:000000000000000000000000000000000000000000000000000000000000000000000000000000000000000000000000000000000000000000000000000000000000000000000000000000000000000000000000000000000000000000000000000000000000000000000000000000000000000000000000000000000000000000000000000000000000000000000000000000000000000000000000000000000000000000000000000000000000000000000000000000000000000000000000000000000000000000000000000000000000000000000000000000000000000000000000000000000000000000000000000000000000000000000000000000000000000000000000000000000000000000000000000000000000000000000000000000000000000000000000000000000000000000000000000000000000000000000000000000000000000000000000000000000000000000000000000000000000000000000000000000000000000000000000000000000000000000000000000000000000000000000000000000000000000000000000000000000000000000000000000000000000000000000000000000000000000000000000000000000000000000000000000000000000000000000000000000000000000000000000000000000000000000000000000000000000000000000000000000000000000000000000000000000000000000000000000000000000000000000000000000000000000000000000000000000000000000000000000000000000000000000000000000000000000000000000000000000000000000000000000000000000000000000000000000000000000000000000000000000000000000000000000000000000000000000000000000000000000000000000000000000000000000000000000000000000000000000000000000000000000000000000000000000000000000000000000000000000000000000013000000000000000000000000000000000000000000000000000000000000000000000000000000000000000000000000000000000000000000000000000000000000000000000000000000000000000000000000000000000000000000000000000000000000000000000000000000000000000000000000000000000000000000000000000000000000000000000000000000000000000000000000000000000000000000000000000000000000000000000000000000000000000000000000000000000000000000000000000000000000000000000000000000000000000000000000000000000000000000000000000000000000000000000000000000000000000000000000000000000000000000000000000000000000000000000000000000000000000000000000000000000000000000000000000000000000000000000000000000000000000000000000000000000000000000000000000000000000000000000000000000000000000000000000000000000000000000000000000000000000000000000000000000000000000000000000000000000000000000000000000000000000000000000000000000000000000000000000000000000000000000000000000000000000000000000000000000000000000000000000130000000000000000000000000000000000000000000000000000000000000000000000000000000000000000000000000000000000000000000000000000000000000000000000000000000000000000000000000000000000000000000000000000000000000000000000000000000000000000000000000000000000000000000000000000000000000000000000000000000000000000000000000000000000000000000000000000000000000000000000000000000000000000000000000000000000000000000000000000000000000000000000000000000000000000000000000000000000000000000000000000000000000000000000000000000000000000000000000000000000000000000000000000000000000000000000000000000000000000000000000000000000000000000000000000000000000000000000000000000000000000000000000000000000000000000000000000000000000000000000000000000000000000000000000000000000000000000000000000000000000000000000000000000000000000000000000000000000000000000000000000000000000000000000000000000000000000000000000000000000000000000000000000000000000000000000000000000000000000000000000000000000000000000000000000000000000000000000000000000000000000000000000000000000000000000000000000000000000000000000000000000000000000000000000000000000000000000000000000000000000000000000000000000000000000000000000000000000000000000000000000000000000000000000000000000000000000000000000000000000000000000000000000000000000000000000000000000000000000000000000000000000000000000000000000000000000000000000000000000000000000000000000000000000000000000000000000000000000000000000
#02616:0013002300000000
#02612:23001323
#03213:00000000000013002313000000000000
#0321a:00000000000023130000130000000014
#0321b:00130000
#03218:0000001400000000000000000000000000000000000000000000000000000000
#03219:0000000000000000000000000015000000000000000000000000000000000000
#03212:0000000000000000000000000000000000150000000000001300000000000000
#03217:0000000000000000000000000000000000000000000000001300001300000000
#03316:00000000000000000000000000000013
#0331b:00000000000000002300000023000013
#03312:00132323
#03314:0000001400000000000000000000000000000000000000000000000000000000
#03315:0000002600260000
#03512:1300130014000024
#0351b:1300131300001300
#03518:0013000000000000
#03515:00000013000000000000003300000000
#03516:0000000000000000000013000000000000000000140000330000000024000000
#03517:00000000000000130000000000000000
#03514:0000000000000000000000000000000000000000003300000000000000000000
#03510:41
#0361b:0000130000130013
#03617:00000032003200000000000013000000
#03615:0012001200000000
#03618:00120000
#03612:22
#03613:00320000000000320000000000000000
#03717:1313002200130013
#03712:0000130000001313
#0371b:00000013
#03714:00000000000000000032000000000000
#03715:0032
#03716:00000000000000320000000000000000
#03912:00000000000000001300000013000013
#03916:0000001300130000
#03917:00001313
#0391b:00000000000013000000130000000013
#03915:00320000000000000000000000000000
#03914:32
#0381b:0000001300001300
#03817:0000002200000013
#03816:00000000000000320000000013000000
#03812:2200000000000022
#03815:00000032000000003200000000000000
#03814:00003200000000000032000000000000
#03813:00320000000000000000000000000032
#04515:00001300000000130000001300000000
#04518:00000013001300001300130000000000
#04512:00131300
#0451b:00000000130000000000001300000000
#0471b:1300231300130000
#04712:23131313
#04715:000000230013000000000000000000000000000000000000
#04718:001300000000
#04716:0000002300230023
#04717:00002323
#0461b:00000013000000001313000000000000
#04612:1300001300000000
#04616:00001313000000000013001300000000
#04617:1300001300000000
#0461c:00000012
#04417:00000012
#04416:00001300000000001300001300000000
#04412:1300001300000000
#04414:00000013000000000013000000000000
#0441b:0000000000000000000000000000001300000000000000000000000000000000
#0401a:0000000000000000000000001400000000000000140000000000001400000000
#04012:00001414
#04016:0000000000000000000000002400000024000000240000002400001400000000
#04812:25
#02056:00236300
#0205b:63
#02057:00000000000000000000005300000000
#02052:00130013
#02956:0000000000000063
#02957:0000002200000000
#03052:0000005300000000
#03056:0000000000000063
#0305c:2200000000000022
#03057:0000002200000000
#04257:0000000000000000000000000000000000000000000000000023000000000000
#0425b:00230000000000000000006300000000
#04252:0000000053000054
#04256:0000000000000000000000000000000000000023000000000000000000000000
#04354:0024
#0435a:0000006400000000
#04357:0053000000000053
#04358:24
#0435b:0000000000000023000000000000000000000000000000000000000000000000
#00052:0000005300000013
#00057:5300000000000012
#00056:00000000000000000000006300000000
#0005c:00000062
#04157:0000000000000053
#04155:0000000062000066000000000000000000000000000000000000000000000000
#04152:0000000000260000000000000000000000000000000000000000000000000000
#04153:000000000000000000000000000000000000522500000000000000000000000000000000000000000000000000000000
#04159:000000000000000000000000000000000000522500000000000000000000000000000000000000000000000000000000
#03152:00001300000000000000000000000054
#0315b:00000063
#03156:0000000000000000000000000000000000000000000000000000002300000000
#00256:63
#0025b:0000006300000013
#00257:00000000000000000000005300001200
#00252:00000052
#02152:0053000000000000
#0215b:00130013
#02157:0053
#02156:00000000000000000000006300000000
#02252:00130013
#0225b:6300000000000063
#02256:00000023000000000000000000000000
#0235b:00130013
#02352:0053000000000000
#02357:00000000002300000000000000000000
#02452:00000000000000000053000000000000
#02456:0000000000230000
#0245b:00000000000000000000006300000000
#02457:00000023
#0275a:0000000000640044
#02756:0000000000002464
#02852:00230000
#02856:00220000
#02859:0052005200000000
#0285c:22
#00752:00000000002400000000002300000000
#00756:00006400000000000000630000230000
#00754:00000063
#00859:00630000
#0085b:00006300002300000000000000000000
#00857:00000023000000000000000000000000
#01056:00000023000000000000000000000000
#01052:00005300002300000000000000000000
#01054:00530000
#0095b:63000000000000000000002300000000
#00957:00000053000000000000530000230000
#00959:00000053
#02552:00535300
#0255b:6300630000000023
#02557:0023002300005300
#02556:000000000000000000000000000000000000000000000000000000000000000000000000000000000000000000000000000000000000000000000000000000000000000000000000000000000000000000000000000000000000000000000000000000000000000000000000000000000000000000000000000000000000000000000000000000000000000000000000000000000000000000000000000000000000000000000000000000000000000000000000000000000000000000000000000000000000000000000000000000000000000000000000000000000000000000000000000000000000000000000000000000000000000000000000000000000000000000000000000000000000000000000000000000000000000000000000000000000000000000000000000000000000000000000000000000000000000000000000000000000000000000000000000000000000000000000000000000000000000000000000000000000000000000000000000000000000000000000000000000000000000000000000000000000000000000000000000000000000000000000000000000000000000000000000000000000000000000000000000000000000000000000000000000000000000000000000000000000000000000000000000000000000000000000000000000000000000000000000000000000000000000000000000000000000000000000000000000000000000000000000000000000000000000000000000000000000000000000000000000000000000000000000000000000000000000000000000000000000000000000000000000000000000000000000000000000000000000000000000000000000000000000000000000000000000000000000000000000000000000000000000000000000000000000000000000000000000000000000000000000000000000000000000000000000000000000000000000000000000000000023000000000000000000000000000000000000000000000000000000000000000000000000000000000000000000000000000000000000000000000000000000000000000000000000000000000000000000000000000000000000000000000000000000000000000000000000000000000000000000000000000000000000000000000000000000000000000000000000000000000000000000000000000000000000000000000000000000000000000000000000000000000000000000000000000000000000000000000000000000000000000000000000000000000000000000000000000000000000000000000000000000000000000000000000000000000000000000000000000000000000000000000000000000000000000000000000000000000000000000000000000000000000000000000000000000000000000000000000000000000000000000000000000000000000000000000000000000000000000000000000000000000000000000000000000000000000000000000000000000000000000000000000000000000000000000000000000000000000000000000000000000000000000000000000000000000000000000000000000000000000000000000000000000000000000000000000000000000000000000000000230000000000000000000000000000000000000000000000000000000000000000000000000000000000000000000000000000000000000000000000000000000000000000000000000000000000000000000000000000000000000000000000000000000000000000000000000000000000000000000000000000000000000000000000000000000000000000000000000000000000000000000000000000000000000000000000000000000000000000000000000000000000000000000000000000000000000000000000000000000000000000000000000000000000000000000000000000000000000000000000000000000000000000000000000000000000000000000000000000000000000000000000000000000000000000000000000000000000000000000000000000000000000000000000000000000000000000000000000000000000000000000000000000000000000000000000000000000000000000000000000000000000000000000000000000000000000000000000000000000000000000000000000000000000000000000000000000000000000000000000000000000000000000000000000000000000000000000000000000000000000000000000000000000000000000000000000000000000000000000000000000000000000000000000000000000000000000000000000000000000000000000000000000000000000000000000000000000000000000000000000000000000000000000000000000000000000000000000000000000000000000000000000000000000000000000000000000000000000000000000000000000000000000000000000000000000000000000000000000000000000000000000000000000000000000000000000000000000000000000000000000000000000000000000000000000000000000000000000000000000000000000000000000000000000000000000000000000000000000000000
#02652:5323
#02656:0023006300000000
#0165b:0000000000630000
#01657:00000000000000000000002300000000
#0155b:0063
#01557:00000000000000000023000000000000
#01756:00000000000000000023000000000000
#01752:0053
#03258:0000002400000000000000000000000000000000000000000000000000000000
#03259:0000000000000000000000000025000000000000000000000000000000000000
#0325a:00000000000063630000000000000064
#03252:0000000000000000000000000000000000250000000000005300000000000000
#03253:00000000000000005353000000000000
#03257:0000000000000000000000000000000000000000000000000000002300000000
#0335b:00000000000000000000000043000063
#03352:0033
#03356:00000000000000000000000000000063
#03354:0000002400000000000000000000000000000000000000000000000000000000
#03452:0023000000000000000000000000000000000000000000000000000000000000
#03457:0023000000000000000000000000000000000000000000000000000000000000
#03456:0043000000000000
#0345b:0043000000000000
#03757:0000002200000053
#0385b:0000006300000000
#03857:0000002200000053
#03852:2200000000000022
#0365b:00230000
#03655:0062006200000000
#03658:00220000
#03652:22
#03556:00000000002300000000000000005400
#03552:0000530000000034
#03557:00000000000000230000000000000000
#0355b:0000006300000000
#0395b:00001300000000000000000000000063
#03957:00000053
#03952:00000000000000000000000000000053
#04657:5300000000000012
#04652:0000005300000013
#04656:00000000000000000000006300000000
#0465c:00000062
#04457:00000062
#04452:0000000000000012
#0445b:0000000000000000000000000000002300000000000000000000000000000000
#04056:0000000000000000000000000000000000000000000000005400002400003400
#04052:00000000000000000000000054000034
#0405a:0000000000000000000000000000000000000000000000000000002400000000
#000370:13
#0003b0:0023000000000000
#000320:0000001300000000
#000360:0023
#000360:00000000000000000000001300000000
#000320:0000000000000023
#0003c1:00000012
#000371:0000000000000022
#002361:13
#002321:0023000000000000
#0023b1:0000001300000000
#002371:0023
#002371:00000000000000000000001300000000
#0023b1:0000000000000023
#002320:00000012
#002370:0000000000000022
#003320:0000000000000013
#003330:0000000000000000000000000000000000000000000000000000000000330000
#003340:00000000000000000000000000000033
#003350:0000000000000000000000000000000000000000000000000000000000000033
#004360:23
#007360:0014000024000000
#007320:00000000005400000000000000000000
#007360:00000000000000000000130000530000
#007320:00000000000000000000005300002300
#007340:00000033
#0083b0:00001300005300000000000000000000
#008370:00000053000000000000000000000000
#008390:00330000
#008380:0000002300000000
#008370:0000000000130000
#0083b0:00000023
#0093b0:1300002300000000
#009370:00000033000000000000000000000000
#009370:00000000000000000000130000530000
#0093b0:00000000000000000000005300002300
#009390:00000033
#010320:00001300005300000000000000000000
#010360:00000053000000000000000000000000
#010340:00330000
#010350:0000002300000000
#010360:0000000000130000
#010320:00000023
#012370:00000013
#0123b0:0000000000000023
#014360:0000001300000000
#014320:0023
#0153b0:0000000013230000
#015370:00000000000000000053000000000000
#0163b0:0000000000132300
#016370:00000000000000000000005300000000
#017320:0000000013230000
#017360:00000000000000000053000000000000
#0203b0:1323
#020360:00530000
#020361:0013
#020321:0000000000230000
#020371:00000000000000000000001300000000
#0203b1:0000000000000023
#020360:0000000000000013
#021360:23
#021320:0013000000000000
#021360:00230000
#021370:0013
#0213b0:0000000000230000
#021360:00000000000000000000001300000000
#021320:0000000000000023
#0223b0:1300002300000000
#022360:00000053000000000000000000000000
#022361:0000001300000000
#022321:0023
#0223b1:0000000000000013
#023371:0023000000000000
#023320:0013000023000000
#023370:00000000005300000000000000000000
#024320:00000000000000000013002300000000
#024360:0000000000530000
#0243b1:00000000000000000000001300230000
#024371:00000053
#0253b1:13332300
#025371:0053005300000000
#025320:00133323
#025360:000000000000000000000000000000000000000000000000000000000000000000000000000000000000000000000000000000000000000000000000000000000000000000000000000000000000000000000000000000000000000000000000000000000000000000000000000000000000000000000000000000000000000000000000000000000000000000000000000000000000000000000000000000000000000000000000000000000000000000000000000000000000000000000000000000000000000000000000000000000000000000000000000000000000000000000000000000000000000000000000000000000000000000000000000000000000000000000000000000000000000000000000000000000000000000000000000000000000000000000000000000000000000000000000000000000000000000000000000000000000000000000000000000000000000000000000000000000000000000000000000000000000000000000000000000000000000000000000000000000000000000000000000000000000000000000000000000000000000000000000000000000000000000000000000000000000000000000000000000000000000000000000000000000000000000000000000000000000000000000000000000000000000000000000000000000000000000000000000000000000000000000000000000000000000000000000000000000000000000000000000000000000000000000000000000000000000000000000000000000000000000000000000000000000000000000000000000000000000000000000000000000000000000000000000000000000000000000000000000000000000000000000000000000000000000000000000000000000000000000000000000000000000000000000000000000000000000000000000000000000000000000000000000000000000000000000000000000000000000000053000000000000000000000000000000000000000000000000000000000000000000000000000000000000000000000000000000000000000000000000000000000000000000000000000000000000000000000000000000000000000000000000000000000000000000000000000000000000000000000000000000000000000000000000000000000000000000000000000000000000000000000000000000000000000000000000000000000000000000000000000000000000000000000000000000000000000000000000000000000000000000000000000000000000000000000000000000000000000000000000000000000000000000000000000000000000000000000000000000000000000000000000000000000000000000000000000000000000000000000000000000000000000000000000000000000000000000000000000000000000000000000000000000000000000000000000000000000000000000000000000000000000000000000000000000000000000000000000000000000000000000000000000000000000000000000000000000000000000000000000000000000000000000000000000000000000000000000000000000000000000000000000000000000000000000000000000000000000000000000000530000000000000000000000000000000000000000000000000000000000000000000000000000000000000000000000000000000000000000000000000000000000000000000000000000000000000000000000000000000000000000000000000000000000000000000000000000000000000000000000000000000000000000000000000000000000000000000000000000000000000000000000000000000000000000000000000000000000000000000000000000000000000000000000000000000000000000000000000000000000000000000000000000000000000000000000000000000000000000000000000000000000000000000000000000000000000000000000000000000000000000000000000000000000000000000000000000000000000000000000000000000000000000000000000000000000000000000000000000000000000000000000000000000000000000000000000000000000000000000000000000000000000000000000000000000000000000000000000000000000000000000000000000000000000000000000000000000000000000000000000000000000000000000000000000000000000000000000000000000000000000000000000000000000000000000000000000000000000000000000000000000000000000000000000000000000000000000000000000000000000000000000000000000000000000000000000000000000000000000000000000000000000000000000000000000000000000000000000000000000000000000000000000000000000000000000000000000000000000000000000000000000000000000000000000000000000000000000000000000000000000000000000000000000000000000000000000000000000000000000000000000000000000000000000000000000000000000000000000000000000000000000000000000000000000000000000000000000000000000000
#025371:00000013
#0253b1:0000000000000053
#026371:23
#026320:13230000
#026360:0053000000000000
#026371:00130000
#0263b1:0000002300000000
#026360:0000001300230000
#026320:0053
#0263b1:0000000000130023
#026361:00000033
#026320:00000013
#026370:0000000000000033
#027320:23
#0273a0:0000000000140024
#027360:00000054
#027361:0000000000000014
#028321:00530000
#028361:0024
#0283c0:1222
#0283b0:00320000000000320000000000000000
#028390:0032003200000000
#028370:00000032003200000000000000000000
#028360:00320000
#028360:0000000000130033
#0283b0:00000033
#0293b0:23
#029320:0013002300000000
#029370:00330000
#029371:0000001200000000
#029381:00000000000000320000000000000000
#029391:0032
#0293a1:00000000000000000032000000000000
#0293c1:0000000000220000
#029361:0000000000000013
#030321:00230000
#0303c0:12
#0303b0:00320000000000000000000000000000
#0303a0:0032000000000000
#030390:00000032000000000000000000000000
#030370:00220000
#030320:0000001300000000
#030360:0000000000230000
#030371:0000001200000000
#030381:00000000000000320000000000000000
#030391:0032
#0303a1:00000000000000000032000000000000
#0303c1:0000000000220000
#030361:0000000000000013
#031321:0023000000000000
#0303c0:0000000000000012
#0303b0:00000000000000000000000000000032
#0313a0:32
#031390:00320000000000000000000000000000
#031370:0022000000000000
#0313b0:00000000000000000000000013000023
#031360:0000000000000000000000000000000000000000000000000000005300000000
#031321:00000000000000000000000000000014
#032381:0000005400000000000000000000000000000000000000000000000000000000
#032321:00240000
#0323a1:00000000000013530000000000000000
#032391:0000000000000000000000000055000000000000000000000000000000000000
#0323b1:0021
#032330:00000000000000001353000000000000
#032320:0000000000000000000000000000000000550000000000000000000000000000
#032340:0000000000210000
#032320:00000000000000000000000013000023
#032370:0000000000000000000000000000000000000000000000000000005300000000
#0323a1:00000000000000000000000000000014
#033341:0000005400000000000000000000000000000000000000000000000000000000
#0333a1:00240000
#033361:00000000000000000000000000000013
#034321:0053000000000000000000000000000000000000000000000000000000000000
#034361:0023000000000000
#0333b0:00000000000000000000000000000013
#034370:0053000000000000000000000000000000000000000000000000000000000000
#0343b0:0023000000000000
#035320:0000132300000000
#035360:00000000005300000000000000000000
#0353b1:0000001323000000
#035371:00000000000000530000000000000000
#035321:0000000000130000
#035341:0000000000000000000000000000000000000000003300000000000000000000
#035351:00000000000000000000003300000000
#035361:0000000000000000000000000000000000000000000000330000000000000000
#035371:00000023
#035361:0000000000000014
#0363b1:00530000
#036361:0024
#036320:1222
#036330:00320000000000320000000000000000
#036350:0032003200000000
#036370:00000032003200000000000000000000
#036380:00320000
#036370:0000000000130033
#036320:00000033
#037320:23
#0373b0:0013002300000000
#037360:00330000
#037371:0000001200000000
#037361:00000000000000320000000000000000
#037351:0032
#037341:00000000000000000032000000000000
#037321:0000000000220000
#037371:0000000000000013
#0383b1:00230000
#038320:12
#038330:00320000000000000000000000000000
#038340:0032000000000000
#038350:00000032000000000000000000000000
#038370:00220000
#0383b0:0000001300000000
#038370:0000000000230000
#038371:0000001200000000
#038361:00000000000000320000000000000000
#038351:0032
#038341:00000000000000000032000000000000
#038321:0000000000220000
#038371:0000000000000013
#0393b1:0023000000000000
#038320:0000000000000012
#038330:00000000000000000000000000000032
#039340:32
#039350:00320000000000000000000000000000
#039370:0022000000000000
#039370:00000013
#0393b0:00000000000000000000000000000033
#040350:00530053000000000000000000000000
#040380:0053230000000000
#039321:00000000000000000000000000000013
#040381:00530053000000000000000000000000
#040351:0053230000000000
#040361:00000000000000000000000014000024
#0403a1:0000000000000000000000000000000000000000000000000000005400000000
#040320:00000000000000000000000014000024
#040360:0000000000000000000000000000000000000000000000000000005400000000
#041350:000000000000000000000000000000000000000000000000000000000000000000000000000000000000000000000000000000000000000000000000000000000000000000000000000000000000000000000000000000000000000000000000000000000000000000000000000000000000000000000000000000000000000000000000000000000000000000000000000000000000000000000000000000000000000000000000000000000000000000000000000000000000000000000000000000000000000000000000000000000000000000000000000000000000000000000000000000000000000000000000120000000000000000000000000000000000000000000000000000000000000000000000000000000000000000000000000000000000000000000000000000000000000000000000000000000000000000000000000000000000000000000000000000000000000000000000000000000000000000000000520000000000000000000000000000000000000000000000000000000000000000000000000000000000000000000000000000000000000000000052560000000000000000000000000000000000000000000000000000000000000000000000000000000000000000000000000000000000000000000000220000000000000000000000000000000000000000000000000000000000000000000000000000000000000000000000000000000000000000000000000000000000000000000000000000000000000000000000000000000000000000000000000000000000000000000000000000000000000000000000000000000000000000000000000000000000000000000000000000000000000000000000000000000000000000000000000000000000000000000000000000000000000000000000000000000000000000000000000000000000000000000000000000000000000000000000000000000000000000000000000000000000000000000000000000000000000000000000000000000000000000000000000000000000000000000000000000000000000000000000000000000000000000000000000000000000000000000000000000000000000000000000000000000000000000000000000000000000000000000000000000000000000000000000000000000000000000000000000000000000000000000000000000000000000000000000000000000000000000000000000000000000000000000000000000000000000000000000000000000000000000000000000000000000000000000000000000000000000000000000000000000000000000000000000000000000000000000000000000000000000000000000000000000000000000000000000000000000000000000000000000000000000000000000000000000000000000000000000000000000000000000000000000000000000000000000000000000000000000000000000000000000000000000000000000000000000000000000000000000000000000000000000000000000000000000000000000000000000000000000000000000000000000000000000000000000000000000000000000000000000000000000000000000000000000000000000000000000000000000000000000000000000000000000000000000000000000000000000000000000000000000000000000000000000000000000000000000000000000000000000000000000000000000000000000000000000000000000000000000000000000000000000000000000000000000000000000000000000000000000000000000000000000000000000000000000000000000000000000000000000000000000000000000000000000000000000000000000000000000000000000000000000000000000000000000000000000000000000000000000000000000000000000000000000000000000000000000000000000000000000000000000000000000000000000000000000000000000000000000000000000000000000000000000000000000000000000000000000000000000000000000000000000000000000000000000000000000000000000000000000000000000000000000000000000000000000000000000000000000000000000000000000000000000000000000000000000000000000000000000000000000000000000000000000000000000000000000000000000000000000000000000000000000000000000000000000000000000000000000000000000000000000000000000000000000000000000000000000000000000000000000000000000000000000000000000000000000000000000000000000000000000000000000000000000000000000000000000000000000000000000000000000000000000000000000000000000000000000000000000000000000000000000000000000000000000000000000000000000000000000000000000000000000000000000000000000000000000000000000000000000000000000000000000000000000000000000000000000000000000000000000000000000000000000000000000000000000000000000000000000000000000000000000000000000000000000000000000000000000000
#041320:0000000000560000000000000000000000000000000000000000000000000000
#041390:000000000000000000000000000000000000125500000000000000000000000000000000000000000000000000000000
#0413c0:000000000000000000000000000000000000000000000000000000000000000000000000000000000000000000000000000000000000000000000000000000000000000000000000000000000000000000000000000000000000000000000000000000000000000000000000000000000000000000000000000000000000000000000000000000000000000000000000000000000000000000000000000000000000000000000000000000000000000000000000000000000000000000000000000000000000000000000000000000000000000000000000000000000000000000000000000000000000000000000000000000000000000000000000000000000000000000000000000000000000000000000000000000000000000000000000000000000000000000000000000000000000000000000000000000000000000000000000000000000000000000000000000000000000000000000000000000000000000000000000000000000000000000000000000000000000000000000000000000000000000000000000000000000000000000000000000000000000000000000000000000000000000000000000000000000000000000000000000000000000000000000000000000000000000000000000000000000000000000000000000000000000000000000000000000000000000000000000000000000000000000000000000000000000000000000000000000000000000000000000000000000000000000000000000000000000000000000000000000000000000000000000000000000000000000000000000000000000000000000000000000000000000000000000000000000000000000000000000000000000000000000000000000000000000000000000000000000000000000000000000000000000000000000000000000000000000000000000000000000000000000000000000000000000000000000000000000000000000000000000000000000000000000000000000000000000000000000000000000000000000000000000000000000000000000000000000000000000000000000000000000000000000000000000000000000000000052000000000000000000000000000000000000000000000000000000000000000000000000000000000000000000000000000000000000000000000000000000000000000000000000000000000000000000000000000000000000000000000000000000000000000000000000000000000000000000005200000000000000000000000000000000000000000000000000000000000000000000000000000000000000000000000000000000000000000000000000000000000000000000000000000000000000000000000000000000000000000000000000000000000000000000000000000000000000000000000000000000000000000000000000000000000000000000000000000000000000000000000000000000000000000000000000000000000000000000000000000000000000000000000000000000000000000000000000000000000000000000000000000000000000000000000000000000000000000000000000000000000000000000000000000000000000000000000000000000000000000000000000000000000000000000000000000000000000000000000000000000000000000000000000000000000000000000000000000000000000000000000000000000000000000000000000000000000000000000000000000000000000000000000000000000000000000000000000000000000000000000000000000000000000000000000000000000000000000000000000000000000000000000000000000000000000000000000000000000000000000000000000000000000000000000000000000000000000000000000000000000000000000000000000000000000000000000000000000000000000000000000000000000000000000000000000000000000000000000000000000000000000000000000000000000000000000000000000000000000000000000000000000000000000000000000000000000000000000000000000000000000000000000000000000000000000000000000000000000000000000000000000000000000000000000000000000000000000000000000000000000000000000000000000000000000000000000000000000000000000000000000000000000000000000000000000000000000000000000000000000000000000000000000000000000000000000000000000000000000000000000000000000000000000000000000000000000000000000000000000000000000000000000000000000000000000000000000000000000000000000000000000000000000000000000000000000000000000000000000000000000000000000000000000000000000000000000000000000000000000000000000000000000000000000000000000000000000000000000000000000000000000000000000000000000000000000000000000000000000000000000000000000000000000000000000000000000000000000000000000000000000000000000000000000000000000000000000000000000000000000000000000000000
#0413a0:000000000000000000000000000000000000000000000054240000000000000000000000000000000000000000000000
#041331:000000000000000000000000000000000000125500000000000000000000000000000000000000000000000000000000
#041361:000000000000000000000000000000000000000000000000000000000000000000000000000000000000000000000000000000000000000000000000000000000000000000000000000000000000000000000000000000000000000000000000000000000000000000000000000000000000000000000000000000000000000000000000000000000000000000000000000000000000000000000000000000000000000000000000000000000000000000000000000000000000000000000000000000000000000000000000000000000000000000000000000000000000000000000000000000000000000000000000000000000000000000000000000000000000000000000000000000000000000000000000000000000000000000000000000000000000000000000000000000000000000000000000000000000000000000000000000000000000000000000000000000000000000000000000000000000000000000000000000000000000000000000000000000000000000000000000000000000000000000000000000000000000000000000000000000000000000000000000000000000000000000000000000000000000000000000000000000000000000000000000000000000000000000000000000000000000000000000000000000000000000000000000000000000000000000000000000000000000000000000000000000000000000000000000000000000000000000000000000000000000000000000000000000000000000000000000000000000000000000000000000000000000000000000000000000000000000000000000000000000000000000000000000000000000000000000000000000000000000000000000000000000000000000000000000000000000000000000000000000000000000000000000000000000000000000000000000000000000000000000000000000000000000000000000000000000000000000000000000000000000000000000000000000000000000000000000000000000000000000000000000000000000000000000000000000000000000000000000000000000000000000000000000000000000000052000000000000000000000000000000000000000000000000000000000000000000000000000000000000000000000000000000000000000000000000000000000000000000000000000000000000000000000000000000000000000000000000000000000000000000000000000000000000000000005254000000000000000000000000000000000000000000000000000000000000000000000000000000240000000000000000000000000000000000000000000000000000000000000000000000000000000000000000000000000000000000000000000000000000000000000000000000000000000000000000000000000000000000000000000000000000000000000000000000000000000000000000000000000000000000000000000000000000000000000000000000000000000000000000000000000000000000000000000000000000000000000000000000000000000000000000000000000000000000000000000000000000000000000000000000000000000000000000000000000000000000000000000000000000000000000000000000000000000000000000000000000000000000000000000000000000000000000000000000000000000000000000000000000000000000000000000000000000000000000000000000000000000000000000000000000000000000000000000000000000000000000000000000000000000000000000000000000000000000000000000000000000000000000000000000000000000000000000000000000000000000000000000000000000000000000000000000000000000000000000000000000000000000000000000000000000000000000000000000000000000000000000000000000000000000000000000000000000000000000000000000000000000000000000000000000000000000000000000000000000000000000000000000000000000000000000000000000000000000000000000000000000000000000000000000000000000000000000000000000000000000000000000000000000000000000000000000000000000000000000000000000000000000000000000000000000000000000000000000000000000000000000000000000000000000000000000000000000000000000000000000000000000000000000000000000000000000000000000000000000000000000000000000000000000000000000000000000000000000000000000000000000000000000000000000000000000000000000000000000000000000000000000000000000000000000000000000000000000000000000000000000000000000000000000000000000000000000000000000000000000000000000000000000000000000000000000000000000000000000000000000000000000000000000000000000000000000000000000000000000000000000000000000000000000000000000000000000000000000000000000000000000000000000000000000000000000000000000000000000000000000000000000000
#041371:0000000000000013
#0423b1:00530000000000000000000000000000
#042371:00230000
#042321:00000000000000001300002300000000
#042361:0000000000000000000000000000000000000053000000000000000000000000
#0423b0:00000000000000000000001300002300
#042370:0000000000000000000000000000000000000000000000000053000000000000
#042321:0000000000000014
#043381:54
#043321:0024000000000000
#043370:00001300002300000000000000000000
#0433b0:0000000000000053000000000000000000000000000000000000000000000000
#0433a0:0000001400240000
#043340:0054
#043370:0000000000000013
#0443b0:0000000000000000000000000000005300000000000000000000000000000000
#044370:0000000000000023
#044371:00000012
#044321:0000000000000022
#046371:13
#0463b1:0023000000000000
#046321:0000001300000000
#046361:0023
#046361:00000000000000000000001300000000
#046321:0000000000000023
#0463c0:00000012
#046370:0000000000000022
#0473b0:0000000000000013
#0473a0:0000000000000000000000000000000000000000000000000000000000330000
#047390:00000000000000000000000000000033
#047380:0000000000000000000000000000000000000000000000000000000000000033
#048370:23
#048321:15
#050321:22
