This file was generated by Ched 2.6.4.0.
#TITLE ""
#ARTIST ""
#DESIGNER ""
#DIFFICULTY 0
#PLAYLEVEL
#SONGID ""
#WAVE ""
#WAVEOFFSET 0
#JACKET ""
#REQUEST "ticks_per_beat 480"
#00002: 4
#BPM01: 113
#00008: 01
#TIL00: ""
#HISPEED 00
#MEASUREHS 00
#0001a:1414
#00014:00140014
#00118:1414
#00112:00140014
#0021a:1414
#00214:00140014
#00318:1616
#00312:00160016
#00418:16
#00415:0000001600000000
#00514:1414
#00518:00140014
#00510:41
#00812:14
#00818:00140000
#00814:0014
#0081a:00000014
#0101a:14
#01014:00140000
#01018:0014
#01012:00000014
#01112:00000014
#01117:00140000
#0111a:14
#01218:14
#01214:00140000
#0121a:0014
#01212:00000014
#01210:41
#01318:14
#01314:00140000
#0131a:0014
#01312:00000014
#0141a:14
#01414:00140000
#01512:14
#01518:00140000
#01618:14
#01614:00140000
#01714:14
#01718:00140000
#0181a:14
#01812:00140000
#01818:0014
#01814:00000014
#01810:41
#0191a:14
#01912:00140000
#01918:0014
#01914:00000014
#02612:1600000000160000
#02615:0000001600000036
#02614:00000036
#0271a:0000000024000014
#02712:0000000024000014
#0281a:00000014
#0281f:21
#02912:14000014
#02916:00140000
#0291a:0014
#02910:41
#03114:0014
#03118:00000014
#03218:0014
#03214:14000014
#03318:14000024
#03314:0024
#03016:0014
#0301a:14
#03512:0000000024000014
#0351a:0000000024000014
#03518:14
#03514:00140000
#03510:41
#03612:00000014
#0371a:14000014
#03716:00140000
#03712:0014
#03918:0014
#03914:00000014
#04014:0014
#04018:14000014
#03816:0014
#03812:14
#03418:0014
#03414:00000014
#03412:24
#0341a:24
#04114:14
#04118:0014
#0411a:00000034
#04110:41
#04412:1414
#04418:00140014
#04514:1414
#0451a:00140014
#04612:1414
#04618:00140014
#00615:00140000
#00612:14
#0071a:14
#00716:0000001400000000
#00912:14
#00916:0000001400000000
#02314:14
#02218:14
#02112:14
#0201a:14
#0201f:11
#02418:14
#0241a:00140000
#04812:26
#04214:0024
#04218:00000024
#04314:24
#0431a:00240024
#04312:0024
#04712:2626
#04718:00260026
#02513:00343434
#02655:0000006600000000
#02652:5600000000560000
#0275a:0000000000000064
#02752:0000000000000054
#0345a:14
#03452:14
#03254:64
#03358:54
#0315a:14
#03056:0054
#0305a:64
#03552:0000000000000054
#0355a:0000000000000064
#04058:54
#03856:0064
#03852:54
#03952:14
#04154:64
#04158:0054
#00458:66
#00455:0000002600000000
#0075a:64
#00756:0000002400000000
#00652:54
#00655:00240000
#00952:54
#00956:0000002400000000
#01157:00240000
#0115a:64
#02354:64
#02258:54
#02152:54
#0205a:64
#02458:54
#0245a:00240000
#004380:16000026
#004350:0000005600000000
#006320:1424
#006350:00540000
#0073a0:14000024
#007360:0000005400000000
#009320:14000024
#009360:0000005400000000
#0113a0:1424
#011370:00540000
#0143a0:0014
#014380:00000024
#015320:0014
#015340:00000024
#016380:0014
#0163a0:00000024
#017340:0014
#017320:00000024
#0203a0:14
#020380:0024
#021320:14
#021340:0024
#022380:14
#0223a0:0024
#023340:14
#023320:0024
#024380:1424
#0243a0:00540000
#025330:14343434
#026320:3600000000360000
#026350:0000363600000036
#026340:00000036
#027350:00260000
#0273a0:0000000014340034
#028380:0024
#027321:0000000014340034
#028341:0024
#0303a1:14
#030361:0034
#0313a1:24
#032341:14
#032321:00240000
#033381:14
#0333a1:00240000
#035321:0000000014340034
#036341:0024
#0353a0:0000000014340034
#036380:0024
#038320:14
#038360:0034
#039320:24
#040380:14
#0403a0:00240000
#041340:14
#041320:00240000
#041380:0014
#0413a0:00000034
#0423a0:24
#048320:16
#050320:24
