This file was generated by Ched 2.7.0.0.
#TITLE ""
#ARTIST ""
#DESIGNER ""
#DIFFICULTY 0
#PLAYLEVEL
#SONGID ""
#WAVE ""
#WAVEOFFSET 0
#JACKET ""
#REQUEST "ticks_per_beat 480"
#00002: 4
#BPM01: 164
#00008: 01
#TIL00: ""
#HISPEED 00
#MEASUREHS 00
#00314:14
#00218:14
#00114:14
#00418:14
#0251a:14
#02612:14
#02912:14
#02910:41
#0301a:14
#03318:14
#03912:0016
#03918:26
#03910:41
#04018:16
#04012:0016
#04318:1616
#04412:1616
#04712:14
#04818:14
#04914:14
#0501a:14
#05112:16
#05118:0016
#05110:41
#05712:14
#0581a:14
#00512:14
#0061a:14
#01612:14
#01518:14
#01412:14
#01318:14
#01214:14
#0111a:14
#01014:14
#0171a:14
#01710:41
#0181a:14
#01914:14
#02014:14
#02118:14
#02218:14
#02312:14
#02412:14
#03412:14
#0351a:14
#03614:14
#03618:0014
#0091a:14
#05212:16
#05218:0016
#05518:16
#05512:0016
#06918:0016
#06912:26
#0691f:00210000
#07018:0016
#07012:16
#07010:41
#07312:1616
#07418:1616
#08118:16
#08112:0016
#08218:16
#08212:0016
#08718:14
#08712:0014
#08914:14
#0891a:0014
#09118:14
#09112:0014
#08512:16
#08518:0016
#0771a:14
#07814:14
#07918:14
#08012:14
#0611f:11
#09312:26
#06518:26
#06512:0026
#06618:26
#06612:0026
#06718:26
#08310:41
#007320:1434
#008320:0024
#027380:14
#028380:24
#031340:14
#032340:24
#037340:14
#038340:0024
#041380:1626
#042320:1626
#045380:1636
#046380:0026
#053320:1636
#054320:0026
#056380:1626
#059340:1400000000000034
#060340:0024
#0613a0:14
#0623a0:24
#063320:14
#064320:24
#067380:1636
#068380:0026
#071320:1626
#072380:1626
#075320:1636
#076320:0026
#083380:1636
#084380:0026
#086320:1626
#088380:1424
#090340:1424
#092380:1424
#093320:1636
#094320:00003626
