This file was generated by Ched 2.7.0.0.
#TITLE ""
#ARTIST ""
#DESIGNER ""
#DIFFICULTY 0
#PLAYLEVEL
#SONGID ""
#WAVE ""
#WAVEOFFSET 0
#JACKET ""
#REQUEST "ticks_per_beat 480"
#00002: 4
#BPM01: 164
#00008: 01
#TIL00: ""
#HISPEED 00
#MEASUREHS 00
#0001b:0000001300001300
#00018:0013
#00015:0000000000130000
#00012:00000013
#00116:13
#00112:0000130000000013
#0011b:13
#00117:0000000000000013
#00216:0014001300000000
#0021b:0000001300000013
#00212:0000000000000013
#00318:00000013000013000000000000000000
#00315:00001300000000130000000000000000
#00312:00000000130000000000001300000000
#0031b:0000000013000013
#00316:0000000000000013
#00412:0000130000130000
#00415:0000001300001300
#00418:0000000013000013
#0041b:0000000000130000
#00518:0000230000130000
#0051b:2300000000000013
#00512:0000230000130000
#00516:0000000000000013
#00515:23
#00617:0013000000000000
#00615:00130000
#00618:0000001300000000
#00616:0013
#00612:00000013
#00614:0000000000000013
#0061b:0013
#00716:1300000013001313
#00717:0000130000130000
#0071b:1300000013001313
#00712:0000130000130000
#00916:13000013
#00914:0013000000130000
#00912:00131300
#00919:0000001300000013
#0091b:13130013
#00917:0013
#01012:13001313
#01015:0013001300000013
#01018:0000130000130000
#01017:13
#0101b:00001313
#01115:0013000000130000
#01112:0000001300000013
#01118:00130013
#0111b:1300000013000013
#0121b:0013000013000000
#01218:0000130000240000
#01215:0000001300000000
#01212:0013
#01214:00000024
#01615:00130000
#01618:0000001300000000
#0161b:0013
#01612:0013000013001300
#01712:23131313
#01717:0000000013000013
#0171b:13000000000000000000001300000000
#01710:41
#01812:13131313
#0181b:0013000000000000
#01819:00131300
#01817:0000001300000000
#01912:13131313
#01919:0013000000130000
#01917:0000001300000000
#0191b:0000000000000013
#01918:00131300
#0191a:00000013
#02012:13131313
#0201b:00131300
#02017:0000001300000000
#02512:13131324
#02515:00001300000013000000000000000013
#02518:0000000000240013
#0251b:23130000
#02615:0000000000000013
#02618:00001300000013000000000000000013
#0261b:23131300
#02612:00130000
#02614:0000000000240000
#0261a:00000024
#02712:13131300
#02715:0013001300001300
#02718:0000000000130013
#0271b:00131300
#0281b:1313
#02819:0013001300000000
#02817:00130000
#02816:1313
#02812:00130000
#02815:0000000000000013
#03316:0000001313000000
#0331b:00000000000000130000000000000000
#03312:00000013
#03317:00000013
#03512:0013000000000013
#03515:00130013
#03518:0000001300130000
#0351b:0013
#0361b:13000023
#03618:0013000000000000
#03619:00130000
#03615:0000001300000000
#03612:0013
#03616:13000013
#03614:00130000
#03617:0013
#0391b:2300000013000013
#03916:2300000013000013
#03910:41
#04018:13130000
#04015:0013001300000000
#04017:0000000013000013
#04012:0000000013000013
#04118:00001300000000130000000000000000
#04115:00000013000013000000000000000000
#0411b:00000000130000000000001300000000
#04112:0000000013000013
#04117:0000000000000013
#04212:0000130000130000
#04219:0000001300000000
#0421b:0013
#04215:00000013
#04218:0000000000000013
#04217:00130000
#04214:0000001300000000
#04216:0013
#0431b:2300000000130000
#04317:0000000000000013
#04316:1400140000130000
#04312:0000230000000013
#0441b:0013000000000000
#04412:00140013
#04416:0000001400000000
#0441a:0014
#04419:0000000000000013
#04417:00000013
#04414:0000000000000013
#0451b:13001313
#04512:0000130000130013
#04516:23002323
#04517:0000230000230023
#0461b:0000131300001300
#04618:0013
#04615:0000000000130000
#04612:00000013
#0471b:13001300000000000033330000000000
#04715:00130013000000000000000000000000
#04718:0000131300000000
#04712:00000000001300130000001300003333
#04818:0013001300000000
#04815:00130000
#0481b:1313
#04812:00001313
#04814:0000000000000013
#04817:00000013
#04916:1313000000000000
#0491b:1313000000130000
#04917:0000001300000000
#04918:00000013
#04915:0000000000000013
#04919:00130000
#04912:0000001300000000
#05012:1300131400000000
#05018:0013001300001400
#05014:0014
#05016:0000000000140000
#0501a:0000000000000014
#0501b:23232300
#05117:0000000000130000
#05114:00000013
#0511b:0000000000000013
#0511a:00140000
#05112:1400000000130000
#05116:0000240000000013
#05110:41
#05212:00130000
#05219:0000001300000013
#0521b:00001313
#05216:00001313
#05214:0000000000000013
#05412:0000131300000000
#05415:0013
#05418:0000000000130013
#0541b:00000013
#05516:13
#0551b:1300000013000013
#05518:0000000000130000
#05515:00000013
#05512:0000000000000013
#05612:0013000013000000
#05615:00130000
#05618:0000001300000000
#0561b:0013
#06412:0000130000130000
#06415:0000001300001300
#06418:0000000013000013
#0651b:13
#06518:00132600
#06512:2613
#06515:00000013
#0661b:13
#06615:0000130000130013
#06612:2613
#06618:0013001326001300
#06917:0000000000000013
#0691b:13
#06912:1300000000000013
#06918:00333333230000000000000000000000
#06915:00333333230000000000000000000000
#0691f:00210000
#0701b:0013000000000013
#07017:0000001300000000
#07016:0013000000000013
#07012:0000001300000000
#07010:41
#07112:00001300000000000000001300000000
#07118:00000013000000001300000000000000
#07115:00000000130000130000000000000000
#0711b:0000001300000013
#07116:0000000000000013
#07217:0013000000000000
#07215:00130023
#07218:0000001300000023
#0721b:0013
#07212:0000000000230000
#07615:0013
#07618:0000000000130000
#0761b:00000013
#07617:00130000000000000000000000000000
#07612:0000131300001300
#08418:0000001300130000
#08415:0013
#0841b:00130013
#08416:00130000000000000000000000000000
#08412:00000013
#0851b:0000000013000013
#08518:1300000000130000
#08515:13000013
#08512:0000000000000013
#0871b:1300230013000013
#08717:0013000000130000
#08716:1300130000000013
#08712:0000001300130000
#08812:0013000000130000
#08815:00130000
#08818:0000001300000000
#0881b:0013
#08816:0013
#08817:0000000000130000
#01518:0013000000130000
#0151b:0000001300000013
#01515:00130013
#01512:1300000013000013
#01317:13000013
#01319:0013000000130000
#0131b:00131300
#01314:0000001300000013
#01312:13130013
#01316:0013
#0141b:13001313
#01418:0013001300000013
#01415:0000130000130000
#01416:13
#01412:00001313
#0211b:23131313
#02112:13000000000000000000001300000000
#02116:0000000013000013
#0221b:13131313
#02212:0013000000000000
#02214:00131300
#02216:0000001300000000
#0231b:13131313
#02314:0013000000130000
#02316:0000001300000000
#02312:0000000000000013
#02315:00131300
#02313:00000013
#0241b:13132323
#02412:00131300
#02416:0000001300000000
#02418:0000000000000013
#0291b:13131300
#02918:00001300000013000000000000000013
#02915:0000000000000013
#02912:23130000
#02914:0000000000240000
#0291a:00000024
#02910:41
#03018:0000000000240013
#03015:00001300000013000000000000000013
#03012:23131324
#0301b:00130000
#0311b:13131300
#03118:0013001300001300
#03115:0000000000130013
#03112:00131300
#03212:1313
#03214:0013001300000000
#03216:00130013
#03217:1313
#0321b:00130013
#05312:13001313
#0531b:0000130000130013
#05317:23002323
#05316:0000230000230023
#05716:13000013
#05714:0013000000130000
#05712:00131300
#05719:0000001300000013
#0571b:13130013
#05717:0013
#05812:13001313
#05815:0013001300000013
#05818:0000130000130000
#05817:13
#0581b:00001313
#05915:0013000000130000
#05912:0000001300000013
#05918:00000013
#0591b:0000000000000023
#06116:12000000000000000000001200000000
#0611c:12
#06113:0000000000000012
#06117:0000000000000012
#0611f:11
#06219:0012000000000000
#06215:0012000000000000
#0621b:0000001200000012
#06217:0000001200000000
#06218:00000000000000000000001200000000
#06213:0000000000000012
#0631a:00001200120000000000001200000000
#06316:00000012000000000000000000000000
#06314:0000001200000000
#06318:00000000000000120000000000001200
#06312:0000000000000012
#06812:00230013
#06815:0000000000130000
#06818:0013
#0681b:0000001300001300
#07317:0000000000130000
#07314:0000002400001300
#0731b:2300000000000013
#07312:2300000000130000
#07316:0000000000000013
#07318:00240000
#07412:0013000023000000
#07418:0000001300000000
#07414:0000000000000013
#07416:00000013
#0741b:00002313
#07419:0000000000000013
#07415:00130000
#07512:13001313
#0751b:0000130000130013
#07517:23
#07516:0000230024242424
#07712:13001300000000000033330000000000
#07718:00130013000000000000000000000000
#07715:0000131300000000
#0771b:00000000001300130000001300003333
#07815:0013001300000000
#07818:00130000
#07812:1313
#0781b:00001313
#07819:0000000000000013
#07816:00000013
#07917:1313000000000000
#07912:1313000000130000
#07916:0000001300000000
#07915:00000013
#07918:0000000000000013
#07914:00130000
#0791b:0000001300000000
#0801b:13130000
#08015:0013001300000000
#0801a:0000001400000000
#08018:0014
#08016:0000000000140000
#08014:00000014
#08012:2300230023000014
#08112:0000140000000013
#0811a:14
#08116:0000240000130000
#08119:00000013
#0811b:0000000000130000
#08117:0000000000000013
#0821b:0013000023000000
#08215:0000001300000000
#08219:0000000000000013
#08217:00000013
#08212:00002313
#08214:0000000000000013
#08218:00130000
#0831b:13001313
#08312:0000130000130013
#08316:2300000024242424
#08317:00230000
#08310:41
#08912:1300230013000013
#08916:0013000000130000
#08917:1300130000000013
#0891b:0000001300130000
#0901b:0013000000130000
#09018:00130000
#09015:0000001300000000
#09012:0013
#09017:0013
#09016:0000000000130000
#0911b:1300230013000013
#09117:0013000000130000
#09116:1300130000000013
#09112:0000001300130000
#09212:0013000000130000
#09215:00130000
#09218:0000001300000000
#0921b:0013
#09216:0013
#09217:0000000000130000
#09317:13
#09316:00130000
#09312:2300000023000023
#0931b:0000230000000023
#09315:0000000000230000
#09318:00000023
#03417:0000001313000000
#03412:00000000000000130000000000000000
#0341b:00000013
#03416:00000013
#00812:0023002323000000
#03712:2323
#03716:0000230000230000
#0371b:0000230000230023
#03715:0000000000000023
#03717:2323
#03815:0023000000000000
#03814:00230000
#03813:0000002300000000
#03812:0023
#06712:2300230023000023
#06715:0000000000230000
#06718:00000023
#0671b:2300230000000023
#09412:00002323
#0601b:0023000000000000
#06018:00230000
#06015:0000002300000000
#06012:0023
#08612:0023000023000000
#08615:00230000
#08618:0000002300000000
#0861b:0023
#01155:0013000000130000
#01152:0000001300000053
#0015b:53
#00157:00130000
#0035b:0000000053000053
#00356:0000000000000053
#00558:00530000
#00552:00530000
#00556:0000000000000053
#0065b:0053
#0075b:0000000000000053
#01258:0000000000440000
#01254:00000034
#01558:0013000000130000
#0155b:0000001300000063
#0165b:0053
#01657:00000013
#0175b:53
#0195b:0000000000000053
#0205b:0053
#02057:00000013
#02352:0000000000000063
#02452:0063
#02456:00000013
#02152:63
#02558:0000000000440000
#02552:00000034
#02654:0000000000340000
#0265a:00000044
#0285b:0053
#02856:0053
#02852:00000013
#02857:00000013
#03252:0063
#03257:0063
#03256:00000053
#0325b:00000053
#02954:0000000000340000
#0295a:00000044
#03058:0000000000440000
#03052:00000034
#03352:13000053
#03357:13000053
#03356:0053
#03956:5353
#0395b:5353
#03952:00000000130000000000001300000000
#03957:00000000130000000000001300000000
#04152:0000000053000063
#04157:0000000000000063
#04352:0000330000000053
#0445a:0014
#04552:0000000000000053
#04952:0000005300000000
#05152:54
#0515b:0000000000000053
#05156:00140000
#0535b:0000000000000063
#0555b:53
#05556:53
#05552:00130000
#05557:00130000
#05652:0053
#0565b:0053
#05955:0013000000130000
#05952:0000001300000053
#06156:52
#0615c:52
#0615a:00000000000000000000001200000000
#06358:0000000000000062
#06352:0000000000000062
#0675b:0000000000000053
#0695b:53000000000000000000001300000000
#06952:63000000000000000000001300000000
#06958:00130000
#06955:00130000
#07158:0053
#07156:0000000000000053
#0735b:0000000000000053
#07358:00440000
#07354:0000003400000000
#0755b:0000000000000063
#07452:0013
#0745b:0013
#07657:00230000000000000000000000000000
#0795b:0000006300000000
#0815a:64
#08152:0000000000000063
#08156:00140000
#08352:0000000000000053
#08456:00230000000000000000000000000000
#08252:0013
#0825b:0013
#08558:53
#08555:53
#08552:00130000
#0855b:00130000
#0865b:0013
#08652:0013
#0875b:53430000
#08756:00530000
#08757:0023000000000000
#08752:0000002300000000
#08857:0000000000230000
#08852:0000000000230000
#0885b:00005343
#08856:00005343
#08952:63330000
#08956:0023000000000000
#08957:00630000
#0895b:0000002300000000
#0915b:53430000
#09157:0023000000000000
#09156:00530000
#09152:0000002300000000
#0935b:0000000000000053
#03852:0013
#04056:00000000000000000000001300000000
#0405b:00000000000000000000001300000000
#04057:0053
#04052:0053
#06254:00000000000000000000001200000000
#07052:00000000000000000000001300000000
#0705b:00000000000000000000001300000000
#0345b:00000063
#03456:00000063
#03457:0063
#09052:00006333
#09057:00006333
#0905b:0000000000230000
#09056:0000000000230000
#0925b:00005343
#09256:00005343
#09252:0000000000230000
#09257:0000000000230000
#05256:0013
#0013b0:13
#001370:00230000
#0013b0:00000000000000001300002300000000
#001361:00000000000000001300002300000000
#002321:00000000000000001300002300000000
#002370:00000000000000001300002300000000
#0033b0:0013
#003370:00000000000000000000002300000000
#003360:0000000000000013
#004320:0023000000000000
#0033b1:0000000000000013
#004371:0023000000000000
#005321:00130000
#005351:0023
#005380:00130000
#0053b0:0023
#005360:0000000000000013
#006320:0023000000000000
#0063b0:0013
#006370:00000023
#0073b0:0000000000000013
#008370:0023
#011320:0000000000000013
#012360:0023000000000000
#0153b0:0000000000000013
#016370:0023000000000000
#0163b0:0013
#016370:00000023
#0173b0:13
#017370:00230000
#0183b0:0000000000130000
#018390:00000033
#018370:0000000000000023
#0193b0:0000000000000013
#020370:0023000000000000
#0203b0:0013
#020370:00000023
#021320:13
#021360:00230000
#022320:0000000000130000
#022340:00000033
#022360:0000000000000023
#023320:0000000000000013
#024360:0023000000000000
#024320:0013
#024360:00000023
#0283b0:0013
#028370:00000023
#028361:0013
#028321:00000023
#032321:0013
#032361:00000033
#033321:23
#032370:0013
#0323b0:00000033
#033370:23
#033360:0013
#033320:00000033
#034360:23
#033371:00000013
#0343b1:23
#034371:0013
#0343b1:00000033
#035371:23
#034360:00000013
#035320:23
#0373b0:0000000000000013
#0383b0:0033000000000000
#0383a0:00330000
#038390:0000003300000000
#038380:0023
#0393b0:13
#039370:00230000
#039361:13
#039321:00230000
#0393b1:0013
#039371:00000000000000000000002300000000
#039360:0013
#039320:00000000000000000000002300000000
#040320:0013
#040360:00000000000000000000002300000000
#040371:0013
#0403b1:00000000000000000000002300000000
#041321:0013
#041361:00000000000000000000002300000000
#041371:0000000000000013
#0423b1:0023000000000000
#041320:0000000000000013
#042360:0023000000000000
#043320:0000000000000013
#044360:0023000000000000
#045320:0000000000000013
#046360:00230000
#0473b0:00000000000000001333330000000000
#047370:00000000000000000000002300000000
#047320:00000000000000000000000000133333
#048360:23
#049320:0000001300000000
#049360:0000000000230000
#051320:14
#051360:00240000
#0513b0:0000000000000013
#052370:00230000
#0533b0:0000000000000013
#054370:00230000
#0553b0:13
#055370:00230000
#055361:13
#055321:00230000
#0563b1:0013
#056381:00000023
#056320:0013
#056350:00000023
#0593b0:1323000000000000
#059380:0000132300000000
#0593b0:0000000013230000
#059320:0000000000000013
#060360:0023000000000000
#061360:12
#061320:00220000
#0613c1:12
#061381:00220000
#0613a1:00000000000000001200002200000000
#062341:00000000000000001200002200000000
#063341:00000000000000001200002200000000
#063381:0000000000000012
#0643c1:0022000000000000
#063320:0000000000000012
#064360:0022000000000000
#0673b0:0000000000000013
#068370:00230000
#0693b0:13
#069380:00333333230000000000000000000000
#069321:13
#069351:00333333230000000000000000000000
#0693b1:00000000000000001300002300000000
#069320:00000000000000001300002300000000
#0703b0:00000000000000001300002300000000
#070321:00000000000000001300002300000000
#071381:0013
#0713b1:00000000000000000000002300000000
#071361:0000000000000013
#072321:0023000000000000
#0733b1:0000000000000013
#074371:0023000000000000
#0753b1:0000000000000013
#076371:00530000000000000000000000000000
#0763b1:00230000
#077321:00000000000000001333330000000000
#077361:00000000000000000000002300000000
#0773b1:00000000000000000000000000133333
#078371:23
#0793b1:0000001300000000
#079371:0000000000230000
#0813a1:14
#081361:00240000
#081321:0000000000000013
#082361:0023000000000000
#083321:0000000000000013
#084361:00530000000000000000000000000000
#084321:00230000
#085381:13
#0853b1:00230000
#085350:13
#085320:00230000
#0873b0:13230000
#087370:0053000000000000
#087361:00132300
#087321:0000005300000000
#0883b1:00001323
#088371:0000000000330000
#088360:00001323
#088320:0000000000330000
#089320:13230000
#089360:0053000000000000
#089371:00132300
#0893b1:0000005300000000
#090321:00001323
#090361:0000000000330000
#090370:00001323
#0903b0:0000000000330000
#0913b0:13230000
#091370:0053000000000000
#091361:00132300
#091321:0000005300000000
#0923b1:00001323
#092371:0000000000330000
#092360:00001323
#092320:0000000000330000
#0933b0:0000000000000013
#094370:00000023
