This file was generated by Ched 2.7.0.0.
#TITLE ""
#ARTIST ""
#DESIGNER ""
#DIFFICULTY 0
#PLAYLEVEL
#SONGID ""
#WAVE ""
#WAVEOFFSET 0
#JACKET ""
#REQUEST "ticks_per_beat 480"
#00002: 4
#BPM01: 164
#00008: 01
#TIL00: ""
#HISPEED 00
#MEASUREHS 00
#0001b:0000001300000000
#00015:0013
#00018:0000000000130000
#00012:00000013
#00216:0014000000000000
#00212:0000001400000013
#00315:0013
#0031b:0000000000000013
#00412:0000130000130000
#00415:0000001300000013
#00418:00001313
#00518:0000000000130000
#00512:0000000000000013
#0051b:23
#00515:00230000
#0061b:00130000
#00615:0000001300000013
#00618:0013
#0071b:0000130000000013
#00718:1300000000130000
#00712:00131300
#00715:00000013
#00912:1313
#00918:0013001300000000
#00915:00130013
#0091b:0000000000130013
#01015:0013001300130000
#01018:13130013
#01012:0000000000000013
#0101b:0013
#0111b:0013000000000000
#01115:0000001300000000
#01118:0000000000130000
#01112:0000000000000013
#0121b:00130000
#01215:0000001300000000
#01218:00001324
#01212:0000000000240000
#01615:00131300
#01618:0000001300000000
#01718:0000000000000013
#0171b:13
#01712:0013
#01710:41
#01812:0013000000000000
#01818:00130000
#01815:0000001300003300
#0181b:0013
#0191b:0013000000000013
#01918:0000001300130000
#01915:00130013
#01912:0013
#02015:00130000
#02018:0000001300000000
#0201b:0013
#02512:1300000000130000
#02515:0013001300000013
#0251b:2313
#02518:00130000
#02615:0000130000000013
#02618:00001300000013000000000000000013
#02612:2313
#0261b:2300000000130000
#02715:13130013
#02718:0013001300130000
#0271b:0000000000000013
#02712:0013
#02812:1400001400000000
#0281a:0014000014000000
#02816:00140000
#02815:0000000000000013
#03518:0000001300130000
#03512:0013
#03515:00130013
#0351b:0013000000000013
#0391b:2300000000000013
#03910:41
#04018:0000001300000000
#04015:0013000000000000
#0401b:0000000000000013
#04218:0000001300000013
#04215:00001313
#0421b:0000130000130000
#04412:00130000
#04418:0000001300000000
#04415:0000000013000013
#0441b:00000013
#0461b:0000001300000000
#04618:0013
#04615:0000000000130000
#04612:00000013
#04818:0013001300000000
#04815:0000130000000013
#0481b:00000013
#04812:0013
#04918:13000013
#04915:0013000000000013
#0491b:00130000
#04912:0000001300000000
#05014:0014000000000000
#05012:0000001400000000
#0501a:24
#05018:00240000
#05016:0024
#05115:00000013
#05118:0000000000000013
#05112:14
#0511b:0000000000130000
#05116:00240000
#05110:41
#05215:0000001300000000
#05218:0000000013000013
#05212:00000013
#05412:0000001300000013
#05418:0013
#05415:0000000000130000
#0541b:00000013
#05518:13000013
#05512:0013
#05515:0000000000130000
#0551b:0000000000000013
#0561b:0013000000000000
#05615:00130000
#05618:0000001300000000
#05612:0013
#06412:0000130000130000
#06415:0000001300000013
#06418:00001313
#06515:00160016
#06518:26
#06512:0026
#06615:0000130000000013
#06618:2600001300001300
#06612:0026
#0691b:2300000000000013
#0691f:00210000
#07018:0000001300000000
#07015:0013000000000000
#0701b:0000000000000013
#07010:41
#07218:0000130000000023
#07215:0000001300002300
#0721b:0013
#07212:0000000000230000
#07615:0013
#07618:0000000000130000
#0761b:00000013
#07612:0000001300000000
#0841b:0000001300000000
#08415:0013
#08418:0000000000130000
#08412:00000013
#08512:0013
#08515:0000000000130000
#08518:13000013
#0851b:0000000000000013
#0871b:0000000000000013
#08712:0000000000140000
#0871a:14140000
#08718:0014001400000000
#08812:0013000000000000
#08818:0000130000130000
#08815:0000001300000000
#0881b:0013
#0011b:13
#0011a:0000000000000014
#03212:0014000014000000
#03216:00140014
#0321a:1400001400000000
#03318:00000013
#0331b:0000001313000000
#03312:00000013
#03315:0000001313000000
#04312:2400000000130000
#0431b:0000000000000013
#04318:00240000
#06112:1300000000000013
#0611f:11
#06318:0000000000000013
#06315:0013
#06812:00000013
#06815:0000000000130000
#06818:0013
#0681b:0000001300000000
#07315:0000000000130000
#07318:0000230000000013
#0731b:2300000000130000
#07312:0000230000000013
#07415:0000001300000000
#07412:00000013
#07418:0000130023000013
#09318:1300000000230000
#09315:00130023
#09312:2323
#0931b:0000230000000023
#0131b:1313
#01315:0013001300000000
#01318:00130013
#01312:0000000000130013
#01418:0013001300130000
#01415:13130013
#0141b:0000000000000013
#01412:0013
#01512:0013000000000000
#01518:0000001300000000
#01515:0000000000130000
#0151b:0000000000000013
#02115:0000000000000013
#02112:13
#0211b:0013
#0221b:0013000000000000
#02215:00130000
#02218:0000001300003300
#02212:0013
#02312:0013000000000013
#02315:0000001300130000
#02318:00130013
#0231b:0013
#02418:0000130000000013
#02415:0000001300000000
#02412:0013
#0291b:1300000000130000
#02918:0013001300000013
#02912:2313
#02915:00130000
#02910:41
#03018:0000130000000013
#03015:00001300000013000000000000000013
#0301b:2313
#03012:2300000000130000
#03118:13130013
#03115:0013001300130000
#03112:0000000000000013
#0311b:0013
#03415:00000013
#03412:0000001313000000
#0341b:00000013
#03418:0000001313000000
#04118:0013
#04112:0000000000000013
#0571b:1313
#05715:0013001300000000
#05718:00130013
#05712:0000000000130013
#05818:0013001300130000
#05815:13130013
#0581b:0000000000000013
#05812:0013
#05912:0013000000000000
#05918:0000001300000000
#05915:0000000000130000
#0591b:0000000000000023
#06218:0013000000000000
#06215:0000001300000000
#06212:0000000000000013
#07115:0000000000000013
#07118:0013
#07815:0013001300000000
#07818:0000130000000013
#07812:00000013
#0781b:0013
#07915:13000013
#07918:0013000000000013
#07912:00130000
#0791b:0000001300000000
#08018:0014000000000000
#0801a:0000001400000000
#08012:24
#08014:00240000
#08016:0024
#08118:00000013
#08115:0000000000000013
#0811a:14
#08112:0000000000130000
#08116:00240000
#08218:0000001300000000
#08215:0000000023000013
#0821b:00000013
#08912:1400140000000013
#0891a:0000000000140000
#08914:0014001400000000
#0901b:0013000000000000
#09015:0000130000130000
#09018:0000001300000000
#09012:0013
#0911b:0000000000000013
#09112:0000000000140000
#0911a:14140000
#09118:0014001400000000
#09212:0013000000000000
#09218:0000130000130000
#09215:0000001300000000
#0921b:0013
#03712:2400000000000023
#03714:0024
#03718:0000000000240000
#0371a:00240000
#0381b:0023000000000000
#03815:00230000
#03818:0000002300000000
#03812:0023
#06718:26000023
#0671b:0023
#06715:0000000000230000
#06712:0000260000000023
#0361a:00000024
#04518:23000023
#04512:0000230000000023
#0451b:0023
#04515:0000000000230000
#07515:23
#0751b:00230000
#07512:0024
#07518:0000000000240000
#07514:00000024
#0751a:0000000000000024
#0861b:0023000000000000
#08615:00230000
#08618:0000002300000000
#08612:0023
#05315:23000023
#0531b:0000230000000023
#05312:0023
#05318:0000000000230000
#06012:0023000000000000
#06018:00230000
#06015:0000002300000000
#0601b:0023
#08318:23000023
#08312:0000230000000023
#0831b:0023
#08315:0000000000230000
#08310:41
#04712:00000000000000000000000000003333
#0771b:00000000000000000000000000003333
#0115b:0013000000000000
#01155:0000001300000000
#01158:0000000000130000
#01152:0000000000000053
#0015b:53
#00158:00130000
#00355:0053
#0035b:0000000000000053
#00555:00530000
#00552:0000000000000053
#00658:0053
#0075b:0000000000000053
#01655:0053
#01652:00000013
#0175b:53
#01752:0053
#0195b:0000000000000053
#0205b:0053
#02058:00000013
#0285a:0054
#02856:00000014
#03252:0064
#03256:00000054
#03352:14000053
#0335b:0053
#03358:00000053
#03355:0053
#0395b:53
#03958:00130000
#0435b:0000000000000063
#04358:00140000
#04455:0013
#04952:0000005300000000
#05152:54
#05158:0000000000000063
#05156:00140000
#05558:53
#0555b:00130000
#05652:0063
#06152:53
#06358:0000000000000063
#06355:0053
#06752:0000000000000063
#06958:00130000
#0695b:53
#07358:0000130000000063
#07352:0000130000000063
#07458:0013
#08558:53
#0855b:00130000
#08652:0013
#08858:0000000000230000
#0885b:00005343
#0935b:0000000000000053
#00252:0000000000000053
#01252:0000000000140000
#01258:00000014
#01552:0013000000000000
#01558:0000001300000000
#01555:0000000000130000
#0155b:0000000000000063
#02352:0000000000000063
#02452:0063
#02455:00000013
#02152:63
#0215b:0063
#03455:00000063
#03452:0063
#0345b:00000063
#03458:0063
#04158:0063
#04152:0000000000000063
#0405b:0000000000000063
#05258:0013
#05952:0013000000000000
#05958:0000001300000000
#05955:0000000000130000
#06252:0000000000000053
#07155:0000000000000053
#07158:0063
#0705b:0000000000000063
#08155:0000000000000053
#0815a:64
#08156:00140000
#0795b:0000006300000000
#0875a:54540000
#08758:0024002400000000
#08952:64640000
#08954:0024002400000000
#0915a:54540000
#09158:0024002400000000
#03852:0013
#08255:0013
#09052:00006333
#09055:0000000000230000
#0925b:00005343
#09258:0000000000230000
#04552:0000000000000053
#0535b:0000000000000053
#0755a:0000000000000054
#08352:0000000000000053
#0013b0:13
#001380:00230000
#001350:00000000000000001300002300000000
#002380:00000000000000001300002300000000
#002320:0000000000000013
#003350:0023000000000000
#003380:0000132300000000
#003350:0013
#003320:00000000000000000000002300000000
#0033b0:0000000000000013
#004380:0023000000000000
#005350:00130000
#005320:0023
#005320:0000000000000013
#006350:0023000000000000
#006380:0013
#0063b0:00000023
#0073b0:0000000000000013
#008380:0023
#011320:0000000000000013
#012350:0023000000000000
#0153b0:0000000000000013
#016380:0023000000000000
#016350:0013
#016320:00000023
#0173b0:13
#017380:00230000
#017320:0013
#017350:00000000000000000000002300000000
#018350:0000000000133300
#018320:0000000000000023
#0193b0:0000000000000013
#020380:0023000000000000
#0203b0:0013
#020380:00000023
#021320:13
#021350:00230000
#0213b0:0013
#021380:00000000000000000000002300000000
#022380:0000000000133300
#0223b0:0000000000000023
#023320:0000000000000013
#024350:0023000000000000
#024320:0013
#024350:00000023
#0283a0:0014
#028360:00000024
#032320:0014
#032360:00000034
#033320:24
#0333b0:0013
#033380:00000033
#0343b0:23
#033351:0013
#033321:00000033
#034351:23
#034321:0013
#034351:00000033
#035321:23
#034380:0013
#0343b0:00000033
#035380:23
#036340:14342400
#036320:0034003400000000
#0393b0:13
#039380:00230000
#039350:00000000000000001300002300000000
#040320:00000000000000001300002300000000
#0403b0:0000000000000013
#041380:0023000000000000
#041350:0000132300000000
#041380:0013
#0413b0:00000000000000000000002300000000
#041320:0000000000000013
#042350:0023000000000000
#0433b0:0000000000000013
#044380:0023000000000000
#045320:0000000000000013
#046350:00230000
#0473a0:14343434000000003434342400000000
#047380:00000000343434340000000000000000
#047320:00000000000000000000000000133333
#048350:23
#049320:0000001300000000
#049350:0000000000230000
#051320:14
#051360:00240000
#051380:0000000000000013
#0523b0:00230000
#0533b0:0000000000000013
#054380:00230000
#055380:13
#0553b0:00230000
#056320:0013
#056350:00000023
#061320:13
#061350:00230000
#061380:00000000000000001300002300000000
#0623b0:00000000000000001300002300000000
#062320:0000000000000013
#063350:0023000000000000
#063380:0000132300000000
#063350:0013
#063320:00000000000000000000002300000000
#063380:0000000000000013
#0643b0:0023000000000000
#067320:0000000000000013
#068350:00230000
#0693b0:13
#069380:00230000
#069350:00000000000000001300002300000000
#070320:00000000000000001300002300000000
#0703b0:0000000000000013
#071380:0023000000000000
#071350:0000132300000000
#071380:0013
#0713b0:00000000000000000000002300000000
#071350:0000000000000013
#072320:0023000000000000
#073380:0000000000000013
#0743b0:0023000000000000
#073321:0000000000000013
#074351:0023000000000000
#0753a1:0000000000000014
#076371:00240000
#077321:14343434000000003434342400000000
#077341:00000000343434340000000000000000
#0773b1:00000000000000000000000000133333
#078381:23
#0793b1:0000001300000000
#079381:0000000000230000
#0813a1:14
#081361:00240000
#081351:0000000000000013
#082321:00230000
#083321:0000000000000013
#084351:00230000
#085381:13
#0853b1:00230000
#0873a1:14342400
#087381:0054005400000000
#0883b1:00001323
#088381:0000000000330000
#089321:14342400
#089341:0054005400000000
#090321:00001323
#090351:0000000000330000
#0913a1:14342400
#091381:0054005400000000
#0923b1:00001323
#092381:0000000000330000
#0933b1:0000000000000013
#094381:00000023
