This file was generated by Ched 2.7.0.0.
#TITLE ""
#ARTIST ""
#DESIGNER ""
#DIFFICULTY 0
#PLAYLEVEL
#SONGID ""
#WAVE ""
#WAVEOFFSET 0
#JACKET ""
#REQUEST "ticks_per_beat 480"
#00002: 4
#BPM01: 164
#00008: 01
#TIL00: ""
#HISPEED 00
#MEASUREHS 00
#0001c:0000001200000000
#0001a:0012
#00018:0000000000120000
#00016:00000012
#00014:0000000000000012
#00116:12
#00112:00120000
#00114:0000000000000012
#00118:12
#0011a:0000000000000012
#00117:0012
#00216:0012120000000000
#00214:0000001200000000
#0021a:0000001200000000
#00212:0000000000000012
#00218:12000012000000000000000000001200
#00217:0012
#00316:00000012000012000000000000001200
#00318:0000000012000000000000000000120000000000000000000000001200000000
#0031c:00000000120000000000001200000000
#00312:0012
#00415:00120000
#00418:0000001200000000
#0041b:0000000012000013
#00417:0000000000130000
#00416:0000000000000013
#00412:0000000000130000
#00414:00000013
#0041c:0012000000000000
#00419:00000013
#00518:0013001300130013
#0051b:23131313
#00516:00230013
#00514:0000000000130013
#00512:23
#00916:1300001300001300
#00914:0013000000130013
#00912:00131300
#01012:13130013
#01015:0013001300000013
#0101b:00131300
#01018:0000000000130000
#01017:13
#01115:1316160016160000
#01112:0000001600000013
#01118:0000001300001300
#0111b:1313000000130013
#0121b:0013001300002300
#01217:00130000
#01216:0000001313000000
#01212:0000130013232600
#01218:0000000000260000
#0171b:23131313
#01716:1300000013000013
#01712:00001300000000000000001300000000
#01717:0013000000130000
#01710:41
#0181b:13131313
#01814:00131313
#01816:0000001300000013
#01818:0013000000130000
#01812:0000000000130000
#0191b:13131313
#01912:0013000013000013
#01916:0000001300001300
#01914:0000130000130000
#01918:0013000000130000
#0201b:13131313
#02016:13131300
#02012:0000001300000000
#02017:0013000000130000
#0251b:13131300
#02516:0014001400130000
#02512:23131324
#02518:0000000000000013
#02515:00000000000000000000000000000013
#02517:00000013
#0251a:0000000000240000
#02712:13161316
#02715:0016001600160016
#0271b:00130013
#02718:1616
#0281b:13
#02819:0013001300000000
#02816:00140000
#02812:13
#02814:0013001300000000
#02818:0000000000000013
#02815:00000000000000000000000000000016
#03312:0000001300001300
#03315:00000000000000130000130000000000
#0331b:00000013000000000000000000000000
#03318:0000000013000012
#03316:00000013000000000000000000000012
#03516:0018000000000000
#03517:00170000
#03518:0000001600000000
#03519:0015
#0351a:0000000000140000
#0351b:13000013
#0351c:0000000000000012
#03512:002425262728292a
#03612:26000013
#03615:00000000000000000000001300000000
#03618:0000000000130000
#03616:0000000000000014
#0361b:00000023
#03917:0013000000000013
#03912:0013000013000013
#03916:2313
#0391b:23
#03910:41
#04015:13
#0401b:0000001300000000
#04017:0000130000000013
#04019:0013000000000000
#04012:0000000013000013
#04016:0000001313000000
#04014:0013000000000000
#0411b:00001300130000000000001300000000
#04116:0000000000001300000000000000000000000013000000000000000013000000
#04112:0000000000000000000000001300000013000000000000000000001300000000
#04117:00000000000000130000000000000000
#04212:0000130013130000
#0421b:0000001300232300
#04216:0013131313000000
#04215:00000013
#04218:0000000000000013
#04317:1300000000130000
#0431b:2300000013000013
#04316:0000130000000013
#04319:00000013
#04312:0000230000130000
#04318:0014001400000000
#04417:0013000000000000
#0441a:00140000
#04416:0000001800000000
#04412:00001616
#04418:0000000016000013
#04415:0000000000000013
#04419:13
#0461b:00000000130013000000000013000013
#04612:0000001300001300
#04619:15
#0461a:0014000000000000
#04615:00000000000000001300130000130000
#04618:00000000000000000013001300001300
#04818:0013001300000000
#04818:0013001300000000
#0481b:1300130013000013
#0481b:13131300
#04812:16001613
#04817:00000013
#04816:0000000000000013
#04815:00160000
#04917:0000001300000000
#0491b:0000130013130000
#04918:00000013
#04915:0000000000000013
#04912:0018001300000000
#04916:18130000
#05012:1300131400001400
#0501b:0013000000000000
#05018:2600261326001400
#05014:0000000014000014
#05016:0000000000140000
#0501a:0000000000000014
#05412:1514131400000014
#05418:0014
#05416:0000000000140000
#05414:00000014
#0541a:0000001400000014
#05612:0013002413000000
#05615:00130000
#05618:0000001300000000
#0561b:00000013
#0561a:0024000024000000
#06412:0000140000130000
#06416:0000001400000013
#0641a:0014
#06414:00000013
#06417:0000000000130000
#06419:00000013
#0641b:0000000000000013
#0651b:13000013
#06512:29131300
#06515:0029
#0661b:13130000
#06615:0000130029130013
#06612:29001313
#06618:0013001300001300
#0871a:0014
#08717:0000000000130000
#0871b:0000000000000013
#08712:1412000000130000
#08716:0000240000001413
#0871c:0000001200000000
#08812:0013000000140000
#08815:00130000
#08818:0000001300000000
#08816:1400000014140000
#0881a:0014
#0881b:0013000000000000
#0341b:0000001300001300
#03418:00000000000000130000130000130000
#0341a:14
#03417:00000013000000000000000000000000
#03415:0000000013000013
#03412:14000013000000000000000000000013
#06116:12
#0611c:12
#06117:00000000000000001200001200001200
#06113:0000000000000012
#06112:0012000012000000
#06118:0012000000000000
#0611f:11
#06219:0012000000000000
#06215:0012000000000000
#0621b:0000001200000000
#06217:00000000000012001200001200000000
#0621c:0000000000000012
#06212:0000000012000012
#06218:12
#06216:00120000
#0631a:00001200120000000000001200000000
#06317:00000012000000120000000000000000
#06314:0000001212000000
#0631c:0000000000000012
#06312:0000000000000012
#09317:0013000023000023
#09316:0000001300002300
#0931b:13230023
#09312:2300130023000023
#09314:0000000000230000
#09319:0000000000230000
#00615:0013001300130013
#00612:13131313
#00617:00130013
#0061b:13
#00619:0000000000130013
#01317:1300001300001300
#01319:0013000000130013
#0131b:00131300
#0141b:13130013
#01418:0013001300000013
#01412:00131300
#01415:0000000000130000
#01416:13
#01515:0016161316161300
#01518:1300001600000000
#0151b:0000000000000013
#01512:1313000000130013
#01612:0013001300000013
#01616:0000130000000013
#01617:0000001313000000
#0161b:00131300
#01618:0000000000130000
#01619:00000013
#01614:0000000000130000
#01615:00000013
#02112:23131313
#02117:1300000013000013
#0211b:00001300000000000000001300000000
#02116:0013000000130000
#02212:13131313
#02219:00131313
#02217:0000001300000013
#02215:0013000000130000
#0221b:0000000000130000
#02312:13131313
#0231b:0013000013000013
#02317:0000001300001300
#02319:0000130000130000
#02315:0013000000130000
#02412:13132323
#02417:13131300
#0241b:0000001300000000
#02416:0013000000130000
#02415:0000000000000013
#02418:00000000000000000000000000000013
#02612:1300130013240000
#02616:0014001400001300
#0261b:23131300
#02615:0000000000000013
#02618:00000000000000000000000000000013
#02617:0000000000130000
#0261a:00000024
#02916:0014001400001300
#0291b:2313
#02912:0000130013240000
#02917:0000000000130000
#02915:00000000000000000000000000001316
#0291a:00000024
#02910:41
#03016:0014001400130000
#03012:23001324
#0301b:00131300
#03017:00000013
#03018:0000000000000013
#03015:00000000000000000000000000000013
#0301a:0000000000240000
#03212:1313
#03214:0013001300000000
#03216:00140000
#0321b:1313
#03219:0013001300000000
#03215:00000013
#03218:00000013
#04515:00130000001300000000000000000000
#04518:2613261300000000
#04512:00000013000000130000000000001300
#0451b:00002323
#04517:0000000000230023
#04712:13000000000000001300000000130000
#04712:00000000000000000000000000130000
#04715:0000000000000013
#04715:0000000000000013
#04718:00000000000000000000000000000013
#04718:00000000000000000000000000000013
#04717:00130000000000000013000000000000
#04714:0013001300130000
#04719:00000013000000130000001300000000
#04716:00130000
#0471b:00000000001300000000000000000000
#0511a:14240000
#05116:1414240000130000
#05112:0014000013000013
#05114:00000013
#0511b:0000000000130000
#05117:0000000000000013
#05110:41
#05216:0013000000000000
#05212:0000141816000000
#05215:0000000000000013
#05218:0000000016001613
#05214:13
#05518:00000000120012000000000000120012
#05516:00000000001200120000000012001200
#05512:2424000024240000
#0551a:2424000024240000
#05712:1300001300001300
#05714:0013000000130013
#05716:00131300
#05816:1300000000130000
#05812:0019130013000000
#0581b:13130013
#05815:0000001900000000
#05817:0000000000000013
#05915:0016001619160000
#05912:1300191300001923
#0591b:1313000000130023
#0671b:13130000000000132300000023000000
#06715:00001300000013000000001300130000
#06718:00000013001300000000130000001300
#06712:23000000230000001313000000000013
#06916:1212000000000013
#06918:00120012000000000000000000000000
#0691b:0000000013000013
#06917:0013
#06912:00240000
#0691a:00240000
#0691f:00210000
#07018:13
#07012:0000001300000000
#07016:0000130000000013
#07014:0013000000000000
#0701b:0000000013000013
#07017:0000001313000000
#07019:0013000000000000
#07010:41
#07112:00001300130000000000001300000000
#07117:0000000000001300000000000000000000000013000000000000000013000000
#0711b:0000000000000000000000001300000013000000000000000000001300000000
#07116:00000000000000130000000000000000
#0721b:0000130013000023
#07212:0000001300230000
#07217:0013131313230000
#07219:00000023
#07214:00000023
#07216:0000000000000023
#07316:0000250000130000
#07314:00000013
#07319:0013
#0731a:24
#07312:24230000
#07315:0000002500000000
#0731b:0000002300000000
#0741b:0013000000000000
#07412:00130000
#07413:0000001400000000
#07415:0000000000000013
#07418:0000001400001613
#07419:1325
#07417:00130000
#07414:0025
#07612:00000000000013000000000013000013
#07617:0013130000000000
#0761b:0000001300001300
#07618:00000000000000001300130000130000
#07615:00000000000000000013001300001300
#07619:13
#07516:0000000000000013
#07518:00130000260013000000000000000000
#07515:00001300001300000000000000000000
#0751b:00000013000000000000230000002300
#07512:26000000000000130000000000000000
#07517:00002323
#0771b:13000000000000001300000000130000
#07716:00130000000000000013000000000000
#07719:0013001300130000
#07714:00000013000000130000001300000000
#07717:00130000
#07712:00000000001300000000000000000000
#07718:0000000000000013
#07715:00000000000000000000000000000013
#07815:0013161300000000
#07812:1300130013000013
#0781b:00000013
#07816:00000013
#07817:0000000000000013
#07818:1616
#07916:0018001300000000
#07912:1800130013130000
#07915:00000013
#07918:0000000000000013
#0791b:0000001300000000
#07917:00130000
#0801b:13130000
#08012:2613260026000014
#08015:0000001300000000
#0801a:0000001400001400
#08018:0000000014000014
#08016:0000000000140000
#08014:00000014
#08112:14240000
#08116:1414240000000000
#0811a:0014000000000000
#08117:0000000000130000
#08119:00000013
#08114:0013
#08212:0013000025001600
#08214:1300001400000000
#08218:0000000000000013
#08215:0000000000000013
#0821b:00130000
#08219:0000001400000000
#08216:00130000
#08217:0025
#0841a:0000001400000014
#08414:1314
#08416:0013130000140000
#08418:00000014
#08412:0000001400000014
#08912:0000001214000013
#08916:0000240000131400
#0891a:14
#0891b:0000000000130000
#08917:0000000000000013
#0891c:0012000000000000
#0901b:0013000000000000
#09018:00130000
#09015:0000001300000000
#09016:1400000014140000
#09012:0013000014000000
#0901a:0000000000140000
#0911a:00241400
#09117:0000000000130000
#0911b:0000000000000013
#09112:1400000000130000
#09116:0012000000001413
#09118:0000001200000000
#09212:0013000000140000
#09215:00130000
#09218:0000001300000000
#09216:1400000014140000
#0921a:0014
#0921b:0013000000000000
#09412:13132323
#09416:0013001300000000
#00718:00000000120012000000000000120012
#00716:00000000001200120000000012001200
#0071a:2424000024240000
#00712:2424000024240000
#0311b:1313
#03115:0016001600160016
#03118:00160016
#03112:16131613
#08317:0000000000000013
#08315:00130000000013000000000000000000
#08318:26001300001300000000000000000000
#08312:00000013260000000000230000002300
#0831b:00000000000000130000000000000000
#08316:00002323
#08310:41
#05318:00130000001300000000000000000000
#05315:0013001300000000
#0531b:00000013000000130000000000001300
#05312:26262323
#05316:0000000000230023
#08516:00000000120012000000000000120012
#08518:00000000001200120000000012001200
#0851a:2424000024240000
#08512:2424000024240000
#00814:0000002300000000
#00812:0025
#00819:0000002325000000
#00816:0024000000000000
#03712:2300000023000023
#03716:0000230024240000
#0371b:2300230000230023
#03817:0023230000000000
#03813:00230000
#03816:0000002323000000
#03812:0023
#0381b:0023000000000000
#0381a:0000002300000000
#06812:2323232323002400
#0681b:23
#06817:0023000000000000
#06818:00230000
#06819:0000002300000000
#0681a:00002324
#0601b:0023000000000000
#06017:00230000
#06013:00230000
#0601a:0000002300000000
#06016:0000002323000000
#06012:0023
#08612:0024000024000000
#0861a:0000002424000000
#0861b:0023000000000000
#08618:00230000
#08615:0000002300000000
#00158:52
#0015c:00120000
#00157:0052
#00152:00120000
#00352:0062
#00356:0000000000000052
#0035c:00520000
#01152:0000003600000053
#01155:0036000000360000
#01258:0000000000460000
#01252:00000036
#01756:6300000000000053
#01752:0023000000000000
#01952:0000000000000063
#02056:2363
#02052:00000013
#0255a:0000000000440000
#02552:00000034
#02556:0014001400000000
#04152:0053
#04156:0000000000000000000000000000000000000023000000000000000063000000
#0415b:00530000
#04452:0016
#04458:0016
#04952:0000005300000000
#05652:0053
#06156:52
#0615c:52000000000000000000001200000000
#06158:0022000000000000
#06152:0022000000000000
#06157:00000000000000005200001200000000
#0635c:0000000000000062
#06352:0000000000000062
#0635a:00520000
#06354:0052
#09357:0000000000000053
#00257:0062
#00252:0000000000000052
#00657:00630000
#01555:0046000000460000
#01558:0000004600000000
#0155b:0000000000000063
#02157:5300000000000063
#0215b:0023000000000000
#0235b:0000000000000053
#02457:2353
#0245b:00000013
#02652:0000000000340000
#0265a:00000044
#02656:0014001400000000
#02752:1313
#0275b:00130013
#02852:00000033
#0285b:00000043
#02952:0000000000340000
#0295a:00000044
#02956:0014001400000000
#0305a:0000000000440000
#03052:00000034
#03056:0014001400000000
#0335b:13
#03352:13
#03358:0053
#0325b:0053
#03255:00000053
#03252:0063
#03258:00000063
#03455:0053
#03956:53435300
#03952:0023000053000000
#03957:00002300000000000000001300001300
#0395b:53000000430000000000001300000000
#03852:0013
#03856:0013
#04059:0013000000000000
#0405b:00000000000013000000001300000000
#04052:0000000053000053
#04056:0053
#04057:00000000000000000000001300000000
#04352:0000130000230000
#04357:53
#04356:0000000000000053
#04552:0000000000000053
#05156:5424440000000000
#0515a:54440000
#05152:0024000043000000
#0515b:0000000000230000
#05157:0000000000000063
#05955:0036004600360000
#05952:0000000000000053
#06252:0000000000000052
#06257:00000000000000005200001200000000
#0625c:00000000000000000000001200000000
#0655b:53
#06552:1963
#06555:0019
#06652:19
#06655:0019
#06956:00000000000000000000001300001300
#0695b:0063
#06957:0063
#06952:00000000140000000000001300000000
#0695a:00140000
#07052:00000000000013000000001300000000
#07054:0013000000000000
#0705b:0000000063000063
#07057:0063
#07056:00000000000000000000001300000000
#07152:00630000
#0715b:0063
#07157:0000000000000000000000000000000000000023000000000000000053000000
#07352:14
#0735a:14
#07356:00450000
#07355:0000003500000000
#07556:0000000000000053
#0795b:0000006300000000
#08152:64340000
#08156:6424340000000000
#0815a:0024000000000000
#08652:0014
#0865a:0014
#0885a:00005444
#08856:0000000054244400
#08852:0000000000240000
#0315b:1313
#03152:00130013
#05552:1400000000140000
#0555a:0014000014000000
#08357:0000000000000063
#0535b:0000000000000063
#0855a:1400000000140000
#08552:0014000014000000
#09052:00006434
#09056:0000000064243400
#0905a:0000000000240000
#0925a:00005444
#09256:0000000054244400
#09252:0000000000240000
#00556:00530000
#07454:0015
#07459:0015
#08257:0015
#08252:0015
#05258:0016
#05252:0016
#04852:3636
#04855:00360000
#07858:4646
#07855:00460000
#08052:36463600
#05058:46364600
#08956:00340000
#08756:00440000
#0915a:00440000
#001380:12
#0013c0:00220000
#0013c0:00000000000000001200002200000000
#001371:0012
#001321:00000000000000000000002200000000
#002321:00000000000000001200002200000000
#002370:0012
#0023c0:00000000000000000000002200000000
#002320:0000000000000012
#003360:0022000000000000
#0033c0:00120000
#003380:0000002200000000
#003320:0012
#003360:00000000000000000000002200000000
#003360:0000000000000012
#004320:0022000000000000
#005360:00130000
#005320:0023
#006370:00130000
#0063b0:0023
#0093b0:13
#009390:0023000000000000
#0093b0:0000132300000000
#009370:0013
#009390:0000000000230000
#0093b0:0000000000001323
#010320:0013
#010350:0000000000230000
#0103b0:00000013
#010380:0000000000000023
#011320:0000000000000013
#012370:0023000000000000
#013320:13
#013340:0023000000000000
#013320:0000132300000000
#013360:0013
#013340:0000000000230000
#013320:0000000000001323
#0143b0:0013
#014380:0000000000230000
#014320:00000013
#014350:0000000000000023
#0153b0:0000000000000013
#016360:0023000000000000
#017360:13230000
#017320:0053000000000000
#017360:0000000000000013
#018320:0023000000000000
#019320:0000000000000013
#020360:53
#020320:0023000000000000
#020360:0013
#020320:00000023
#021370:13230000
#0213b0:0053000000000000
#021370:0000000000000013
#0223b0:0023000000000000
#0233b0:0000000000000013
#024370:53
#0243b0:0023000000000000
#024370:0013
#0243b0:00000023
#0283b0:0013
#028320:00000023
#028321:0013
#0283b1:00000023
#029321:1323000000000000
#0293b1:0000132300000000
#0303b1:1323000000000000
#030321:0000132300000000
#0323b1:0013
#032351:00000033
#0333b1:23
#032320:0013
#032380:00000033
#033320:23
#033380:0013
#0333b0:00000023
#034350:0013
#034320:00000023
#036380:1626
#036321:16362600
#036361:0036003600000000
#039361:13230000
#039321:0053000000000000
#0393b0:13230000
#039370:0053000000000000
#039320:0013
#039370:00000000000000000000002300000000
#039361:0013
#0393b1:00000000000000000000002300000000
#040321:0013
#040371:00000000000000000000002300000000
#040360:0013
#0403b0:00000000000000000000002300000000
#040320:0000000000000013
#041360:0023000000000000
#0413b0:00130000
#041370:0000002300000000
#041320:00000000000000001300002300000000
#041360:0000000000000000000000000000000000000053000000000000000000000000
#041360:0000000000000013
#0423b0:0023000000000000
#043370:13
#043320:00230000
#043320:0000000000130000
#043360:0000000000000033
#044320:0023000000000000
#045360:00001333
#045320:0000000000330033
#046360:00230000
#049320:0000001300000000
#049360:0000000000230000
#051360:14240000
#051320:0054000000000000
#0513a1:14240000
#051361:0054000000000000
#0513b1:0000000000130000
#051371:0000000000000033
#0523b1:0023000000000000
#053371:00001333
#0533b1:0000000000330033
#054371:00230000
#056321:0013
#056361:00000023
#0573b1:13
#057381:0023000000000000
#0573b1:00130000
#057381:0000002300000000
#0573b1:0013
#057381:0000000000230000
#0573b1:00000013
#057381:0000000000000023
#058371:0013
#0583b1:0000000000230000
#058361:00000013
#058321:0000000000000023
#059321:0000000000000013
#060371:0023000000000000
#061361:12220000
#061321:0052000000000000
#0613c0:12220000
#061380:0052000000000000
#061370:0012
#0613c0:00000000000000000000002200000000
#062370:0012
#0623c0:00000000000000000000002200000000
#062320:0000000000000012
#063370:0022000000000000
#0633a0:00120000
#063370:0000002200000000
#063340:0012
#063370:00000000000000000000002200000000
#0633c0:0000000000000012
#064380:0022000000000000
#063321:0000000000000012
#064361:0022000000000000
#0653b1:13
#065361:00230000
#065321:0013
#065371:00000023
#0693b1:0013
#069361:00000000000000000000002300000000
#069370:0013
#069320:00000000000000000000002300000000
#0703b0:0013
#070360:00000000000000000000002300000000
#070371:0013
#070321:00000000000000000000002300000000
#0703b1:0000000000000013
#071371:0023000000000000
#071321:00130000
#071361:0000002300000000
#0713b1:00000000000000001300002300000000
#071371:0000000000000000000000000000000000000053000000000000000000000000
#071371:0000000000000013
#072321:0023000000000000
#0733b1:0000000000130000
#073391:00000033
#073371:0000000000000023
#073320:0000000000000013
#074340:33
#074360:0023000000000000
#075320:0013
#075360:0000000000230000
#075320:00000013
#075360:0000000000000033
#076320:00230000
#0793b0:0000001300000000
#079370:0000000000230000
#081360:14240000
#0813a0:0054000000000000
#081321:14240000
#081361:0054000000000000
#081321:0000000000130000
#081341:00000033
#081361:0000000000000023
#0813b0:0000000000000013
#082390:33
#082370:0023000000000000
#0833b0:0013
#083370:0000000000230000
#0833b0:00000013
#083370:0000000000000033
#0843b0:00230000
#0873a0:14
#087360:00540000240000000000000000000000
#087321:00140000
#087361:00000000005400002400000000000000
#0883a1:00001424
#088361:0000000000340000
#088360:00001424
#088320:0000000000340000
#089320:14
#089360:00540000240000000000000000000000
#0893a1:00140000
#089361:00000000005400002400000000000000
#090321:00001424
#090361:0000000000340000
#090360:00001424
#0903a0:0000000000340000
#091360:14
#0913a0:00540000240000000000000000000000
#091361:00140000
#091321:00000000005400002400000000000000
#0923a1:00001424
#092361:0000000000340000
#092360:00001424
#092320:0000000000340000
#093370:0000000000000013
#0943b0:00003323
