This file was generated by Ched 2.7.0.0.
#TITLE ""
#ARTIST ""
#DESIGNER ""
#DIFFICULTY 0
#PLAYLEVEL
#SONGID ""
#WAVE ""
#WAVEOFFSET 0
#JACKET ""
#REQUEST "ticks_per_beat 480"
#00002: 4
#BPM01: 164
#00008: 01
#TIL00: ""
#HISPEED 00
#MEASUREHS 00
#0251a:14
#02514:00140000
#02518:0014
#02612:14
#02618:00140000
#02614:0014
#0271a:1414
#02714:00140014
#03414:14
#03418:0014
#03412:00000014
#03518:0014
#03514:00140000
#03512:00000014
#0351a:14
#03912:2614
#03918:00260014
#03910:41
#04014:1414
#0401a:00140000
#04018:00000014
#04714:0014
#04718:00140000
#0471a:00000014
#04712:24
#0491a:14
#04914:00140000
#04918:0014
#04912:00000014
#05114:0014
#05118:00260014
#05112:26
#05110:41
#0051a:14
#00512:0014
#01118:0014
#0111a:14
#01114:00140000
#01112:00000014
#01012:1414
#01018:00140000
#01718:1414
#01710:41
#01814:1414
#0191a:14
#01912:0014
#02114:1414
#02218:1414
#02312:14
#0231a:0014
#0871a:14
#08712:00140000
#08714:00000014
#08718:0014
#08918:14
#0891a:0014
#08914:00140000
#08912:00000014
#09112:14
#0911a:00140000
#09118:00000014
#09114:0014
#00318:14
#00314:0014
#00419:14
#00413:0014
#0061a:14
#00612:0014
#0091a:1414
#00914:00140000
#02912:14
#02918:00140000
#02914:0014
#02910:41
#0301a:14
#03014:00140000
#03018:0014
#03112:1414
#03118:00140014
#0331a:14
#03312:0014
#03318:00000014
#0361a:14
#03618:0014
#03614:00140000
#03612:00000014
#04112:14
#04118:00140000
#04114:0014
#0411a:00000014
#04318:2614
#04314:00000014
#04312:00260000
#0441a:14
#04412:00140000
#04418:0014
#04414:00000014
#04814:14
#04818:00140000
#04812:0014
#05018:14
#05014:00140000
#0501a:0014
#05212:14
#0521a:00140000
#05214:0014
#05218:00000014
#06118:14
#0611a:0014
#0611f:11
#06718:16001616
#06712:0000160000160016
#09312:16002626
#09318:0000160000260026
#04212:14
#04213:00340000
#05918:1414
#05914:00140000
#06814:00000016000000000000000000000000
#0691a:0014
#06914:00000014
#06918:26
#06912:00260000
#0691f:00210000
#07018:1414
#07012:00140000
#07014:00000014
#07010:41
#0711a:14
#07112:00140000
#07118:0014
#07114:00000014
#0721a:14
#07218:0000341434000000
#01514:0014
#01512:14
#01518:00140000
#0151a:00000014
#0141a:1414
#01414:00140000
#01312:1414
#01318:00140000
#09416:00000016000000000000000000000000
#05614:14
#0561a:14
#06218:14
#06314:14
#06312:0014
#06414:14
#07718:0014
#07714:00140000
#07712:00000014
#0771a:24
#07912:14
#07918:00140000
#07914:0014
#0791a:00000014
#07818:14
#07814:00140000
#0781a:0014
#08014:14
#08018:00140000
#08012:0014
#05418:0014
#05412:00000014
#08414:0014
#0841a:00000014
#04518:0000000024000014
#0451a:24
#04512:00240000
#04614:0014
#0461a:00000014
#05314:0000000024000014
#05312:24
#0531a:00240000
#07512:2400000000000014
#07514:0000000024343400
#0751a:00240000
#0761a:0014
#07612:00000014
#07314:0014
#07318:00260014
#07312:26
#07412:14
#0741a:00140000
#07414:0014
#07418:00000014
#0831a:2400000000000014
#08318:0000000024343400
#08312:00240000
#08310:41
#08118:2614
#08114:00000014
#08112:00260000
#0821a:14
#08212:00140000
#08218:0014
#08214:00000014
#06618:26
#06612:0026
#06512:0026
#06518:26
#08612:24
#08618:24
#08512:24
#08518:0024
#00718:2424
#00714:00240024
#09212:24
#09216:00240000
#0921a:0024
#09018:24
#09014:00240000
#0901a:0024
#0881a:24
#08816:00240000
#08812:0024
#05719:00340000
#0571a:0034
#05813:00340000
#05812:0034
#06013:00340000
#06012:0000003400000000
#03819:00340000
#03818:0000003400000000
#06158:54
#0615a:0064
#02858:0014
#03254:0014
#04252:54
#06854:00000026000000000000000000000000
#06752:0000000000000056
#06952:00160000
#07358:00160000
#09358:0000000000000066
#0725a:54
#07258:0000002400000000
#03958:00160000
#04352:00160000
#09456:00000026000000000000000000000000
#09458:00000016
#08652:64
#08658:64
#08654:0014
#0865a:0014
#05658:0014
#05652:0014
#05654:54
#0565a:54
#06258:54
#06354:64
#06352:0054
#06454:64
#00854:0014
#0905a:0014
#05158:00160000
#08152:00160000
#04558:0000000000000054
#05354:0000000000000064
#07552:0000000000000064
#07554:0054
#0835a:0000000000000054
#08358:0064
#001380:1424
#002340:1424
#007340:00000014
#008340:0024
#012380:14
#012390:00340000
#0123a0:0024
#016340:14
#016330:00340000
#016320:0024
#0203a0:1424
#020380:00340000
#024320:1424
#024340:00340000
#0283a0:14
#028390:00340000
#028380:0024
#032320:14
#032330:00340000
#032340:0024
#0373a0:1400340034340034
#0383a0:0034000000000000
#038390:00340000
#038380:0000003424000000
#042320:14
#042330:00340000
#042340:0024
#045380:0000000014343434
#0463a0:00240000
#053340:0000000014343434
#054320:00240000
#0553a0:14240000
#055340:00001424
#0563a0:14
#056380:0024
#056341:14
#056321:0024
#057381:14
#057391:00340000
#0573a1:00003424
#058341:14
#058331:00340000
#058321:00003424
#059341:0000000000001434
#060341:0034000000000000
#060331:00340000
#060321:0000003424000000
#061381:14
#0613a1:0034
#062381:34
#0623a1:0024
#063341:14
#063321:0034
#064341:34
#064321:0024
#067321:0000000000000016
#068341:00000056000000000000000000000000
#068321:0026
#0723a1:14000024
#072381:0000345434000000
#075341:0000000014343400
#075321:0000000000000034
#076341:00240000
#083381:0000000014343400
#0833a1:0000000000000034
#084381:00240000
#085321:14240000
#085381:00001424
#086321:14
#086341:0024
#086380:14
#0863a0:0024
#093380:0000000000000016
#094360:00000056000000000000000000000000
#094380:00003626
